#TITLE:Good Times|Hard Times;
#SUBTITLE:;
#ARTIST:COHI;
#TITLETRANSLIT:;
#SUBTITLETRANSLIT:;
#ARTISTTRANSLIT:;
#CREDIT:Credit for a certain sound used in this song goes to TaQ. the sound comes from "Radical Faith.";
#BANNER:good times hard times-bn.png;
#BACKGROUND:good times hard times.png;
#LYRICSPATH:;
#CDTITLE:;
#MUSIC:Good Times Hard Times.mp3;
#OFFSET:0.000;
#SAMPLESTART:18.749;
#SAMPLELENGTH:18.000;
#SELECTABLE:YES;
#DISPLAYBPM:170.000:208.000;
#BPMS:0.000=208.019,196.000=257.926,204.000=515.852,220.000=257.926,228.000=170.008;
#STOPS:;
#BGCHANGES:28.000=gtht1=1.000=1=0=1,
44.000=gtht2=1.000=0=0=1,
60.000=gtht3=1.000=0=0=1,
76.000=gtht1=1.000=0=0=1,
92.000=gtht1=1.000=0=0=1,
108.000=gtht5=1.000=0=0=1,
124.000=gtht1=1.000=0=0=1,
140.000=gtht2=1.000=0=0=1,
156.000=gtht1=1.000=0=0=1,
172.000=gtht5=1.000=0=0=1,
188.000=gtht1=1.000=0=0=1,
196.000=gtht4=1.000=0=0=1,
204.000=gtht4=2.000=0=0=1,
220.000=gtht4=1.000=0=0=1,
228.000=gtht4=0.659=0=0=1,
232.000=gtht2=0.817=0=0=1,
248.000=gtht3=0.817=0=0=1,
264.000=gtht1=0.817=0=0=1,
280.000=gtht5=0.817=0=0=1,
296.000=gtht3=0.817=0=0=1,
312.000=gtht2=0.817=0=0=1,
328.000=gtht3=0.817=0=0=1,
344.000=gtht1=0.817=0=0=1,
360.000=good times hard times.PNG=1.000=0=0=1,
99999=-nosongbg-=1.000=0=0=0 // don't automatically add -songbackground-
;
// cache tags:
#FIRSTBEAT:12.000;
#LASTBEAT:362.000;
#SONGFILENAME:Songs/StepMix 1.0/Good Times Hard Times/Good Times Hard Times.sm;
#HASMUSIC:1;
#HASBANNER:1;
#MUSICLENGTH:109.459;
// end cache tags

//---------------dance-single - ----------------
#NOTES:
     dance-single:
     :
     Hard:
     9:
     0.777,1.000,0.557,0.292,0.192,502.000,61.000,32.000,9.000,0.000:
0000
0000
0000
0000
,
0000
0000
0000
0000
,
0000
0000
0000
0000
,
0000
0000
0000
0000
,
0000
0000
0000
0000
,
0000
0000
0000
0000
,
0000
0000
0000
0000
,
0100
1000
0001
0100
0001
0000
0011
0000
,
1000
0010
0100
0001
0010
0100
0001
0000
,
0001
0100
1000
0010
0100
0001
1000
0001
,
0100
1000
0100
0001
0100
1000
0100
0010
,
1000
0100
1000
0100
0010
0001
0010
0001
,
0100
1000
0100
1000
0010
0100
0010
0100
,
0001
0001
0010
0000
0100
1000
0001
0000
,
0100
0010
0010
1000
0100
0100
0001
0000
,
1000
0000
0100
0010
0001
0000
0100
0010
,
0001
0000
0010
1000
0001
0000
1001
0000
,
0100
1000
0001
0010
0100
1000
0010
0100
,
1000
0100
0010
1000
0100
0010
0001
0100
,
0010
0000
1100
0000
0001
0100
0000
0100
,
0001
0010
0000
0100
1000
0010
0000
0100
,
0010
0100
0001
0000
1000
0100
0010
0000
,
1000
0100
0010
0001
0100
0010
0002
0000
,
0003
1000
0010
0100
1000
0100
0002
0000
,
0000
1003
0010
0100
1000
0100
0010
1000
,
0100
0000
0110
0000
0010
0001
0010
0100
,
1000
0001
0100
0010
1000
0010
0100
0000
,
1001
0000
0101
0000
1100
0000
1000
0100
,
1100
0000
0110
0000
0101
0000
0001
0100
,
0101
0000
1010
0000
1001
0000
0001
0010
,
0110
0000
0101
0000
1100
0000
1000
0010
,
0110
0000
1000
0100
0000
0001
0010
1001
,
0000
0010
0000
0001
1000
0000
0101
0000
,
0010
0000
0010
0001
0100
0000
1000
0000
,
0001
0010
1000
0010
0000
0100
0010
0000
,
1001
0000
0100
0010
0100
0001
1000
0000
,
0100
0010
0100
0010
0001
0010
0001
0000
,
0100
0000
1000
0010
0100
1000
0100
0000
,
0001
0010
0100
1000
0001
0010
0100
0000
,
1000
0000
0001
0100
0010
0100
0001
0000
,
1000
0100
0010
0001
0100
0010
0001
0000
,
1000
0010
0100
1000
0100
0001
1000
0000
,
0100
0010
0001
1000
0010
0100
0001
0000
,
1100
1001
0101
1001
,
0110
1010
1100
0101
,
1001
1100
1001
0101
,
0110
1010
0101
0011
,
0010
1000
0010
1000
0100
0010
0100
0010
,
0001
1000
0001
1000
0010
0001
0010
0001
,
2002
0000
0000
0000
,
0000
0000
0000
0000
,
0000
0000
0000
0000
,
0000
0000
0000
0000
,
0000
0000
0000
0000
,
0000
0000
0000
0000
,
0000
0000
0000
0000
,
0000
0000
0000
0000
,
0000
0000
0000
0000
0000
0000
0000
3003
,
0001
0100
0100
0010
1000
1000
0100
0000
,
0010
0001
0010
0100
0100
1000
0001
0000
,
1000
0100
0010
0001
0010
1000
0100
0010
,
0001
0010
1000
0000
0001
0100
1000
0000
,
1001
1000
1000
0100
0010
1000
0010
0000
,
1010
0000
1010
0010
0100
0010
0001
0000
,
1000
0100
0001
0100
1000
0010
0010
0000
,
1001
0000
1001
0001
0100
1000
0100
0000
,
2010
0000
3000
0010
1000
0000
0100
0000
0010
0000
0001
0000
0010
0000
0000
0000
,
0100
0000
0100
1000
0000
1000
0001
0000
0100
0000
0010
0000
0010
0000
0000
0000
,
1020
0000
0030
0001
0100
0000
0010
0000
1000
0000
0100
0000
0010
0000
0100
0000
,
0001
0000
0000
0001
0100
0000
0100
0000
0010
0000
0000
1000
0100
0000
0010
0000
,
0101
0000
1010
0000
1001
0000
2010
0001
,
3001
0000
0110
0000
0101
0000
0101
0010
,
0101
0000
0011
0000
1100
0000
0010
1000
,
0101
0000
1001
0000
0101
1000
0100
0010
,
2001
0000
3001
0000
0100
0000
0020
1000
0030
1000
0100
0000
0002
0000
0003
0000
,
2000
0001
3000
0000
0001
0000
0020
0001
0030
0001
0100
0000
0002
0000
0010
0003
,
0200
0000
1000
0300
0010
0000
0100
0001
0000
0001
1000
0000
0001
0000
0001
0000
,
0010
0100
0010
0000
1000
0000
0010
0100
0010
0000
0001
0000
0201
0000
0000
0000
,
0302
0000
0003
0001
0100
0000
0020
0000
1030
0000
1000
0000
0020
0000
0130
0000
,
0002
0000
0003
0001
0010
0000
0200
0000
0010
0000
0310
0000
0002
0000
1003
0000
,
0020
0000
0030
0010
0100
0000
0001
0000
1000
0000
1000
0000
0100
0000
0010
0000
,
0001
0000
0000
0001
1000
0000
0010
0000
0100
0000
0100
0000
0001
0000
0001
0000
,
10M0
0000
0000
1000
0100
0000
00M0
0100
0010
0000
0000
0010
M001
0000
0000
0001
,
M100
0010
0010
1000
0010
0010
1M00
0000
,
M001
0000
0000
0001
0010
0000
M000
0010
0100
0000
0000
0100
100M
0000
0000
1000
,
0002
0103
0010
0200
0300
0001
0002
0003
,
2001
0000
0000
0000
3001
0010
0002
0100
0003
0000
0100
0010
2000
3000
1000
0001
,
00M0
0000
0001
1000
0000
0000
2000
3001
1000
0000
0000
0000
2000
0001
0000
3000
,
0001
0010
0000
0000
0010
0100
0010
0100
1000
0100
0000
0000
0100
1000
0000
0000
,
0100
0001
0000
0001
0100
0000
0010
0000
0001
0000
0001
0100
0010
0000
1000
0000
,
2002
0000
0000
0000
0000
0000
0000
3003
0000
0000
0000
0000
0000
0000
0000
0000
;

//---------------dance-single - ----------------
#NOTES:
     dance-single:
     :
     Challenge:
     10:
     0.904,1.000,0.375,0.037,0.448,648.000,41.000,4.000,23.000,0.000:
0000
0000
0000
0000
,
0000
0000
0000
0000
,
0000
0000
0000
0000
,
1000
1000
0110
0011
,
1001
0110
1000
0110
,
1010
1010
0100
0011
,
0011
0100
1001
0110
,
1000
0000
0010
0100
0010
0000
1000
0000
0100
000M
00M0
0000
0100
000M
00M0
000M
,
0010
0000
0001
0010
0001
0000
0100
0000
0010
0000
1000
0100
1000
0000
0001
0000
,
0100
0010
1000
0100
0010
0001
0010
0100
,
1000
0001
M100
0010
M001
0010
1000
0001
,
M010
0100
M001
0100
1000
0010
0100
1000
,
0100
0000
0001
0000
1000
0000
0100
0000
0010
0000
1000
0000
0010
0000
0001
00M0
,
0100
0010
0100
0000
0010
1000
0010
0000
0100
0001
0100
0000
0010
0100
0010
0000
,
1000
0100
0010
0001
1000
0010
0100
1000
,
0100
0001
0001
0010
0100
0100
1000
1000
,
0010
0100
0100
1000
0100
0100
0001
1000
,
0100
0010
0001
0010
0100
1000
0001
0010
,
0100
0001
0100
1000
0010
0100
1000
0100
,
0001
0000
1000
0001
1000
0000
0010
0000
0100
0000
0000
0000
0100
0000
0000
0000
,
0001
0000
1000
0100
1000
0000
0010
0000
0100
0000
0001
0000
1000
0000
0100
0000
,
1000
0000
0010
0100
0010
0000
1000
0000
0001
0000
0000
0000
0001
0000
0000
0000
,
0010
0000
0100
1000
0100
0000
1000
0000
0001
0000
0100
0000
0001
0000
0100
0000
,
0010
0000
1000
0001
1000
0000
0010
0000
0100
0000
0000
0000
0001
0000
0000
0000
,
0010
0000
0100
1000
0100
0000
1000
0000
0001
0000
0100
0000
0001
0000
0001
0000
,
0010
0000
0100
0010
0100
0000
1000
0000
0001
0000
0000
0000
0001
0000
0000
0000
,
0100
0010
1000
0001
0010
0100
1000
0001
,
0100
0010
100M
0000
1100
0000
100M
0010
,
0100
1000
0100
0001
1000
0100
0001
0100
,
0010
0000
0011
0000
0110
0000
M100
0001
,
0100
1000
0010
0000
0110
0000
010M
1000
,
0100
0010
0000
0000
0010
0000
0001
0000
00M0
0000
0100
0000
0010
0000
1000
0010
,
0000
0000
0100
0001
0000
0000
0001
0000
0100
0010
0000
0000
0010
1000
0000
0000
,
1000
0100
0000
0000
0100
0000
0010
0000
0001
0000
0M00
0000
0001
0100
0000
0000
,
0010
0000
1000
0000
0010
0000
0100
0001
0000
0000
0001
0000
0010
0100
0000
0000
,
0100
1000
0010
0100
1000
0100
0001
1000
,
0100
0010
1000
0010
0100
0001
0100
1000
,
0010
0100
1000
0100
0001
0010
0001
1000
,
0100
0001
0100
0010
0001
1000
0010
0100
,
1000
0010
0100
0000
1000
0100
0001
0000
,
1000
0100
0010
0000
1000
0010
0001
0000
,
0100
1000
0100
0000
0010
1000
0001
0000
,
0010
0100
0001
0000
0100
1000
0001
0000
,
0110
1001
0110
0011
,
1100
0101
1010
1001
,
0110
0101
1100
0110
,
1001
0110
0110
1001
,
0001
0100
0010
1000
0010
0100
1000
0100
,
0001
1000
0100
0001
0100
1000
0010
0100
,
2002
0000
0000
0000
,
0000
0000
0000
0000
,
0000
0000
0000
0000
,
0000
0000
0000
0000
,
0000
0000
0000
0000
,
0000
0000
0000
0000
,
0000
0000
0000
0000
,
0000
0000
0000
0000
3000
M000
M000
M003
,
0001
0000
0100
0000
1000
0000
0100
0000
0010
0000
1000
0100
1000
0000
0010
0000
,
0000
0010
0100
1000
0100
0001
1000
0100
,
0010
0000
0001
0000
0010
0000
0100
0000
0001
0000
0100
1000
0100
0000
1000
0000
,
0000
0010
0100
1000
0100
0001
1000
0100
,
0010
0001
0010
1000
0010
0100
1000
0001
,
0101
0100
0010
1000
1100
0100
0010
0001
,
1001
1000
0010
0100
0101
0001
1000
0100
,
0110
0010
0001
1000
1010
0010
0100
0001
,
1001
1000
0100
0010
0011
0001
1000
0010
,
0100
0000
0001
0000
0001
0000
0010
0000
0100
1000
0100
0000
1000
0010
1000
0000
,
0001
0000
0100
0000
0010
1000
0010
0100
0010
0000
1000
0000
0001
0010
0001
0010
,
0100
0000
1000
0001
1000
0000
0010
0000
0100
0001
0100
0000
0010
1000
0010
1000
,
0010
0000
0100
0001
0100
0000
0010
0000
1000
0000
0100
1000
0100
0000
0010
0000
,
0001
0000
0100
0001
0100
0000
0010
0000
1000
0100
1000
0000
0001
1000
0001
0010
,
0001
0000
0100
0010
0100
0000
0010
0000
1000
0000
0010
0100
0010
0000
1000
0000
,
0001
0000
0010
0100
0010
0000
0100
0000
1000
0001
1000
0000
0001
0100
0001
0100
,
0010
0000
1000
0001
1000
0000
0001
0000
0010
0000
0100
1000
0100
0000
1000
0000
,
0001
0100
0001
0000
0100
0000
0010
1000
0010
1000
0010
0000
0100
0000
0100
0000
,
0001
1000
0001
0000
0010
0000
0001
0010
0001
0010
0001
0000
0100
0000
0100
0000
,
0010
1000
0010
0000
0100
0000
0001
1000
0001
1000
0001
0000
0010
0000
0100
0000
,
1000
0001
1000
0000
0010
0000
0100
0001
0100
0001
0100
0000
0010
0000
1000
0000
,
0100
1000
0001
0000
0100
0000
0010
1000
0010
0100
0010
0000
1000
0000
0001
0000
,
0010
0100
1000
0000
0001
0000
0100
0001
0100
0010
0100
0000
0001
0000
1000
0000
,
0100
0010
0001
0000
1000
0000
0001
0100
0001
1000
0001
0000
0010
0000
0100
0000
,
1000
0001
0100
0000
0010
0000
1000
0100
0010
0100
1000
0000
0001
0000
0100
0000
,
001M
1000
0100
0001
0100
0010
0001
1000
,
0M10
0100
1000
0100
0001
1000
0010
0100
,
10M0
0100
0001
1000
0100
0010
0001
0100
,
M010
0001
0010
1000
0001
0010
0100
1000
,
0001
0100
0000
0000
0010
1000
0010
1000
0000
0000
0001
0010
0001
0100
0001
0100
,
0000
0000
0001
1000
0000
0000
0010
0100
0001
0100
0000
0000
0010
1000
0000
0000
,
0010
0100
0000
0000
0001
0100
0001
0100
0001
1000
0000
0000
0010
0100
0000
0000
,
0001
1000
0001
0010
0001
0100
0001
1000
0000
0000
0001
0100
0001
1000
0010
0000
,
2002
0000
0000
0000
0000
0000
0000
0000
0000
0000
0000
0000
0000
0000
0000
0000
0000
0000
0000
0000
0000
0000
0000
0000
0000
0000
0000
0000
0000
0000
0000
3003
0000
0000
0000
0000
0000
0000
0000
0000
0000
0000
0000
0000
0000
0000
0000
0000
0000
0000
0000
0000
0000
0000
0000
0000
0000
0000
0000
0000
0000
0000
0000
0000
;

//---------------dance-single - ----------------
#NOTES:
     dance-single:
     :
     Medium:
     7:
     0.612,0.743,0.722,0.283,0.000,359.000,79.000,31.000,0.000,0.000:
0000
0000
0000
0000
,
0000
0000
0000
0000
,
0000
0000
0000
0000
,
0000
0000
0000
0000
,
0000
0000
0000
0000
,
0000
0000
0000
0000
,
0000
0000
0000
0000
,
1001
0000
0001
0100
0020
0000
1000
0000
,
0100
1030
0100
0100
,
1000
0110
1001
0100
,
0110
1001
0011
0100
,
0001
0010
0001
0010
0001
0010
0001
0000
,
1000
0010
1000
0010
1000
0010
1000
0000
,
0001
1000
0100
0000
1000
0001
0100
0000
,
0010
1000
0010
1000
0100
1000
0100
0000
,
0010
0000
0001
0100
0001
0000
0110
0000
,
1001
1100
1001
0101
,
0010
0010
0100
0010
,
0100
0000
0001
1000
0001
0100
0010
0000
,
0110
0000
1001
0000
0011
0000
0001
1000
,
0000
0000
0001
0100
0000
0000
0001
1000
,
0000
1001
0110
0011
,
0110
1001
1100
0000
,
1001
1100
1001
0101
,
0110
1001
0110
0000
,
0110
1100
0101
1010
,
1001
0110
1100
0011
,
2001
0001
0100
0010
,
3200
0010
0010
1000
,
0320
0001
0100
0001
,
0032
0100
0010
1000
,
1003
0000
0001
1000
0000
0001
1000
0001
,
0000
0010
0000
0100
0010
0000
0100
0000
,
0010
0000
0100
0010
0001
0000
1000
0000
,
0001
0010
0100
1000
0000
1000
0001
0000
,
0110
0010
1100
0000
,
1001
0001
1010
0000
,
0101
0001
1001
0000
,
0001
0100
1000
0000
1000
0100
0001
0000
,
2001
0000
0001
0000
0010
0000
0100
3000
,
0020
1030
1001
0101
,
0020
0000
1000
0030
1100
0000
0010
0000
,
2002
3003
0100
0000
0020
0000
1030
0000
,
1001
1100
1001
0101
,
1001
0110
1001
0011
,
1100
1100
0110
0101
,
1100
0110
1001
0011
,
1100
0000
0001
0000
0100
0001
1000
0000
,
0010
1000
0010
1000
0100
0001
0100
0000
,
2002
0000
0000
0000
,
0000
0000
0000
0000
,
0000
0000
0000
0000
,
0000
0000
0000
0000
,
0000
0000
0000
0000
,
0000
0000
0000
0000
,
0000
0000
0000
0000
,
0000
0000
0000
0000
,
0000
0000
0000
0000
0000
0000
0000
3003
,
0001
0100
0000
0010
1000
0000
0000
0100
,
0000
1000
0000
0001
0100
0000
0010
1000
,
0010
1000
0000
0001
1000
0000
0000
0001
,
0000
0100
0000
0000
1000
0001
0100
0000
,
0110
0010
1000
0000
1001
0000
0010
0000
,
1100
0100
1001
0000
,
1010
1010
0110
1001
,
0011
1001
1100
1001
,
0110
0000
0010
1000
0010
0000
0100
0001
,
0010
0000
0100
0100
1000
0000
0001
0100
,
0100
0000
0010
1000
0010
1000
0010
0000
,
1000
0010
0100
0010
0100
0000
0010
0100
,
0001
0000
1000
0000
0100
0000
0010
0001
,
0010
0000
0100
0000
1000
0000
0001
0100
,
0001
0000
0010
0000
1000
0000
0001
0010
,
0100
0000
1000
0000
0001
0000
0100
0010
,
1000
0000
0100
0010
0000
0000
0001
0000
,
0100
0000
1000
0010
0000
0010
0100
0000
,
0001
0010
0100
1000
,
0001
0000
1000
0000
0010
0100
0010
0000
,
1000
0010
1000
0010
1000
0010
0100
0000
,
0100
0001
0100
0001
0010
0001
1000
0000
,
0001
0100
0010
0100
0010
1000
0010
0000
,
0100
0010
0001
0010
0100
1000
0100
0000
,
2000
3010
1000
0020
1030
0010
2000
3001
,
0200
0300
0000
0000
0000
0000
2000
3000
,
0002
0103
0001
0020
0130
1000
0002
1003
,
0100
0000
0000
0000
0000
0000
0002
0003
,
2000
3000
0010
0200
0300
0001
0200
0301
,
2000
3010
0000
2000
3001
0000
2000
0000
,
3200
0300
0100
0001
0100
0000
1000
0000
,
0001
0100
0010
1000
0000
0001
0100
0000
,
2002
0000
0000
3003
0000
0000
0000
0000
;

//---------------dance-single - ----------------
#NOTES:
     dance-single:
     :
     Easy:
     4:
     0.382,0.577,0.201,0.037,0.000,267.000,22.000,4.000,0.000,0.000:
0000
0000
0000
0000
,
0000
0000
0000
0000
,
0000
0000
0000
0000
,
0000
0000
0000
0000
,
0000
0000
0000
0000
,
0000
0000
0000
0000
,
0000
0000
0000
0000
,
1000
0001
0100
0010
,
1000
0100
0010
0000
,
0001
1000
0010
0100
,
0001
1000
0100
0010
,
0001
0100
0010
0000
,
1000
0100
0010
0000
,
0001
1000
0001
0100
,
0010
1000
0001
0000
,
1000
0100
0010
0001
,
1000
0100
0010
0001
,
0001
0010
0100
1000
,
0001
0010
0100
1000
,
1001
0000
0101
0000
,
1000
0000
0010
0100
0000
0000
0001
0000
,
1000
0000
0110
0000
,
1000
1000
0001
1000
,
0001
0110
0000
0010
,
1000
0100
0010
0000
,
0001
1000
0001
0000
,
1000
0010
1000
0000
,
0001
0010
0100
1000
,
0001
0100
0010
1000
,
0001
0010
0100
1000
,
0100
0010
0001
0100
,
0001
0000
0000
1000
0000
0000
0001
0100
,
0000
0010
0000
0100
0000
0000
0001
0000
,
1000
0100
0100
0010
,
0100
0100
1000
0001
,
0001
0010
0100
0000
,
1000
0001
1000
0000
,
1000
0100
0010
0000
,
0001
0010
0100
0000
,
1001
0010
0001
0000
,
1000
0010
0001
0000
,
1000
0100
1000
0000
,
0001
0100
1000
0000
,
1001
0001
0100
0010
,
0001
0010
0100
1000
,
1001
0010
1000
0010
,
1001
0010
0100
1000
,
0100
0010
1000
0010
,
0100
0001
1000
0010
,
2002
0000
0000
0000
,
0000
0000
0000
0000
,
0000
0000
0000
0000
,
0000
0000
0000
0000
,
0000
0000
0000
0000
,
0000
0000
0000
0000
,
0000
0000
0000
0000
,
0000
0000
0000
0000
,
0000
0000
0000
0000
0000
0000
0000
3003
,
0001
0000
1000
0001
1000
0000
0001
0000
,
1000
0001
1000
0000
0001
0000
0000
0000
,
0001
0100
0100
0001
,
0100
0000
0001
0000
0100
0001
0100
0000
,
1010
0000
0101
0000
,
0011
0000
1100
0000
,
1000
0001
0100
0010
,
1000
0110
0110
0000
,
0001
0100
0010
0100
,
0001
0100
0010
1000
,
0010
0100
0001
1000
,
0001
0010
0100
1000
,
1001
0000
1000
0000
0001
0000
0001
0100
,
0001
0000
0001
0000
0001
0000
0001
0010
,
0001
0000
0010
0000
0010
0000
0010
0100
,
0010
0000
0100
0000
0100
0000
1000
0001
,
1000
0000
0000
0010
0000
0000
1001
0000
,
0001
0000
0000
0100
0000
0000
1010
0000
,
0001
0000
1000
0010
,
0100
0001
0000
1010
,
1000
0000
0000
0100
0000
0000
1010
0000
,
0010
0000
0000
1010
0000
0000
0001
0000
,
1000
0000
0010
0001
,
1000
0010
0000
0100
,
0001
0000
0000
0001
0000
0000
0010
0000
,
0100
0000
0000
0100
,
1000
0000
0000
1000
0000
0000
0010
0000
,
0001
0000
0000
0100
0000
0000
0001
0000
,
0100
0000
0000
0001
0000
0000
1000
0000
,
0001
0000
0000
0100
0000
0000
0001
0000
,
1000
0100
1000
0100
0010
0000
0001
0000
,
1000
0010
0100
0001
0000
0010
0100
0000
,
2002
3003
0000
0000
;

//---------------dance-single - ----------------
#NOTES:
     dance-single:
     :
     Beginner:
     2:
     0.320,0.576,0.466,0.000,0.005,194.000,51.000,0.000,73.000,0.000:
0000
0000
0000
0000
,
0000
0000
0000
0000
,
0000
0000
0000
0000
,
0000
0000
0000
0000
,
0000
0000
0000
0000
,
0000
0000
0000
0000
,
0000
0000
0000
0000
,
0001
0001
0001
0000
,
0100
0000
0010
0000
,
1000
1000
1000
0000
,
0010
0010
0010
0000
,
0100
0000
0001
0000
,
0010
0000
0100
0000
,
1000
0000
0001
0000
,
0100
0000
0010
0000
,
1000
1000
1000
0000
,
0010
0000
0100
0100
,
0100
0000
0001
0001
,
0001
0000
0110
0110
,
0110
0000
1000
0000
,
0001
0001
0000
0100
,
0100
0000
0010
0000
,
1000
1000
0000
0001
,
0001
0000
0010
0000
,
0100
0100
0000
1000
,
1000
0000
0001
0001
,
0001
0000
1000
0000
,
1001
1001
1001
0000
,
0110
0110
0110
0000
,
1001
1001
1001
0000
,
1001
1001
1001
0000
,
0001
0000
0100
0000
,
0010
0010
0010
0000
,
1000
0000
0100
0100
,
0000
1000
0000
0001
,
0001
0000
0100
0000
,
0010
0000
1000
1000
,
1000
0000
0100
0100
,
0100
0000
0010
0000
,
0110
0000
1001
0000
,
1001
0000
0110
0000
,
0110
0000
1001
0000
,
1001
0000
0110
0000
,
0110
0000
0001
0001
,
0000
1000
1000
0000
,
0010
0010
0010
0010
,
0000
0100
0100
0000
,
1001
0000
0110
0000
,
1001
1001
1001
0000
,
0110
0000
0000
0000
,
0MM0
M00M
M000
M000
M0MM
M00M
M00M
0MM0
,
0000
0000
0000
0000
,
MMMM
0MM0
0MM0
0MM0
0MM0
0MM0
0MM0
0MM0
,
0000
0000
MMMM
0000
,
M00M
0000
M00M
0000
M00M
0000
M00M
0MM0
M00M
0000
M00M
0000
M00M
0000
M00M
0000
,
0000
0000
0000
0000
,
MMMM
0MM0
0MM0
0MM0
0MM0
0MM0
0MM0
0MM0
,
0000
0000
0000
0000
,
0001
0001
0000
0100
,
0100
0000
0010
0000
,
1000
1000
1000
0000
,
0001
0000
0010
0010
,
0010
0000
0100
0100
,
0000
1000
1000
0000
,
0001
0001
0001
0000
,
0100
0100
0100
0000
,
0010
0010
0010
0000
,
1000
0000
0100
0100
,
0100
0000
0010
0000
,
0001
0001
0001
0000
,
0110
0110
0110
0000
,
1001
1001
1001
0000
,
0110
0110
0110
0000
,
0110
0110
0110
0000
,
1001
0000
0001
0001
,
0001
0000
0100
0100
,
0000
0010
0010
0000
,
1000
0000
0100
0000
,
0010
0010
0000
0001
,
0001
0000
1000
1000
,
1000
0000
0010
0010
,
0000
0110
0110
0110
,
0110
0000
1001
0000
,
0110
0000
1001
0000
,
0001
0000
0100
0000
,
0010
0000
1000
0000
,
0100
0000
1000
0000
,
0001
0000
0100
0000
,
0010
0010
0000
1000
,
1000
1000
1000
0000
,
1001
0000
0000
0000
;

//---------------dance-double - ----------------
#NOTES:
     dance-double:
     :
     Hard:
     9:
     0.741,0.991,0.384,0.037,0.283,522.000,42.000,4.000,37.000,0.000:
00000000
00000000
00000000
00000000
,
00000000
00000000
00000000
00000000
,
00000000
00000000
00000000
00000000
,
00000000
00000000
00000000
00000000
,
00000000
00000000
00000000
00000000
,
00000000
00000000
00000000
00000000
,
00000000
00000000
00000000
00000000
,
00011000
00000000
00001000
00100000
00010000
00000000
01000000
00000000
,
10000000
00010000
01000000
00010000
00100000
00001000
00010000
00000010
,
00000100
00000000
00000001
00001000
00000100
00000000
00001000
00000001
,
00000100
00001000
00010000
00001000
00010000
01000000
10000000
01000000
,
10000000
00100000
01000000
00010000
00100000
00001000
00010000
00000100
,
00001000
00000010
00000100
00000001
00000010
00000001
00000100
00000000
,
00000010
00001000
00000001
00000000
00000010
00000100
00001000
00000000
,
00000010
00010000
00001000
00000100
00000010
00010000
00000100
00000000
,
00010000
00001000
00010000
01000000
00100000
00010000
10000000
00000000
,
01000000
10000000
00010000
00100000
01000000
10000000
01000000
00000000
,
00010000
00001000
00010000
00001000
00000100
00000001
00000100
00000001
,
00000010
00000100
00010000
00001000
00100000
00010000
01000000
00010000
,
10010000
00000000
10010000
00000000
00010000
01000000
00000000
01000000
,
00001000
00010000
00000000
00010000
00000100
00000010
00000000
00000010
,
00000001
00000100
00000010
00000000
00000010
00001000
00000010
00000000
,
00000010
00010000
00001000
00010000
00001000
00100000
01000000
00000000
,
00000000
10000000
00010000
01000000
00010000
00100000
00001000
00000000
,
00000000
00010000
00000100
00000010
00000001
00000100
00000010
00001000
,
00000100
00000000
00000100
00000000
00000100
00010000
00000100
00000010
,
00000100
00000001
00000100
00010000
00001000
00010000
01000000
00000000
,
01100000
00000000
00101000
00000000
00011000
00000000
00001000
00100000
,
00010000
00000000
01010000
00000000
00010100
00000000
00000100
00010000
,
00001000
00000000
00011000
00000000
01010000
00000000
01000000
00001000
,
00010000
00000000
00011000
00000000
00001100
00000000
00000100
00000010
,
00000001
00000000
00000100
00001000
00000000
00010000
01000000
10000000
,
00000000
00100000
00000000
00010000
00001000
00000000
00000100
00000000
,
00000001
00000000
00000010
00001000
00010000
00000000
01000000
00000000
,
10000000
00100000
00010000
00001000
00000000
00000010
00000001
00000000
,
00001001
00001000
00000100
00000010
00000001
00000100
00000010
00001000
,
00000001
00000010
00001000
00010000
01000000
10000000
00100000
01000000
,
00010000
00100000
10000000
00100000
01000000
10000000
01000000
00100000
,
00001000
00010000
00000100
00000010
00000001
00000100
00000010
00000000
,
00001000
00000001
00000010
00001000
00010000
00001000
00100000
01000000
,
00010000
01000000
10000000
00100000
01000000
00100000
01000000
00010000
,
00100000
00001000
00010000
00001000
00000100
00000010
00001000
00000001
,
00000010
00000100
00001000
00000001
00000010
00000100
00000010
00000000
,
00010100
00011000
01001000
00110000
,
00010100
00001010
00011000
00101000
,
00010100
00001100
00110000
00101000
,
00010010
00001100
00110000
00101000
,
00010100
00000100
00001000
00000010
00000100
00000001
00001000
00000100
,
00000001
00000100
00010000
00001000
00010000
01000000
10000000
00100000
,
02200000
00000000
00000000
00000000
,
00000000
00000000
00000000
00000000
,
00000000
00000000
00000000
00000000
,
00000000
00000000
00000000
00000000
,
000M000M
000M000M
000M000M
000M000M
000M000M
000M000M
000M000M
000M000M
,
000MMMMM
000M000M
000M000M
000M000M
000M000M
000M000M
000M000M
000M000M
,
000M000M
00000000
00000000
00000000
,
00000000
00000000
00000000
00000000
,
00000000
00000000
00000000
00000000
00000000
00000000
00000000
03300000
,
10000000
00010000
01000000
00100000
00000000
10000000
01000000
00010000
,
00001000
00010000
00000000
00000100
00000010
00000001
00000100
00000001
,
00001000
00000000
00001000
00000100
00000001
00000100
00001000
00000000
,
00000100
00010000
00001000
00010000
01000000
10000000
01000000
00100000
,
00001000
00100000
00000000
00100000
01000000
00100000
00000000
01000000
,
10000000
00000000
10000000
00010000
01000000
00010000
00100000
00000000
,
00001000
00010000
00001000
00000100
00001000
00000100
00000010
00001000
,
00000001
00000000
00001000
00000100
00010000
00001000
00100000
01000000
,
10000000
00000000
00000000
10000000
01000000
00000000
00010000
00000000
01000000
00000000
00000000
00000000
00100000
00000000
00000000
00100000
,
00001000
00000000
00010000
00000000
00001000
00000000
00000100
00000000
00000010
00000000
00000010
00000100
00000000
00000100
00000001
00000000
,
00001000
00000000
00000000
00001000
00000100
00000000
00000100
00000000
00010000
00000000
00001000
00000000
00100000
00000000
00000000
00000000
,
01000000
00000000
00000000
01000000
10000000
00000000
00000000
00000000
10000000
00000000
00000000
10000000
00010000
00000000
00100000
00000000
,
00101000
00000000
00011000
00000000
00001100
00000000
00000100
00000010
,
00000011
00000000
00000110
00000000
00010100
00000000
00010000
00001000
,
00101000
00000000
01000000
00000000
10010000
00000000
01000000
00001000
,
00010000
00000000
00011000
00000000
00001100
00000000
00000010
00000001
,
00000100
00000000
00000000
00000100
00001000
00000000
00000000
00001000
00010000
00000000
00000000
00010000
01000000
00000000
00100000
00000000
,
00010000
00000000
10000000
00100000
10000000
00000000
00010000
00000000
00100000
00000000
01000000
00000000
10000000
00000000
10000000
00000000
,
00010000
00100000
00010000
00000000
00100000
00000000
00100000
00001000
00000000
00001000
00010000
00000000
00001000
00000000
00000100
00000000
,
00000010
00000000
00000100
00000000
00000001
00000000
00001000
00000100
00000000
00010000
00001000
00000000
01000000
00000000
00100000
00000000
,
10000000
00000000
01000000
10000000
00000000
00000000
01000000
00100000
00000000
00100000
00001000
00000000
00010000
00000000
00001000
00000000
,
00010000
00000100
00000000
00000000
00001000
00000000
00000010
00000100
00000000
00000001
00000100
00000000
00001000
00000000
00000100
00000000
,
00000010
00001000
00000001
00000000
00000010
00000000
00000100
00010000
00000000
00001000
01000000
00000000
00100000
00000000
00010000
00000000
,
00100000
10000000
01000000
00000000
10000000
00000000
00010000
00100000
00010000
00100000
00001000
00000000
00010000
00000000
00010000
00000000
,
00000100
00000000
00000000
00000100
00001000
00000000
00000000
00001000
00000001
00000000
00000000
00000001
00000010
00000000
00000000
00000010
,
00001000
00000000
00000000
00001000
00010000
00000000
00000000
00010000
01000000
00000000
00000000
01000000
10000000
00000000
00000000
10000000
,
00100000
00000000
00000000
00100000
01000000
00000000
00000000
01000000
00001000
00000000
00000000
00001000
00010000
00000000
00000000
00010000
,
00001000
00000000
00000000
00001000
00000100
00000000
00000000
00000100
00000001
00000000
00000010
00000000
00001000
00000000
00000000
00000000
,
00010000
00001000
00000000
00000000
00001000
00100000
00000000
00010000
00000000
00000000
00010000
01000000
00010000
00000000
00100000
00001000
,
00000000
00000000
00001000
00010000
00000000
00000000
00010000
00000100
00000000
00001000
00000000
00000000
00000100
00000001
00000000
00000000
,
00000001
00000100
00000000
00000000
00000100
00001000
00000001
00000100
00000001
00000100
00000000
00000000
00000001
00000100
00000000
00000000
,
00000100
00000010
00010000
00000010
00010000
00001000
00010000
00001000
00000000
00000000
00001000
00100000
00001000
01000000
00000000
00000000
,
20020000
00000000
00000000
00000000
00000000
00000000
00000000
30030000
00000000
00000000
00000000
00000000
00000000
00000000
00000000
00000000
;

//---------------dance-double - ----------------
#NOTES:
     dance-double:
     :
     Challenge:
     10:
     0.869,0.992,0.411,0.037,0.452,617.000,45.000,4.000,83.000,0.000:
00000000
00000000
00000000
00000000
,
00000000
00000000
00000000
00000000
,
00000000
00000000
00000000
00000000
,
00110000
00011000
00001100
00010010
,
00001100
00101000
00110000
00101000
,
00010000
00001010
00000100
00101000
,
00010000
00000100
00001000
00001010
,
0000M001
00000010
0000M100
00000001
00000100
00010000
00001000
00010000
,
01000000
10000000
00100000
01000000
00010000
00100000
00001000
00010000
,
0000100M
00000100
0000001M
00001000
00000001
00000010
00000100
00010000
,
00001000
00010000
01000000
00100000
10000000
00100000
00010000
01000000
,
00100000
10000000
01000000
00100000
00010000
01000000
00001000
00010000
,
00000100
00001000
00000010
00000100
00001000
00000100
00000001
00001000
,
00000100
00000000
00000011
00000000
00000001
00000100
00001000
00010000
,
00001000
00010000
01000000
10000000
00100000
01000000
00010000
00100000
,
00001000
00010000
00001000
00000000
00010000
00000000
00001000
00000000
00010000
00000000
00001000
00000000
00000100
00000000
00000010
00000000
,
00001000
00000001
00000010
00000100
00000000
00000100
00010000
00001000
,
00100000
01000000
10000000
01000000
00000000
01000000
00100000
00010000
,
00000000
00100000
00001000
00010000
00001000
00000100
00000010
00001000
,
00000001
00000000
00000010
00000100
0000001M
00000000
00000100
00000000
0001000M
00000000
00000000
00000000
0001000M
00000000
00000000
00000000
,
00001000
00000000
00100000
00010000
M0100000
00000000
01000000
00000000
10M00000
00000000
00010000
00000000
M1000000
00000000
00001000
00000000
,
00010000
00000000
00001000
00010000
00001M00
00000000
00010000
00000000
00001M00
00000000
00000000
00000000
0000M100
00000000
00000000
00000000
,
0000001M
00000000
00001000
00000010
0000100M
00000000
00000010
00000000
00000100
00000000
00000001
00000000
00001000
00000000
00000100
00000000
,
00010000
00000000
00001000
00010000
00001000
00000000
00010000
00000000
01000000
00000000
00000000
00000000
01000000
00000000
00000000
00000000
,
10000000
00000000
00100000
01000000
00100000
00000000
10000000
00000000
00010000
00000000
00100000
00000000
00001000
00000000
00010000
00000000
,
00001000
00000000
00000100
00001000
00000100
00000000
00000001
00000000
00000100
00000000
00000000
00000000
00000100
00000000
00000000
00000000
,
00000010
00000000
00000010
00001000
00000010
00000000
00001000
00000000
00000100
00000000
00000100
00000000
00010000
00000000
00001000
00000000
,
00101000
00000000
00011000
00000000
00001100
00000000
00000100
00000010
,
00000011
00000000
00000110
00000000
00001100
00000000
00000100
00010000
,
00011000
00000000
00101000
00000000
01100000
00000000
01000000
10000000
,
10010000
00000000
01010000
00000000
00110000
00000000
00010000
00100000
,
00001000
00010000
00000000
00000000
00001000
00010000
00000000
00001000
00000000
00000000
00010000
00000100
00000000
00001000
00000100
00001000
,
00000000
00000000
00000010
00000001
00000000
00000000
00000001
00000100
00000000
00000001
00000000
00000000
00000010
00000100
00000000
00000000
,
00000100
00001000
00000000
00000000
00001000
00000010
00000000
00000100
00000001
00000000
00000000
00000000
00000001
00000010
00000000
00000000
,
00000100
00001000
00000000
00000100
00010000
00000000
00001000
00010000
00000000
00000000
00001000
00000000
00100000
01000000
00000000
00000000
,
10000000
00010000
10000000
00000000
01000000
00000000
00100000
00000000
00010000
00000000
00100000
00000000
00001000
00000000
00010000
00000000
,
00001000
00000100
00000010
00001000
00000001
00000010
00000100
00000001
,
00000100
00010000
00001000
00010000
01000000
00100000
00010000
10000000
,
00100000
01000000
10000000
01000000
00010000
00100000
00001000
00010000
,
00001000
00000100
00000001
00000010
00000100
00010000
00001000
00010000
,
01000000
00100000
00010000
10000000
00100000
01000000
10000000
01000000
,
00010000
00100000
00001000
00010000
00001000
00000100
00000010
00001000
,
00000001
00000010
00000100
00001000
00000100
00010000
00001000
01000000
,
01100000
01010000
00011000
00001100
,
00010010
00000110
00000011
00010100
,
00011000
01100000
10010000
00110000
,
00011000
00000110
00000101
00010010
,
00011000
00001000
00100000
0100M000
10M00000
0M010000
01000000
00100000
,
00010000
00M01000
000M0100
0000M010
00001000
00000001
00000010
00000100
,
00020200
00000000
00000000
00000000
,
00000000
00000000
00000000
00000000
,
00000000
00000000
00000000
00000000
,
00000000
00000000
00000000
00000000
,
00000000
00000000
00000000
00000000
,
00000000
00000000
00000000
00000000
,
MMM0M0MM
0000M000
0000M000
0000M000
0000M000
0000M000
0000M000
0000M000
,
0000M000
0000M000
0000M000
0000M000
0000M000
0000M000
0000M000
0000M000
,
MMM0M0MM
00000000
00000000
00000000
00030000
000M0000
000M0000
000M0300
,
00001100
00000100
00000001
00000100
00010000
00001000
00010000
01000000
,
10000000
00100000
00010000
00100000
10000000
01000000
00010000
00001000
,
00000100
00000001
00000010
00000100
00000001
00000100
00010000
00001000
,
00010000
01000000
00100000
00010000
10000000
00100000
01000000
10000000
,
01100000
00100000
10000000
00100000
00010000
00001000
00010000
00000100
,
00000010
00000001
00000100
00001000
00010000
00100000
01000000
00010000
,
01000000
10000000
00100000
00100000
00010000
00001000
00000100
00000010
,
00001000
00000001
00000010
00000100
00001000
00000100
00010000
00001000
,
01000000
00000000
00100000
10000000
00100000
00000000
01000000
00000000
00010000
00100000
00000000
00100000
00001000
00000000
00010000
00000000
,
00000100
00001000
00000100
00000000
00000010
00000000
00000001
00000100
00000001
00000000
00000100
00000000
00000010
00001000
00000010
00000000
,
00010000
00000000
00001000
00010000
00000000
00010000
01000000
00000000
00100000
00010000
00100000
00010000
10000000
00000000
00100000
00000000
,
01000000
00010000
00000000
00010000
00100000
00000000
00001000
00010000
00001000
00010000
00000000
00001000
00010000
00000000
00000100
00000000
,
000M0010
00000001
000001M0
00001000
00010M00
01000000
10000000
00100000
,
M0010000
00001000
000M0100
00000001
00000M10
00001000
00010000
01000000
,
100M0000
00100000
M0010000
00001000
000M0010
00000001
00000100
00001000
,
00010M00
00100000
100M0000
01000000
M0010000
00001000
00000100
000MM001
,
000MM010
00000000
00000100
00000000
00010000
00000000
00001000
00010000
00001000
00000000
00100000
00000000
01000000
00000000
00000000
00000000
,
10000000
00100000
10000000
00000000
00010000
00100000
00010000
00000000
00100000
00000000
00001000
00000000
00010000
00000000
00000000
00000000
,
00000100
00000010
00000001
00000000
00000100
00000000
00001000
00010000
00001000
00000000
00100000
00000000
01000000
00000000
00000000
00000000
,
10000000
00000000
00100000
00000000
01000000
00000000
00010000
00100000
00000000
00100000
00001000
00000000
00010000
00000000
00000100
00000000
,
00000010
00000001
00000010
00000000
00000100
00000000
00010000
00001000
00010000
00001000
00100000
00000000
01000000
00000000
10000000
00000000
,
00010000
01000000
00010000
00000000
00100000
00000000
00001000
00010000
00001000
00010000
00000100
00000000
00000010
00000000
00000001
00000000
,
00000100
00000010
00000100
00000000
00000010
00000000
00001000
00000100
00001000
00000100
00010000
00000000
00001000
00000000
01000000
00000000
,
00100000
10000000
00100000
00000000
01000000
00000000
00001000
00010000
00001000
00010000
00000100
00000000
00000010
00000000
00000001
00000000
,
00000001
00000100
000000M0
00000000
00000100
00001000
0000000M
00000000
00001000
00010000
00000M00
00000000
00010000
01000000
00M00000
00000000
,
01000000
10000000
000M0000
00000000
10000000
00100000
0M000000
00000000
00100000
00010000
0000M000
00000000
00010000
00001000
00000M00
00000000
,
00001000
00000100
000000M0
00000000
00000100
00000001
0000M000
00000000
00000001
00000010
00000M00
00000000
00000010
00000100
0000M000
00000000
,
00000100
00010000
0000M000
00000000
00010000
01000000
M0000000
00000000
01000000
00100000
000M0000
00000000
00100000
00001000
0M000000
00000000
,
00001000
00010000
00000000
00000000
00010000
00000100
00010000
00000100
00000000
00000000
00001000
00000010
00001000
00000010
00001000
00000010
,
00000000
00000000
00000100
00000001
00000000
00000000
00000100
00000010
00000100
00000010
00000000
00000000
00001000
00000100
00000000
00000000
,
00010000
00001000
00000000
00000000
00100000
00010000
00100000
00010000
00100000
01000000
00000000
00000000
10000000
00010000
00000000
00000000
,
01000000
00001000
01000000
00001000
00010000
00001000
00010000
00000100
00000000
00000000
00000010
00000001
00000010
00000001
00000000
00000000
,
00022000
00000000
00033000
00000000
;

//---------------dance-double - ----------------
#NOTES:
     dance-double:
     :
     Medium:
     7:
     0.585,0.743,0.566,0.037,0.000,382.000,62.000,4.000,38.000,0.000:
00000000
00000000
00000000
00000000
,
00000000
00000000
00000000
00000000
,
00000000
00000000
00000000
00000000
,
00000000
00000000
00000000
00000000
,
00000000
00000000
00000000
00000000
,
00000000
00000000
00000000
00000000
,
00000000
00000000
00000000
00000000
,
00000001
00000010
00000001
00000010
00000001
00000000
00001000
00000000
,
00000100
00000000
00010000
00000000
00001000
00010000
00001000
00000000
,
00100000
00000000
01000000
10000000
01000000
00000000
10000000
01000000
,
10000000
00000000
01000000
10000000
01000000
00000000
00100000
00000000
,
00001000
00010000
00001100
00000010
,
00000001
00000100
00001010
00000100
,
00010000
01000000
00110000
10000000
,
10000000
00010000
01000000
00000000
00000000
00100000
01000000
00001000
,
00100000
00001000
00011000
00010000
,
00000100
00000010
00000011
00000100
,
00000010
00010000
00010100
00001000
,
00100000
01000000
10010000
01000000
,
00001000
00000000
00010000
00000000
00000100
00000010
00000000
00000001
,
00000010
00000001
00000000
00000010
00000001
00000010
00000000
00000001
,
00000010
00000001
00000010
00000000
00000001
00000010
00000001
00000000
,
00000100
00000010
00010000
00000010
00010000
00000010
00010000
00000000
,
00000000
00001000
00010000
00001000
00100000
00001000
00100000
00000000
,
00000000
01000000
10000000
01000000
10000000
01000000
10000000
00010000
,
01000000
00000000
00001000
00000000
00010000
00001000
00010000
00000000
,
00000100
00000010
00000100
00000010
00000100
00000000
00001000
00000001
,
00000100
00000000
00010100
00000000
00010000
00000000
00001000
00100000
,
00010000
00000000
01100000
00000000
10000000
00000000
00010000
01000000
,
00010000
00000000
00110000
00000000
00001000
00000000
00010000
00000100
,
00000010
00000000
00000011
00000000
00000100
00000000
00010000
00001000
,
00100000
00000000
01000000
10000000
00000000
01000000
10000000
01000000
,
00000000
00100000
00000000
00001000
00010000
00000000
00001000
00000000
,
00000100
00000000
00000100
00000001
00000100
00000000
00000010
00000000
,
00010000
00000100
00010000
00001000
00000000
00010000
01000000
00000000
,
10000000
01000000
00010000
00001000
,
00000100
00000001
00000010
00001000
,
00010000
01000000
10000000
00100000
,
00010000
00001000
00000100
00000001
,
00000101
00000010
00001100
00000100
,
00010100
00001000
00110000
10000000
,
01010000
00100000
10010000
00100000
,
11000000
00010000
01010000
00011000
,
00001100
00000110
00000011
00000011
,
00000110
00001100
00001100
00001001
,
00000101
00000101
00000110
00010010
,
00010010
00011000
00011000
01001000
,
01001000
00000000
01000000
00100000
01000000
00010000
01000000
00001000
,
00010000
00001000
00010000
00000100
00000010
00000001
00000100
00000010
,
00002020
00000000
00000000
00000000
,
00000000
00000000
00000000
00000000
,
0MMM0M00
M000000M
M000000M
M000000M
M000000M
M000000M
M000000M
M000000M
,
M000000M
M000000M
M000000M
M000000M
M000000M
M000000M
M000000M
M000000M
,
0MMM0M00
00000000
00000000
00000000
,
00000000
00000000
00000000
00000000
,
00000000
00000000
00000000
00000000
,
00000000
00000000
00000000
00000000
,
00000000
00000000
00000000
00000000
00000000
00000000
00000000
00003030
,
00000010
00010000
00000010
00001000
00000010
00000000
00010000
00000000
,
00001000
00010000
01000000
10000000
,
00100000
01000000
00100000
01000000
00100000
00000000
10000000
00000000
,
00010000
00100000
00001000
00010000
,
00000100
00000000
00000010
00000001
00000010
00000000
00000100
00000000
,
00001000
00000000
00000000
00000100
00010000
00000000
00001000
00000000
,
01000000
00000000
00100000
10000000
00100000
01000000
00100000
00000000
,
10000000
00000000
00100000
01000000
00100000
01000000
00010000
01000000
,
00001000
00010000
00001000
00000000
00010000
00000100
00010000
00000000
,
00000100
00000010
00000100
00000010
00000001
00000000
00000100
00000000
,
00000010
00001000
00000010
00000000
00000100
00000001
00000100
00000000
,
00000010
00010000
00000010
00010000
00001000
00000000
00010000
00000000
,
00110000
00011000
00001100
00000110
,
00000011
00000110
00001100
00011000
,
00110000
01100000
11000000
01100000
,
00110000
00011000
00001100
00000110
,
00000011
00000001
00000100
00000001
00000100
00000001
00001000
00000000
,
00000100
00010000
00000100
00000000
00010000
00001000
00010000
00000000
,
00001000
00000000
00100000
00000000
01000000
10000000
01000000
00000000
,
00100000
00010000
00100000
00010000
00000000
00100000
00001000
00000000
,
00010000
00001000
00010000
00000100
00001000
00000100
00001000
00000000
,
00000010
00000100
00000010
00000100
00000001
00000100
00000001
00000000
,
00001000
00000100
00001000
00000100
00010000
00001000
00010000
00000000
,
01000000
10000000
01000000
10000000
00100000
01000000
00010000
00000000
,
00100000
00001000
00010000
00000010
,
00000100
00000001
00000010
00000100
,
00010000
00011000
00110000
01100000
,
10000000
01010000
01010000
01100000
,
10000000
00000000
00010000
01000000
00000000
00010000
00100000
00010000
,
00000000
00100000
00000000
00001000
00010000
00000000
00001000
00000000
,
00010000
00000000
00000100
00000010
00000100
00000000
00000001
00000000
,
00000100
00000010
00001000
00000010
00000000
00001000
00000100
00000000
,
00022000
00000000
00000000
00033000
00000000
00000000
00000000
00000000
;

//---------------dance-double - ----------------
#NOTES:
     dance-double:
     :
     Easy:
     5:
     0.389,0.577,0.228,0.037,0.000,269.000,25.000,4.000,27.000,0.000:
00000000
00000000
00000000
00000000
,
00000000
00000000
00000000
00000000
,
00000000
00000000
00000000
00000000
,
00000000
00000000
00000000
00000000
,
00000000
00000000
00000000
00000000
,
00000000
00000000
00000000
00000000
,
00000000
00000000
00000000
00000000
,
10000000
00100000
01000000
00000000
,
00010000
00100000
00001000
00000000
,
00010000
00000100
00001000
00000100
,
00001000
00000010
00000100
00000000
,
00000001
00000010
00000100
00001000
,
00000010
00000100
00000001
00001000
,
00000100
00010000
00001000
00100000
,
01000000
10000000
00010000
00000000
,
01000000
00001000
00010000
00001000
,
00010000
00000100
00000010
00000000
,
00000001
00000100
00000010
00001000
,
00000100
00010000
00001000
00100000
,
01000000
00000000
10000000
00000000
01000000
10000000
00000000
01000000
,
10000000
01000000
00000000
10000000
01000000
10000000
00000000
00010000
,
01000000
00010000
00100000
00001000
,
00000000
00010000
00000100
00000010
,
00000001
00000100
00000010
00000000
,
00001000
00000100
00010000
00000000
,
00001000
00100000
01000000
10000000
,
00010000
01000000
00010000
00000000
,
00110000
00110000
00101000
00000000
,
00011000
00011000
00001100
00000000
,
00000110
00000110
00001001
00000000
,
00010100
00010100
00011000
00000000
,
00010000
00001000
00100000
01000000
,
10000000
00010000
01000000
00000000
,
00010000
00100000
00001000
00010000
,
00000100
00000010
00000001
00000010
,
00000100
00001000
00000010
00000100
,
00000001
00001000
00000100
00000000
,
00010000
00001000
00100000
01000000
,
10000000
00010000
01000000
00000000
,
00001000
00010000
00001000
00000100
,
00000010
00001000
00000001
00000000
,
00000010
00000100
00001000
00000001
,
00000100
00001000
00010000
00001000
,
00010000
01000000
10000000
00100000
,
01000000
00010000
00100000
00010000
,
00100000
00001000
00010000
00000100
,
00000010
00000001
00000010
00000001
,
00000100
00000010
00001000
00000010
,
00000100
00000001
00010000
00000000
,
0MM22MM0
M000000M
M000000M
M0000000
M0000000
M0000000
M0000000
M0000000
,
M0000000
M0000000
M0000000
M0000000
M0000000
M0000000
M000000M
M000000M
,
0MM00MM0
00000000
00000000
00000000
,
00000000
00000000
00000000
00000000
,
00000000
00000000
00000000
00000000
,
00000000
00000000
00000000
00000000
,
00000000
00000000
00000000
00000000
,
00000000
00000000
00000000
00000000
,
00000000
00000000
00000000
00000000
00000000
00000000
00000000
00033000
,
00001000
01000000
00010000
01000000
,
00100000
10000000
01000000
00100000
,
00010000
01000000
00001000
00010000
,
00001000
00000100
00000010
00001000
,
00001001
00000000
00000110
00000000
,
00010010
00000000
00011000
00000000
,
01100000
00000000
10010000
00000000
,
01100000
00000000
00011000
00000000
,
00001100
00000100
00000010
00000001
,
00000100
00000010
00001000
00000001
,
00001000
00000100
00000000
00010000
,
00001000
00100000
00000000
01000000
,
10000000
00010000
01000000
01010000
,
00100000
11000000
00010000
00001000
,
00010000
00000100
00000010
00000001
,
00000100
00000010
00001000
00000100
,
00000010
00000001
00000010
00000100
,
00010000
00000100
00010000
00000000
,
00001000
00100000
01000000
00100000
,
01000000
10000000
00010000
00000000
,
01000000
00001000
00010000
00000100
,
00000010
00000001
00000100
00000000
,
00000010
00010000
00000010
00001000
,
00000010
00000001
00000010
00000100
,
00010000
00000000
00000000
00001000
00000000
00000000
00100000
00000000
,
01000000
00000000
00000000
10000000
00000000
00000000
00010000
00000000
,
01000000
00000000
00001000
00010000
00001000
00000000
00010000
00000000
,
00000100
00000010
00000001
00000001
,
00000100
00000000
00000000
00000010
00000000
00000000
00010000
00000000
,
00001000
00000000
00000000
00100000
00000000
00000000
01000000
00000000
,
10000000
00000000
00010000
01000000
00010000
00000000
10000000
00000000
,
00010000
01000000
00010000
00000000
10000000
00000000
01000000
00000000
,
02200000
03300000
00000000
00000000
;

//---------------dance-couple - ----------------
#NOTES:
     dance-couple:
     :
     Hard:
     9:
     1.000,1.000,1.000,0.356,0.329,554.000,486.000,39.000,19.000,88.000:
00000000
00000000
00000000
00000000
,
00000000
00000000
00000000
00000000
,
00000000
00000000
00000000
00000000
,
00000000
00000000
00000000
00000000
,
00000000
00000000
00000000
00000000
,
00000000
00000000
00000000
00000000
,
00000000
00000000
00000000
00000000
,
01000001
10000010
00010100
01001000
00100001
00000000
10010110
00000000
,
10001000
00100001
01000010
00011000
00100010
01000100
00010001
00000000
,
10001000
01000010
10000100
00011000
01000001
00010010
10000100
00101000
,
01000001
10000010
01001000
00010010
01000001
10000010
01001000
00100010
,
10000001
01000100
10000001
00010100
01000010
00011000
00100010
10001000
,
01000100
10000001
01000100
00100001
00010010
01001000
00100010
01001000
,
00010001
00010001
00100010
00000000
01000100
00100010
00010001
00000000
,
01000100
10001000
01000100
00010001
10001000
01000100
00010001
00000000
,
10001000
00000000
01000100
00100010
00010001
00000000
01000100
10001000
,
01000100
00000000
00100001
01001000
00010100
00001000
10010010
00000000
,
01000100
10001000
00010100
00100001
10000010
01001000
00010010
10000100
,
00101000
01000001
10000100
00010010
00101000
01000100
00010010
10000001
,
00100100
00000000
10000010
00000000
00011000
00100001
00000000
01000010
,
10000001
00010010
00000000
01000100
00011000
00100100
00000000
01001000
,
00100001
01001000
10000010
00000000
00010100
01000001
00100100
00000000
,
10000010
01001000
00100100
00010010
01000001
00101000
20000020
00000000
,
30000000
00011030
00100100
01000010
10000001
01001000
00200020
00000000
,
00300000
00010130
00100001
01000100
10000010
01001000
00100100
10000010
,
01001001
00000000
01101001
00000000
00100001
00010100
00100001
01000010
,
10000001
00011000
01000010
00100001
10000010
00100100
01000001
00000000
,
10011001
00000000
00110110
00000000
11000011
00000000
10001000
00010001
,
11000110
00000000
01101010
00000000
10011001
00000000
00010010
10001000
,
01010011
00000000
10100110
00000000
10011001
00000000
10000100
00010010
,
01101001
00000000
01010110
00000000
11001100
00000000
10000001
00010100
,
01100110
00000000
10001000
01000100
00000000
00100010
00010001
10000100
,
00000000
00101000
00000000
01000010
00010001
00000000
01001000
00000000
,
00100001
00000000
00100100
10000001
01001000
00000000
10000010
00000000
,
00010100
00101000
10000001
00100010
00000000
01001000
00100001
00000000
,
10011001
00000000
00010010
10000100
01001000
10000010
01000100
10000000
,
01000001
00100010
01000100
00101000
00010001
00100010
00010100
00000000
,
01001000
00010001
01000100
00011000
01000100
10000010
01001000
00010000
,
01000001
00010010
01000100
00100001
00010100
00101000
01000001
00000000
,
10001000
00000010
00010100
01000000
00100100
01000001
00011000
00000000
,
10000100
01001000
00100010
00010100
01001000
00100100
00010001
00001000
,
10000100
00100001
00010100
10000010
01000001
00011000
10000010
00000000
,
01000100
00100001
00010000
10000001
00101000
01000001
00010010
00000000
,
11001100
00110110
01100011
10011001
,
00110110
11000011
01011100
01100101
,
10011010
01101001
10010011
01100110
,
10011001
10100110
01011100
10010011
,
00101000
10000100
01000001
00010100
00101000
10000010
01000001
00010010
,
01001000
10000100
00010010
10001000
00100010
01000100
00101000
00010001
,
20022002
00000000
00000000
00000000
,
00000000
00000000
00000000
00000000
,
00000000
00000000
00000000
00000000
,
00000000
00000000
00000000
00000000
,
00000000
00000000
00000000
00000000
,
00000000
00000000
00000000
00000000
,
00000000
00000000
00000000
00000000
,
00000000
00000000
00000000
00000000
,
00000000
00000000
00000000
00000000
00000000
00000000
00000000
30033003
,
00010001
01000100
00100010
10001000
01000100
10000010
01000001
00000000
,
00100100
00011000
00100100
10000001
00011000
10000100
01000010
00010001
,
01000100
00000000
00100010
10000010
00101000
00100010
01000100
00000000
,
00010100
00100001
01000001
00101000
00010100
01000100
10000010
00000001
,
10011001
00010000
10000100
01000010
00101000
00010010
00100100
00000000
,
10101001
00000000
10100001
00100010
01000000
00100010
10000100
00001000
,
10001001
00100000
00010001
01000100
10000010
00101000
00100100
00000000
,
10011001
00000000
10010011
00010000
01000010
10000100
01001000
00000001
,
20100120
00000000
30000000
00101000
10000130
00000000
00011000
00000000
00100001
00000000
10000100
00000000
00100100
00000000
00000000
00000000
,
01000010
00000000
01000100
00010001
00000000
00011000
10000100
00000000
01001000
00000001
00101000
00000000
00100010
00000000
00000100
00000000
,
10200101
00000000
00300000
00010001
01000100
00000000
00100010
00000000
10001000
00000000
00010100
00000000
00101000
00000000
01000001
00000000
,
00010100
00000000
00000000
00010100
01000010
00000000
01000000
00000010
00101000
00000000
00001000
10000000
01000100
00001000
00100100
00000000
,
10011001
00000000
01100110
00000000
01011001
00000000
20100110
00010110
,
30010110
00000000
01101001
00000000
10100101
00000000
10011010
00101010
,
10011010
00000000
00110011
00000000
01101100
00000000
01101001
10011001
,
01011001
00000000
10010110
00000000
01010011
00100000
01000100
10001000
,
20010001
00000000
30010100
00000000
00100010
00000000
00201000
00010010
00300000
00010010
01000100
00000000
02000001
00000000
03011000
00000000
,
20000100
00010010
30000000
00000010
00010001
00000000
20000100
00010010
00000100
30010000
01000001
00001000
00020000
00001000
00100100
00030000
,
02000010
00000000
10000001
03000100
01000000
00000010
00101000
00010000
00000001
00011000
10000001
00000000
00010010
00000000
10000100
00001000
,
00100000
01001000
00100010
00000000
10000100
00000000
00100001
01001000
00100001
00000000
00010010
00000100
02010000
00000100
00101000
00000000
,
03200001
00000100
00300001
00010000
01000100
00000000
00200001
00000100
10300001
00000100
10000001
00000000
00201000
00000000
01300001
00000000
,
00021000
00000001
00031000
00010000
10000001
00000000
02001000
00000001
00101000
00000001
03101000
00000000
10020001
00000000
10030010
00000000
,
00200001
00000010
00300001
00100000
01000010
00000000
00010001
00000010
10000001
00100010
10000001
00000000
01000010
00000000
00100100
00000000
,
00011000
00000001
00001000
00010000
01000001
00000000
00101000
00000001
10001000
00000010
01001000
00000000
00010100
00000000
00010010
00000000
,
10M0M001
00000000
00000000
10000001
01000100
00000000
00M000M0
01000100
00101000
00000000
00000000
00101000
M001010M
00000000
00000000
00010100
,
M100M001
00000000
00101000
00000000
00100100
00000000
10000010
00000000
00100001
00000000
00100100
00000000
1M00M010
00000000
00000000
00000010
,
M001M100
00000000
00000000
00010100
00100001
00000000
M000M000
00100001
01001000
00000000
00000000
01001000
100M010M
00000000
00000000
10000100
,
0002M010
01030001
00100100
02000010
03001000
00010010
00021000
00030001
,
20010100
00000010
00000000
00000000
30010100
00100001
00020100
01000001
00030000
00000000
01001000
00100010
20001000
30000010
10000100
00010010
,
00M0M000
00000000
00011000
10000001
00000000
00000000
20000100
30010001
10000100
00000001
00000000
00000000
20001000
00010010
00000000
30000000
,
00010010
00101000
00000000
00000000
00101000
01000001
00101000
01000001
10001000
01000010
00000000
00000000
01000010
10000100
00000000
00000000
,
01000100
00010001
00000100
00010001
01001000
00000010
00101000
00000010
00010000
00000000
00010100
01000001
00100100
00000001
10000000
00000000
,
20022002
00000000
00000000
00000000
00000000
00000000
00000000
30033003
00000000
00000000
00000000
00000000
00000000
00000000
00000000
00000000
;

//---------------dance-couple - ----------------
#NOTES:
     dance-couple:
     :
     Easy:
     4:
     0.822,1.000,1.000,0.073,0.000,274.000,259.000,8.000,0.000,55.000:
00000000
00000000
00000000
00000000
,
00000000
00000000
00000000
00000000
,
00000000
00000000
00000000
00000000
,
00000000
00000000
00000000
00000000
,
00000000
00000000
00000000
00000000
,
00000000
00000000
00000000
00000000
,
00000000
00000000
00000000
00000000
,
00100010
00011000
01000100
00100010
,
10000001
00011000
00100010
00000000
,
00010100
00100001
01001000
10000100
,
00010010
01000001
00101000
10000010
,
00010100
10000001
01001000
00000000
,
00100100
00010010
01000001
00000000
,
00011000
00100010
00010100
01000000
,
00100001
10001000
00010110
00000000
,
00101000
01000010
00100100
00010001
,
10001000
01000010
00100100
00010001
,
00010001
01000010
00100100
10001000
,
00010001
01000010
00100100
10001000
,
10010101
00000000
01101000
00000001
,
00011000
00000000
00100001
01000010
00000000
00000000
10001000
00000000
,
00010001
00000100
01010001
00000000
,
00101000
00101000
00010010
10000100
,
00010010
10101000
00000010
10010100
,
00100001
01001000
00100110
00000000
,
00100001
10000010
00010100
00000000
,
00011000
00100010
10000100
00000000
,
00010001
01000100
00100001
10000100
,
00010010
00101000
01000010
10001000
,
00010001
01000010
00100001
10000010
,
00100100
01001000
00010100
01001000
,
00010001
00000000
00000000
10001001
00000000
00000000
00010001
00100000
,
00000000
00100010
00000000
01000100
00000000
00000000
00011000
00000000
,
10000010
00001000
00100010
00000000
00100000
00000000
01000100
00000000
,
00010000
00010001
10001000
00010001
,
01010011
10001000
01000001
00000000
,
10001000
00010010
00100110
00000000
,
00111000
10000001
00010010
00000000
,
10001001
00100001
01000100
00000000
,
10011010
10000100
00010001
00000000
,
11001100
10000010
00010001
00000000
,
10011001
00100100
10000010
00000000
,
01011001
00100100
10000010
00000000
,
10010011
10010011
00010110
01001000
,
01011001
00100010
01001000
00100001
,
10010110
00101000
10000001
00100100
,
10011010
00100100
01000001
00011000
,
01000100
00100001
10000100
00101000
,
01000001
00010100
00101000
10000100
,
20022002
00000000
00000000
00000000
,
00000000
00000000
00000000
00000000
,
00000000
00000000
00000000
00000000
,
00000000
00000000
00000000
00000000
,
00000000
00000000
00000000
00000000
,
00000000
00000000
00000000
00000000
,
00000000
00000000
00000000
00000000
,
00000000
00000000
00000000
00000000
,
00000000
00000000
00000000
00000000
00000000
00000000
00000000
30033003
,
00010001
00000000
00100100
00010001
00100100
00000000
00010001
00000000
,
00100100
00010010
00100100
00000000
00010010
00000000
00000000
00000000
,
10001000
00000001
00011000
01000001
00011000
00000000
01000010
00000000
,
00010100
00000000
01000010
00000000
00010100
01000010
00010100
00000000
,
00111001
00000000
11000110
00000000
,
01011100
00000000
10100011
00000000
,
10001010
00010000
00010101
00100000
,
10001100
01100110
01100110
00000001
,
00010001
10000100
00100010
10001000
,
01000010
00100100
00010001
10000100
,
00100010
01001000
10000001
00010100
,
00100010
01000100
01000001
10001000
,
10011001
00000000
10011001
00000000
10011001
00000000
00011000
01000001
,
00011000
00000000
10010101
00000000
10010101
00000000
00010001
00101000
,
00010001
00000000
10010110
00000000
10010110
00000000
00100001
01001000
,
00100001
00000000
10100101
00000000
10100101
00000000
10000001
00001000
,
00010001
00000000
00000000
00100010
00000000
00000000
10011000
00000000
,
10011001
00000000
00000000
10000010
00000000
00000000
10011100
00000000
,
10010011
00000000
00011000
00100010
,
01000100
00010001
00000000
10100110
,
11001001
00000000
00000000
01000010
00000000
00000000
10101100
00000000
,
00011001
00000000
00000000
01100010
00000000
00000000
00011001
00000000
,
00100011
00000000
00100010
10000000
,
00011000
00100010
00000000
01000100
,
00010101
00000000
00000000
00010001
00000000
00000000
10000010
00000000
,
00010100
00000000
00000000
01001001
,
10001000
00000000
00000000
01000010
00000000
00000000
00100100
00000000
,
10000001
00000000
00000000
01000100
00000000
00000000
00010001
00000000
,
00101000
00000000
00000000
01000001
00000000
00000000
10000010
00000000
,
00010001
00000000
00000000
01000100
00000000
00000000
00010001
00000000
,
10001000
00010100
10001000
01000000
00100010
00000000
00010100
00000000
,
10000001
00101000
01000010
00010100
00000000
00100001
01001000
00000000
,
20022002
30033003
00000000
00000000
;

//---------------dance-couple - ----------------
#NOTES:
     dance-couple:
     :
     Medium:
     7:
     1.000,1.000,1.000,0.557,0.000,361.000,358.000,61.000,0.000,117.000:
00000000
00000000
00000000
00000000
,
00000000
00000000
00000000
00000000
,
00000000
00000000
00000000
00000000
,
00000000
00000000
00000000
00000000
,
00000000
00000000
00000000
00000000
,
00000000
00000000
00000000
00000000
,
00000000
00000000
00000000
00000000
,
10011001
00000000
00011000
01000010
00200200
00000000
10000001
00000000
,
10000001
10300301
00011000
00011000
,
10000001
10010110
01100011
10001100
,
01100110
10101001
00110110
01000100
,
00010001
01001000
00010001
01001000
00010001
01001000
00010001
00000000
,
10000010
00100100
10000010
00100100
10000010
00100100
10000010
00000000
,
00010001
10001000
00010010
00000000
10001000
00010100
01001000
00000000
,
00010001
00101000
00010001
00101000
01000010
10000100
01000010
00000000
,
10001000
00000000
00010001
01000010
00010001
00000000
01101001
00000000
,
10010110
01011001
10011100
11001001
,
00010101
00100001
00101000
00100001
,
01001000
00000000
00010100
10000000
00011000
10000001
00011000
00000000
,
01100110
00000000
10011001
00000000
00110011
00000000
00010001
00101000
,
00000000
00000000
00010001
10000100
00000000
00000000
00010001
01001000
,
00000000
10011010
01100110
10101010
,
01101001
10010011
11001001
00000000
,
01011001
10010110
10101001
11000011
,
10010110
01101100
10011001
00000000
,
01100101
01010110
10101001
01100110
,
10011100
01101001
11000110
00110110
,
20011002
00101000
00101000
00101000
,
32002003
00100100
00100010
10000001
,
03203002
00010100
00010010
00011000
,
00320023
01000001
00101000
10000001
,
10030031
00000000
00011000
10000001
00000000
00011000
10000001
00011000
,
00000000
00100010
00000000
01000100
00100010
00000000
01000100
00000000
,
00100001
00000000
01000010
00100001
01000010
00000000
10000100
00000000
,
00011000
00100001
01000100
10000010
00000000
10001000
00010100
00000000
,
01100011
00100010
10011100
00000000
,
00110110
00010001
01101100
00000000
,
01100110
10000001
01010110
00000000
,
00011000
01000100
10000001
01000100
10000001
01000100
00011000
00000000
,
20012001
00000000
00010010
00000000
00100100
00000000
01000001
30003000
,
00200200
10300310
00111001
01010101
,
00020120
00000000
10001030
00030000
11001100
00000000
00100001
00000000
,
20022020
30033030
01000100
00000000
00200002
00000000
10301003
00000000
,
00110110
11001001
00110011
01011010
,
10011001
10100110
10011001
00110011
,
01100110
11001100
01101001
10010101
,
11000110
01101001
10010011
00110110
,
11001100
00000000
00010001
00000000
01000100
00010010
10001000
00000100
,
00100010
10000000
00100001
10000100
01000001
00010100
01000010
00000000
,
20022002
00000000
00000000
00000000
,
00000000
00000000
00000000
00000000
,
00000000
00000000
00000000
00000000
,
00000000
00000000
00000000
00000000
,
00000000
00000000
00000000
00000000
,
00000000
00000000
00000000
00000000
,
00000000
00000000
00000000
00000000
,
00000000
00000000
00000000
00000000
,
00000000
00000000
00000000
00000000
00000000
00000000
00000000
30033003
,
00010001
01001000
00000000
00010100
10001000
00000000
00000000
00100100
,
00000000
10001000
00000000
00010001
00100100
00000000
01000010
10001000
,
01000010
10001000
00000000
00010001
10001000
00000000
00000000
00010010
,
00000000
01000100
00000000
00000000
00100001
10001000
01000100
00000000
,
11001001
01000001
10001000
00000000
10011001
00000000
00100010
00000000
,
11000110
00011000
10010101
00000000
,
10100110
00111001
01100110
10010011
,
01011001
10011010
10101100
10011001
,
01100101
00000000
00100001
10001000
00100001
00000000
10000100
00010001
,
00100100
00000000
00010010
01001000
00010010
00000000
01000100
00010001
,
10001000
00000000
00100100
01001000
00100100
01001000
00100100
00000000
,
10001000
00010001
10001000
00010001
10001000
00000000
00100010
01000100
,
00100010
00000000
10001000
00000000
01000100
00000000
00100010
00010001
,
00100010
00000000
01000100
00000000
10001000
00000000
00010001
01000100
,
00010001
00000000
00101000
00000000
00010010
00000000
00010100
00100001
,
00010100
00000000
10000010
00000000
00011000
00000000
01000100
00100010
,
10000001
00000000
01000100
00100010
00000000
00000000
10001000
00000000
,
01000100
00000000
10000001
00101000
00000000
00010001
01001000
00000000
,
00010001
00100010
01000100
10001000
,
00010001
00000000
10001000
00000000
00100010
01000100
00100010
00000000
,
10001000
00100001
10001000
00100001
10001000
00100001
01000100
00000000
,
10000001
00010100
10000001
00010100
10000001
00011000
10000001
00000000
,
00011000
01000010
00101000
01000010
00101000
01000010
00101000
00000000
,
01000100
00101000
10000100
00101000
01000100
00011000
01000100
00000000
,
20002000
30103001
10001000
00200002
10301003
00100001
20000200
31000310
,
00202000
00303000
00000000
00000000
00000000
00000000
20002000
30003000
,
00020002
01030013
00010100
00202000
01303010
10000100
00020002
10031003
,
01000100
00000000
00000000
00000000
00000000
00000000
00020020
00030030
,
20002000
30003000
00100010
02000200
03000300
00010001
02000200
03010310
,
20001000
30100100
00000000
20002000
30013001
00000000
20002000
00003000
,
32000200
03000300
01000100
00010001
01000100
00000000
10001000
00000000
,
00010001
01000100
00100010
10001000
00000000
00100001
01000010
00000000
,
20022002
00000000
00000000
30033003
00000000
00000000
00000000
00000000
;
