#TITLE:What Is This Earth Love?;
#SUBTITLE:;
#ARTIST:Codebreaker;
#TITLETRANSLIT:;
#SUBTITLETRANSLIT:;
#ARTISTTRANSLIT:;
#CREDIT:;
#BANNER:earthlove-banner.png;
#BACKGROUND:earthlove-bg.png;
#LYRICSPATH:;
#CDTITLE:;
#MUSIC:Codebreaker - What Is This Earth Love.mp3;
#OFFSET:-0.237;
#SAMPLESTART:75.680;
#SAMPLELENGTH:12.140;
#SELECTABLE:YES;
#BPMS:0.000=169.880;
#STOPS:;
#BGCHANGES:;
// cache tags:
#FIRSTBEAT:16.000;
#LASTBEAT:284.000;
#SONGFILENAME:Songs/StepMix 2/What Is This Earth Love/earthlove.sm;
#HASMUSIC:1;
#HASBANNER:1;
#MUSICLENGTH:105.534;
// end cache tags

//---------------dance-single - ----------------
#NOTES:
     dance-single:
     :
     Hard:
     8:
     0.559,0.572,0.246,0.123,0.000,374.000,26.000,13.000,0.000,0.000:
0000
0000
0000
0000
,
0000
0000
0000
0000
,
0000
0000
0000
0000
,
0000
0000
0000
0000
,
1000
0100
1000
0000
0100
0001
0100
0000
,
0010
0001
0100
0010
1000
0100
1000
0000
,
0010
0001
0100
0000
1000
0001
0100
0000
,
1000
0100
0010
0100
1000
0100
0010
0000
,
0010
0001
0100
0000
0100
0001
0000
0100
,
0010
0000
0100
1000
0000
0100
0001
1000
,
0100
1000
0010
0000
0010
0100
0000
1000
,
0001
0000
0100
0010
0000
1000
0000
1000
,
0100
0100
0010
0010
,
0001
0100
0010
1001
,
1000
0100
1000
0100
0001
0100
0001
0100
,
1000
0010
1000
0010
0100
0001
0100
0001
,
0100
0110
1000
0100
,
0001
0010
0001
1100
,
1000
0001
0100
0001
0010
0100
1000
0100
,
0010
0001
0100
0010
0100
0010
0001
0000
,
1000
0000
1100
0000
1000
0100
0001
0000
,
0010
0100
1000
0000
0010
0000
0100
0000
,
0001
0100
0001
0100
0010
0000
1000
0001
,
0000
0010
0100
0000
0110
0000
0100
0000
,
0010
0001
0100
0010
0100
0000
0001
1000
,
0100
1000
0010
0100
0000
0010
0001
0010
,
0000
1000
0100
1000
0000
0100
0001
0100
,
0000
0010
0001
0000
0100
0000
1100
0000
,
0120
0100
0100
0130
,
0102
0010
1000
0103
,
1200
0001
1000
0301
,
1000
0010
0001
0000
1000
0100
0001
0000
,
0120
1000
0001
0130
,
2100
0001
0010
3100
,
1000
0100
0001
0000
0100
1000
0010
0000
,
0100
0001
0100
0010
1000
0010
1000
0000
,
0001
0000
0101
0000
1000
0100
0000
0010
,
0100
0000
0001
0100
0000
0100
1000
0100
,
0010
0001
0100
0100
,
0010
1000
0100
0110
,
1000
0100
1000
0100
0010
0001
0010
0001
,
0100
0010
0100
0001
0000
1000
0000
0100
,
0010
0001
0010
0100
,
1000
0001
0001
0101
,
0100
0001
0100
0001
0100
1000
0100
1000
,
0100
0001
0010
0100
0010
0000
1001
0000
,
0100
0000
0110
0000
1000
0100
0010
0000
,
0001
0000
0101
0000
0010
0001
0100
0000
,
0001
0000
1100
0000
1000
0100
0001
0000
,
0001
0100
0010
0100
1000
0100
0010
0100
,
0010
0000
0110
0000
0001
0000
1000
0100
,
1000
0010
1000
0100
0000
0100
0001
0100
,
0000
0010
1000
0010
0000
0010
0001
0100
,
0010
0000
0010
1000
0100
0000
0101
0000
,
0210
0001
1000
0310
,
1200
0301
0120
0031
,
1200
0001
1000
0310
,
0010
0001
0100
0000
0100
1000
0100
0001
,
2000
0010
0001
3100
,
0201
1000
0001
0310
,
1000
0100
1000
0000
0100
0001
0100
0000
,
0010
0001
0010
0001
0000
0100
0000
0100
,
0001
0010
0100
0000
0001
0100
1000
0000
,
0001
0100
0010
0100
1000
0100
0010
0000
,
0100
0001
1000
0000
1000
0100
0010
0000
,
0100
0010
0010
0100
0010
0001
0100
0000
,
1000
0001
0100
0000
0001
0100
0010
0000
,
1000
0100
1000
0001
0000
0100
0010
0000
,
0100
0001
0100
0100
0010
1000
0100
0100
,
1000
0001
0100
0001
0010
0100
1000
0000
,
0220
0000
0000
0000
,
0330
0000
0000
0000
;

//---------------dance-single - ----------------
#NOTES:
     dance-single:
     :
     Challenge:
     9:
     0.674,0.706,0.417,0.180,0.066,435.000,44.000,19.000,37.000,20.000:
0000
0000
0000
0000
,
0000
0000
0000
0000
,
0000
0000
0000
0000
,
0000
0000
0000
0000
,
0001
0001
0010
0100
1000
1000
0010
0100
,
0001
0010
0100
1000
0000
0001
0100
0010
,
1000
1000
0100
0001
0001
0001
0100
1000
,
0010
0010
0100
0001
0000
1000
0100
0010
,
0110
0000
1100
0000
1001
0100
0000
0101
,
0001
0000
1000
1100
0000
0110
0000
0001
,
0100
0001
0010
0000
0100
0100
0000
1000
,
1000
0000
0010
0010
0100
0001
0001
0000
,
1000
0100
0010
0001
0100
0010
0100
0010
,
1000
0100
0010
0001
1000
0100
0010
0100
,
1000
0001
0101
0000
0110
1000
0000
0110
,
0001
0000
1000
0100
0010
0001
0100
0000
,
0100
0010
1000
0100
0010
0001
0100
0010
,
0100
0001
0010
0100
1000
0001
0100
0000
,
0100
0010
1000
0100
0001
0100
1000
0010
,
0001
0010
1000
0001
0100
0010
1000
0100
,
0011
0000
01MM
0000
0M01
M010
0100
1000
,
0MM1
0000
M11M
0000
10M0
010M
1000
0010
,
M100
0000
0001
0M00
0010
0000
010M
0000
10M0
0000
0001
0000
0100
0000
0010
0000
,
M0MM
0010
0100
1001
0100
M0MM
1000
0100
,
0010
0M00
0010
0000
0100
0000
1000
0000
0001
M000
0001
0000
0100
0000
0010
0M00
,
0000
1100
0100
0001
0000
0011
0100
1000
,
0000
0101
0010
1000
0000
1001
0100
0010
,
0000
0001
0101
0000
1001
0000
0110
0000
,
2200
0010
0010
3310
,
0202
0010
0010
0313
,
2002
0010
0010
3013
,
1000
0100
0001
0100
1000
0010
0001
0010
,
2000
0001
0010
3100
,
0202
1000
0010
1303
,
0010
0100
0001
0001
1000
0100
0100
0100
,
0010
0001
0100
0010
0000
0010
1000
0100
,
0010
0100
1000
0000
0010
0001
0000
0001
,
0010
0000
0010
1000
0000
1100
0000
0011
,
0001
0100
0010
0100
0001
0010
0100
0010
,
0001
0100
0010
1000
0000
0100
0010
0000
,
0001
0001
0010
1000
0010
0010
0001
0100
,
1000
1000
0100
0001
0000
0001
0010
0000
,
0100
1000
0100
0000
0010
0001
0010
0000
,
0010
0100
0010
1100
0000
0100
0011
0000
,
0001
0001
0100
0010
0010
0010
1000
0100
,
0001
0100
1000
0010
0000
0010
0100
0000
,
M1M1
0000
1000
0100
M001
0M00
0001
0100
,
1000
0M00
0010
0000
0001
0000
0010
MM0M
0000
0000
1000
0000
0100
0000
M010
0000
,
0100
00M0
0100
0010
0M01
0000
M10M
0000
,
1000
0000
0000
0100
0000
0000
1000
0000
0000
0100
0000
0000
1000
0000
0M00
0000
0000
0000
0100
0000
0000
0010
0000
0000
,
0001
0000
0010
1000
0010
0000
0100
0001
,
0000
1100
0100
0010
0000
0101
0100
0010
,
0000
1001
0100
0010
0000
0011
0001
0100
,
0010
1000
0100
0010
0110
0000
1100
0000
,
1002
0000
0010
0000
0010
0010
0013
0000
,
2100
0000
0001
0000
0010
0010
3010
0000
,
0102
0100
0103
0000
2010
0010
3010
0000
,
1000
0100
1001
0000
0001
0100
1001
0000
,
2200
0000
0010
0000
0001
0010
3301
0000
,
0202
0000
0010
0000
1000
1000
1303
0000
,
0100
0001
0100
0001
0100
0010
0100
0010
,
0100
1000
0100
1000
0000
0100
0010
0100
,
0010
1000
0100
0010
0100
0010
0001
0100
,
0010
1000
0100
0010
0000
0010
0001
0001
,
0100
0000
0010
0000
1000
0000
0100
1000
0100
0000
0010
0000
0001
0000
0100
0010
,
0100
0001
1000
0100
1000
0010
0100
0001
,
0010
0000
0100
0000
1000
0000
0100
1000
0100
0000
0010
0000
0001
0000
0100
0001
,
0100
0010
1000
0100
0100
0010
0010
0001
,
0100
0001
0100
0010
1000
0010
1000
0100
,
0010
0001
0010
0000
0100
1000
0100
0000
0010
0100
0010
0000
0110
0000
0000
0000
,
2002
0000
0000
0000
,
3003
0000
0000
0000
;

//---------------dance-single - ----------------
#NOTES:
     dance-single:
     :
     Medium:
     6:
     0.449,0.505,0.085,0.161,0.000,306.000,9.000,17.000,15.000,0.000:
0000
0000
0000
0000
,
0000
0000
0000
0000
,
0000
0000
0000
0000
,
0000
0000
0000
0000
,
0010
0000
1010
0000
0100
0001
0100
0000
,
0001
0000
1000
0000
0100
1000
0100
0000
,
0010
0000
0001
0000
0100
0010
0100
0000
,
0001
1000
0100
0000
1000
0001
0100
0000
,
0001
0000
0100
0000
0010
0100
0000
0100
,
0001
0000
0001
0010
0000
0010
0000
0000
,
0100
0000
1000
0000
0100
0010
0000
0010
,
0001
0000
0001
0100
0000
0100
0000
0010
,
0100
0100
0010
1000
,
0100
0010
0100
1000
,
0001
0100
1000
0100
,
0001
0010
0100
1000
,
0100
0010
0100
0000
0010
0000
0001
0000
,
0100
0010
0100
0000
0001
0000
1000
0000
,
0100
0100
0010
0010
,
0001
0001
0100
0100
,
0010
1000
0010
0000
0100
0000
0100
0000
,
0001
1000
0100
0000
0010
0001
0100
0000
,
0001
0100
1010
0000
,
1000
0001
0101
0000
,
1000
0100
1000
0000
0001
0000
0001
0000
,
0100
0010
0100
0000
0001
0000
1000
0100
,
0000
1000
0100
1000
0000
0100
0010
0100
,
0000
0010
0100
0000
1000
0000
0001
0000
,
0200
0010
0000
0310
,
2000
0100
0000
3100
,
0010
0000
0001
0000
0100
0001
0100
0000
,
0010
1000
0100
0000
1000
0001
0100
0000
,
0002
1000
1000
1003
,
2000
0100
0100
3100
,
0100
0010
0100
0010
0100
0000
1000
0000
,
0001
1000
0001
1000
0001
0000
0100
0000
,
0010
0000
1000
0000
0100
1000
0000
0100
,
0010
0001
0100
0010
,
1000
0100
1000
0000
0100
0000
0100
0000
,
0010
0001
0100
0000
0010
0000
0010
0000
,
2000
3100
0002
0103
,
0020
0130
2000
3001
,
0100
0M00
0010
00M0
,
1000
M000
0001
100M
,
0100
0010
0100
0000
1000
0100
1000
0000
,
0100
0010
0001
0100
,
M11M
0000
0100
0000
0010
0000
1000
00M0
,
0100
010M
M010
0M01
,
0100
000M
0010
0000
0010
0M00
1000
0000
,
0100
M000
0010
0M00
0001
00M0
0100
0000
,
0100
0010
1000
0100
,
1000
0000
0001
0100
0000
0010
0100
0010
,
0000
1000
0001
1000
0000
0010
0100
0020
,
0000
0100
0000
0130
0001
0000
1000
0000
,
1200
0010
0000
0310
,
0002
0100
0000
0103
,
0010
0000
1000
0000
0100
1000
0001
0100
,
0000
0010
0100
0000
0110
0000
1100
0000
,
0201
0001
0320
0100
,
2030
0000
0001
0000
3200
0010
0000
0310
,
0100
0000
0100
0000
1000
0100
1000
0000
,
0001
0000
0100
0000
0010
1000
0010
0000
,
0100
0001
1000
0100
,
1000
0000
0100
0000
0010
0100
0010
0000
,
0001
0000
0100
0001
0100
0001
0100
0000
,
0001
0000
1000
0100
1000
0100
1000
0000
,
0100
0000
0010
0000
0010
0100
0010
0000
,
0001
0000
0100
0000
0100
0010
0100
0000
,
0001
1000
0100
0000
1000
0001
0100
0000
,
0010
1000
0100
0000
0010
0001
0100
0000
,
2002
0000
0000
0000
,
3003
0000
0000
0000
;

//---------------dance-single - ----------------
#NOTES:
     dance-single:
     :
     Beginner:
     2:
     0.222,0.265,0.104,0.000,0.000,153.000,11.000,0.000,0.000,0.000:
0000
0000
0000
0000
,
0000
0000
0000
0000
,
0000
0000
0000
0000
,
0000
0000
0000
0000
,
1000
0000
1000
0000
,
0001
0000
0001
0000
,
0100
0000
0010
0000
,
0100
0000
0010
0000
,
1000
1000
1000
0000
,
0100
0100
0100
0000
,
0010
0000
0001
0000
,
0100
0000
0110
0000
,
0010
0010
0010
0000
,
0100
0100
0100
0000
,
1000
0000
0001
0000
,
1000
0000
0001
0000
,
0100
0100
0100
0000
,
0001
0001
0001
0000
,
1000
0000
0100
0000
,
0010
0000
0001
0000
,
1000
1000
0000
0000
,
0001
0001
0000
0100
,
0100
0000
0010
0000
,
0100
0000
1001
0000
,
0010
0010
0000
0000
,
0100
0100
0000
0000
,
1000
0000
0001
0000
,
0100
0000
0110
0000
,
1001
0000
0100
0000
,
0010
0000
0100
0000
,
1000
0000
0001
0000
,
0010
0000
1001
0000
,
1001
0000
0100
0100
,
0000
0010
0010
0010
,
0010
0000
1000
0000
,
0001
0000
0100
0000
,
0100
0000
0010
0000
,
0001
0000
1000
0000
,
0100
0100
0000
0000
,
0010
0010
0000
0000
,
0100
0000
1000
0000
,
0001
0000
0100
0000
,
0010
0010
0010
0000
,
1000
1000
1000
0000
,
0100
0000
0100
0000
,
0010
0000
0010
0000
,
1001
0000
0100
0000
,
0010
0010
0000
1000
,
1000
0000
0100
0000
,
0010
0010
0010
0000
,
0100
0000
1000
0000
,
0100
0000
0010
0000
,
0001
0000
0001
0000
,
0001
0000
0100
0100
,
0100
0000
0110
0000
,
0001
0000
1001
0000
,
0100
0100
0000
0010
,
0010
0000
1000
1000
,
1000
0000
0100
0000
,
0001
0000
0001
0000
,
0110
0000
1000
0000
,
0001
0000
1000
0000
,
0100
0000
0010
0000
,
0100
0000
0010
0000
,
0001
0001
0001
0000
,
0100
0100
0100
0000
,
1000
0000
0100
0000
,
0010
0000
0001
0000
,
1000
1000
1000
0000
,
0010
0010
0010
0000
,
1001
0000
0000
0000
;

//---------------dance-single - ----------------
#NOTES:
     dance-single:
     :
     Easy:
     5:
     0.437,0.572,0.426,0.237,0.000,253.000,45.000,25.000,0.000,0.000:
0000
0000
0000
0000
,
0000
0000
0000
0000
,
0000
0000
0000
0000
,
0000
0000
0000
0000
,
1000
1100
0001
0101
,
0100
0110
0010
0110
,
0100
0001
0100
0001
,
1000
0010
1000
0010
,
0100
0000
0010
0000
0100
0010
0000
0000
,
0100
0001
0100
0000
,
1000
0000
0100
0000
1000
0100
0000
0000
,
1000
0100
0010
0000
,
0100
1000
0100
0010
,
0100
0010
0001
0011
,
0010
0010
0100
0100
,
1000
1000
0001
0001
,
0100
0110
1000
1001
,
0001
0010
0100
1000
,
0100
0000
0010
0000
0100
0010
0000
0000
,
0010
0001
0001
0100
,
0110
1100
0101
1000
,
0110
1001
0110
0000
,
1100
1000
0101
0001
,
0100
0010
0200
0000
,
0310
1000
0001
0100
,
0010
1000
0100
0010
,
0020
0100
0100
0100
,
0200
0330
1100
0101
,
0110
0010
0010
0010
,
1001
1000
1000
1000
,
0100
0010
0100
0010
,
0001
0100
0001
0100
,
0110
0100
0100
0100
,
1001
1000
0001
1000
,
0100
0010
0100
1000
,
0001
0100
0010
0010
,
0000
0000
1000
0000
0100
0010
0000
0000
,
0010
0001
0100
0010
,
1000
1000
0100
0100
,
0010
0100
1000
0100
,
0010
0011
0001
0101
,
0100
0110
0010
1010
,
1000
0001
0100
0001
,
0010
0100
1000
0001
,
0100
0100
0001
0001
,
0010
0010
0100
0100
,
2200
3300
0022
0033
,
0102
0103
0110
0010
,
2020
3030
0202
0303
,
2001
3100
2200
3300
,
0010
0011
0011
0100
,
0010
1010
1010
0100
,
0001
0100
0001
0100
,
0002
0000
1000
1003
,
1000
0100
0010
0100
,
1000
0001
0100
0010
,
0100
0001
1000
0100
,
0010
0100
1100
0101
,
1001
0001
0100
0100
,
0010
1000
0100
0100
,
0010
0002
0100
0103
,
0100
0020
1000
1030
,
1000
0200
0010
0310
,
0010
0001
0100
0010
,
2000
3100
0002
0103
,
2000
3100
0002
0103
,
0010
0100
0001
0100
,
0010
0100
1000
0100
,
0001
0101
0010
1100
,
0010
0101
1000
0101
,
2002
0000
0000
0000
,
3003
0000
0000
0000
;
