#TITLE:Don't Stop Movin';
#SUBTITLE:;
#ARTIST:S Club 7;
#TITLETRANSLIT:;
#SUBTITLETRANSLIT:;
#ARTISTTRANSLIT:;
#CREDIT:;
#BANNER:Don't Stop Movin'.png;
#BACKGROUND:Don't Stop Movin'-bg.png;
#LYRICSPATH:Don't Stop Movin'.lrc;
#CDTITLE:./CDTITLES/DANCING STAGE PARTY EDITION.PNG;
#MUSIC:Don't Stop Movin'.mp3;
#OFFSET:-0.066;
#SAMPLESTART:65.440;
#SAMPLELENGTH:12.000;
#SELECTABLE:YES;
#DISPLAYBPM:117.000;
#BPMS:0.000=117.000;
#STOPS:;
#BGCHANGES:;
// cache tags:
#FIRSTBEAT:16.000;
#LASTBEAT:178.000;
#SONGFILENAME:Songs/Dancing Stage/Don't Stop Movin'/Don't Stop Movin'.sm;
#HASMUSIC:1;
#HASBANNER:1;
#MUSICLENGTH:93.910;
// end cache tags

//---------------dance-single - ----------------
#NOTES:
     dance-single:
     :
     Easy:
     2:
     0.146,0.213,0.064,0.000,0.000,90.000,6.000,0.000,0.000,0.000:  // measure 1
0000
0000
0000
0000
,  // measure 2
0000
0000
0000
0000
,  // measure 3
0000
0000
0000
0000
,  // measure 4
0000
0000
0000
0000
,  // measure 5
0010
0000
0000
0000
,  // measure 6
0100
0000
0000
0000
,  // measure 7
0001
0000
0000
0000
,  // measure 8
1000
0000
0001
0000
,  // measure 9
0100
0000
0100
0000
,  // measure 10
0001
0000
0010
0000
,  // measure 11
1000
0000
1000
0000
,  // measure 12
0100
0000
0001
0000
,  // measure 13
0010
0000
0000
0000
,  // measure 14
0100
0000
0000
0000
,  // measure 15
0001
0000
0100
0000
,  // measure 16
1000
0000
0100
0000
,  // measure 17
0010
0000
0001
0000
,  // measure 18
1000
1000
0100
0000
,  // measure 19
0100
0000
1000
0000
,  // measure 20
0010
0010
0001
0000
,  // measure 21
1001
0000
0000
0000
,  // measure 22
0110
0000
0000
0000
,  // measure 23
0001
0000
1000
0000
,  // measure 24
0010
0100
0010
0000
,  // measure 25
0110
0000
0110
0000
,  // measure 26
0001
1000
0100
0001
,  // measure 27
1000
0000
0001
0000
,  // measure 28
0010
0000
0100
0000
,  // measure 29
1001
0000
1001
0000
,  // measure 30
0010
1000
0100
0000
,  // measure 31
1000
0000
0001
0000
,  // measure 32
0010
0000
1000
0100
,  // measure 33
0001
0001
1000
0000
,  // measure 34
0010
0000
0100
0001
,  // measure 35
1000
1000
0001
0010
,  // measure 36
1000
0000
0001
0000
,  // measure 37
0010
0000
1000
0100
,  // measure 38
0001
0010
1000
0000
,  // measure 39
0001
0000
0100
0000
,  // measure 40
1000
0000
0100
0000
,  // measure 41
0010
0100
0001
1000
,  // measure 42
0010
0000
0000
0000
,  // measure 43
0100
0000
0100
0000
,  // measure 44
0001
0000
1000
0000
,  // measure 45
0010
0010
0010
0000
;

//---------------dance-single - ----------------
#NOTES:
     dance-single:
     :
     Medium:
     3:
     0.228,0.284,0.096,0.000,0.000,141.000,9.000,0.000,0.000,0.000:  // measure 1
0000
0000
0000
0000
,  // measure 2
0000
0000
0000
0000
,  // measure 3
0000
0000
0000
0000
,  // measure 4
0000
0000
0000
0000
,  // measure 5
0001
0000
1000
0000
,  // measure 6
0001
0000
0100
0000
,  // measure 7
1000
0000
0001
0000
,  // measure 8
0010
1000
0100
0000
,  // measure 9
0010
0000
0010
0000
,  // measure 10
1000
0001
0100
0000
,  // measure 11
0100
0000
0100
0000
,  // measure 12
0001
0010
1000
0001
,  // measure 13
1000
0100
0001
0010
,  // measure 14
1000
0100
0010
0001
,  // measure 15
1000
0000
1000
0000
,  // measure 16
0001
0000
0001
0000
,  // measure 17
0010
1000
0001
0100
,  // measure 18
0001
0001
0100
0000
,  // measure 19
1000
0100
0001
0010
,  // measure 20
1000
0001
1000
0000
,  // measure 21
0010
0000
0001
0000
,  // measure 22
0010
0000
1000
0000
,  // measure 23
0001
0001
1000
0100
,  // measure 24
0001
0010
0100
1000
,  // measure 25
0010
0010
0010
0000
,  // measure 26
0100
1000
0001
0100
,  // measure 27
1000
0100
1000
0000
0001
0010
0100
0000
,  // measure 28
0001
0010
1000
0100
,  // measure 29
0001
0000
1000
0000
,  // measure 30
0100
0010
0100
0100
,  // measure 31
0001
0100
1000
0100
,  // measure 32
0010
0001
1000
1000
,  // measure 33
0110
0000
1001
0000
0010
0100
0000
0000
,  // measure 34
0001
0001
0010
0100
,  // measure 35
1000
0001
0100
0000
0001
0010
0001
0000
,  // measure 36
1000
0000
0100
0000
,  // measure 37
0011
0000
1001
0000
1000
0001
0000
0000
,  // measure 38
0010
0010
1000
0001
,  // measure 39
1000
0100
1000
0000
0001
0100
0010
0000
,  // measure 40
0001
0000
0001
1000
0010
0000
0010
0000
,  // measure 41
0100
0100
1000
0001
,  // measure 42
0110
0000
1001
0000
,  // measure 43
0010
0001
1000
0100
,  // measure 44
0010
0001
1000
1000
,  // measure 45
0110
1001
0110
0000
;

//---------------dance-single - ----------------
#NOTES:
     dance-single:
     :
     Hard:
     4:
     0.306,0.355,0.256,0.000,0.000,177.000,24.000,0.000,0.000,0.000:  // measure 1
0000
0000
0000
0000
,  // measure 2
0000
0000
0000
0000
,  // measure 3
0000
0000
0000
0000
,  // measure 4
0000
0000
0000
0000
,  // measure 5
0010
0000
0010
0000
1000
0001
0100
0000
,  // measure 6
0001
0001
0001
0000
,  // measure 7
1000
0000
1000
0000
0010
1000
0100
0010
,  // measure 8
0100
0100
0100
0000
,  // measure 9
1000
0001
0100
0000
1000
0000
0100
0000
,  // measure 10
0001
0010
1000
0000
,  // measure 11
0100
0001
1000
0000
0010
0000
0100
0000
,  // measure 12
0001
0010
1000
0100
,  // measure 13
0001
0010
0001
0000
1000
0010
0100
0000
,  // measure 14
0001
0000
1000
0000
0010
0100
0010
1000
,  // measure 15
0001
0000
1000
0000
0100
0010
0001
0000
,  // measure 16
0010
1000
0100
0000
,  // measure 17
0010
0000
0001
0000
1000
0001
0010
0100
,  // measure 18
1000
0100
0001
1000
,  // measure 19
0100
0000
0010
0000
1000
0100
0010
0000
,  // measure 20
0001
0001
1000
0000
,  // measure 21
0010
0000
0000
0000
0100
0001
0010
0000
,  // measure 22
0010
0001
1000
0100
0010
0000
1000
0000
,  // measure 23
0001
0101
0010
1010
,  // measure 24
0001
1000
0001
0100
,  // measure 25
0011
0000
1001
0000
,  // measure 26
1010
0000
0110
0000
,  // measure 27
1000
0100
0010
0000
0001
0010
0100
0000
,  // measure 28
1000
0000
0001
0000
0100
0010
1000
0100
,  // measure 29
0010
0000
0011
0000
,  // measure 30
1010
0000
1001
0000
,  // measure 31
0001
0100
1000
0010
,  // measure 32
0001
0000
1000
0000
0010
0100
0010
0000
,  // measure 33
1001
0000
1001
0100
,  // measure 34
0001
0010
0001
1000
0010
0100
0001
0000
,  // measure 35
1100
1100
0011
0011
,  // measure 36
0110
0000
1001
0000
,  // measure 37
1010
0000
0101
0000
0010
1000
0100
0000
,  // measure 38
1000
0010
1000
0001
0100
0010
1000
0000
,  // measure 39
0001
0100
1000
0100
,  // measure 40
0001
0001
1000
0001
,  // measure 41
0010
1000
0100
0000
0010
0001
1000
0010
,  // measure 42
0100
0000
0100
1001
,  // measure 43
0010
1001
0100
0100
,  // measure 44
0010
0000
0001
0000
1000
0100
0010
0000
,  // measure 45
0011
1100
1001
0000
;

//---------------dance-double - ----------------
#NOTES:
     dance-double:
     :
     Easy:
     4:
     0.187,0.213,0.053,0.000,0.000,118.000,5.000,0.000,0.000,0.000:  // measure 1
00000000
00000000
00000000
00000000
,  // measure 2
00000000
00000000
00000000
00000000
,  // measure 3
00000000
00000000
00000000
00000000
,  // measure 4
00000000
00000000
00000000
00000000
,  // measure 5
00001000
00000000
00000001
00000000
,  // measure 6
00001000
00001000
00000100
00000000
,  // measure 7
00000001
00000000
00001000
00000000
,  // measure 8
00000001
00000001
00000100
00000000
,  // measure 9
00001000
00000000
00010000
00000000
,  // measure 10
00010000
01000000
10000000
00000000
,  // measure 11
10000000
00000000
00010000
00000000
,  // measure 12
00100000
01000000
10000000
00000000
,  // measure 13
10000000
00000000
01000000
00000000
,  // measure 14
00010000
00000000
00001000
00000000
,  // measure 15
00000100
00000001
00000010
00000000
,  // measure 16
00000010
00000100
00001000
00001000
,  // measure 17
00000001
00000000
00000010
00000000
,  // measure 18
00001000
00010000
00001000
00000000
,  // measure 19
00010000
00000000
00100000
00000000
,  // measure 20
10000000
00010000
10000000
00000000
,  // measure 21
00100000
00100000
10000000
01000000
,  // measure 22
00010000
00001000
00000100
00000001
,  // measure 23
00000010
00000010
00000100
00000000
,  // measure 24
00001000
00001000
00000001
00000000
,  // measure 25
00001001
00000000
00000000
00000000
,  // measure 26
00000100
00000000
00000010
00000000
,  // measure 27
00001000
00000001
00000100
00000010
,  // measure 28
00010000
00001000
01000000
00100000
,  // measure 29
10000000
10000000
00010000
00010000
,  // measure 30
00100000
00000000
01000000
00000000
,  // measure 31
10000000
00100000
01000000
00010000
,  // measure 32
00000010
00000001
00000100
00000010
,  // measure 33
00000100
00001001
00000000
00000100
,  // measure 34
00000000
00000100
00000010
00000001
,  // measure 35
00000000
00001000
00000000
00001000
,  // measure 36
00000010
00000100
00001000
00010000
,  // measure 37
00001000
00011000
00000000
01000000
,  // measure 38
00000000
01000000
00100000
10000000
,  // measure 39
00000000
00010000
00000000
00010000
,  // measure 40
00100000
01000000
10000000
00100000
,  // measure 41
00010000
00001000
00000010
00000100
,  // measure 42
00001001
00000000
00000100
00000000
,  // measure 43
00000001
00000100
00001000
00000000
,  // measure 44
00011000
00000000
01000000
00000000
,  // measure 45
00010000
01000000
10000000
00000000
;

//---------------dance-double - ----------------
#NOTES:
     dance-double:
     :
     Medium:
     5:
     0.281,0.332,0.160,0.000,0.000,170.000,15.000,0.000,0.000,0.000:  // measure 1
00000000
00000000
00000000
00000000
,  // measure 2
00000000
00000000
00000000
00000000
,  // measure 3
00000000
00000000
00000000
00000000
,  // measure 4
00000000
00000000
00000000
00000000
,  // measure 5
10000000
10000000
00010000
01000000
,  // measure 6
10000000
01000000
00010000
00001000
,  // measure 7
00001000
00000010
00000001
00001000
,  // measure 8
00000010
00000100
00000010
00000000
,  // measure 9
00001001
00000000
00000100
00000000
00000010
00000001
00000100
00000000
,  // measure 10
00001000
00010000
00100000
00000000
,  // measure 11
10000000
01000000
00100000
00010000
,  // measure 12
10000000
00000000
00100000
01000000
00100000
00000000
00000000
00000000
,  // measure 13
10000000
00100000
00010000
00000100
,  // measure 14
00000010
00000001
00000100
00000010
,  // measure 15
00001000
00000001
00000010
00000100
,  // measure 16
00001000
00001000
00000001
00000010
,  // measure 17
00001001
00000100
00010000
00100000
,  // measure 18
10000000
00010000
01000000
00000000
,  // measure 19
00100000
10000000
01000000
00100000
,  // measure 20
00001000
00000100
00000001
00000010
,  // measure 21
00000100
00000100
00001000
00000001
,  // measure 22
00000100
00000100
00001000
00010000
,  // measure 23
01000000
10000000
00010000
01000000
,  // measure 24
00100000
00100000
10000000
01000000
,  // measure 25
10010000
00100000
01000000
10000000
,  // measure 26
00100000
01000000
00010000
00001000
,  // measure 27
00000010
00000000
00000100
00000000
00000001
00001000
00000001
00000000
,  // measure 28
00000010
00000000
00000100
00000000
00001000
00000001
00001000
00000000
,  // measure 29
00000110
00001000
00100000
01000000
,  // measure 30
10000000
00010000
00010000
01000000
,  // measure 31
00100000
11000000
00010000
11000000
,  // measure 32
00100000
01010000
10000000
01010000
,  // measure 33
10010000
00011000
00000010
00000100
,  // measure 34
00000001
00001000
00000100
00000000
00000010
00000001
00000100
00000000
,  // measure 35
00010000
00100000
01000000
10000000
,  // measure 36
00010000
00000000
01000000
00000000
00100000
10000000
01000000
00000000
,  // measure 37
10010000
00000000
00100000
00000000
01000000
10000000
00100000
00000000
,  // measure 38
01000000
00010000
00100000
00000000
01000000
00000000
10000000
00000000
,  // measure 39
00100000
00010000
00000100
00000010
,  // measure 40
00000001
00001000
00000010
00000100
,  // measure 41
00001001
00000010
00001001
00000100
,  // measure 42
00001001
00000010
00001000
01000000
,  // measure 43
00100000
00000000
10000000
00010000
10000000
00000000
00010000
00000000
,  // measure 44
01100000
10000000
00010000
00010000
,  // measure 45
00000010
00000000
00000001
00001000
00000100
00000000
00000000
00000000
;

//---------------dance-double - ----------------
#NOTES:
     dance-double:
     :
     Hard:
     6:
     0.321,0.379,0.075,0.000,0.000,204.000,7.000,0.000,0.000,0.000:  // measure 1
00000000
00000000
00000000
00000000
,  // measure 2
00000000
00000000
00000000
00000000
,  // measure 3
00000000
00000000
00000000
00000000
,  // measure 4
00000000
00000000
00000000
00000000
,  // measure 5
00000001
00000100
00001000
00010000
,  // measure 6
00100000
10000000
00010000
00000000
,  // measure 7
10000000
01000000
00010000
00001000
,  // measure 8
00000100
00000001
00001000
00000000
,  // measure 9
00001001
00000000
00000100
00000000
00000010
00000001
00000100
00000000
,  // measure 10
00000010
00001000
00000001
00000010
00000100
00000000
00010000
00000000
,  // measure 11
01000000
10000000
00010000
00000000
00100000
00010000
10000000
00100000
,  // measure 12
01000000
00000000
01000000
00010000
00100000
00000000
10000000
00000000
,  // measure 13
00010000
00000000
00100000
01000000
00000000
10000000
00000000
00010000
,  // measure 14
00000000
00001000
00000010
00000100
00000000
00000001
00000000
00001000
,  // measure 15
00000000
00000001
00000100
00000000
00000000
00000000
00001000
00000001
,  // measure 16
00000000
00000010
00000000
00001000
00000000
00010000
00001000
00000000
,  // measure 17
00011000
00000000
01000000
00000000
00100000
10000000
01000000
00000000
,  // measure 18
00100000
00000000
00001000
00010000
00001000
00000000
00100000
00000000
,  // measure 19
01000000
00000000
10000000
00010000
01000000
00000000
00100000
00000000
,  // measure 20
10000000
00100000
01000000
00010000
10000000
00000000
01000000
00000000
,  // measure 21
00010000
00000010
00000100
00000001
,  // measure 22
00001000
00000000
00000001
00001000
00000000
00000100
00000010
00000001
,  // measure 23
00001000
00000100
00000000
00000000
00000000
00000010
00000001
00000100
,  // measure 24
00000000
00000100
00000000
00000100
00000000
00000000
00000000
00000000
,  // measure 25
00000001
00000000
00001000
00000000
,  // measure 26
00000010
00000000
00000100
00000000
,  // measure 27
00010000
01000000
10000000
00000000
01000000
00010000
10000000
00000000
,  // measure 28
00100000
01000000
00010000
00000000
00100000
01000000
10000000
00000000
,  // measure 29
00010000
00000000
00010000
00000000
10000000
00000000
10000000
01000000
,  // measure 30
00000000
00100000
00000000
00001000
00000000
00000100
00000000
00000000
,  // measure 31
00000001
00001000
00000100
00001000
00000001
00001000
00000100
00001000
,  // measure 32
00000001
00000010
00000100
00001000
00000001
00000100
00000010
00000000
,  // measure 33
00000100
00000000
00001001
00000000
00000100
00000010
00000000
00001000
,  // measure 34
00000001
00000010
00000100
00010000
00001000
01000000
00000000
00000000
,  // measure 35
10000000
00010000
01000000
00000000
00010000
10000000
01000000
00000000
,  // measure 36
00100000
00010000
01000000
00100000
10000000
01000000
01000000
00000000
,  // measure 37
00100000
00001000
00010000
00000000
00000100
00000010
00000001
00000000
,  // measure 38
00001000
00000010
00000100
00001000
00010000
00000000
00001000
00000000
,  // measure 39
00010000
01000000
10000000
00000000
00100000
01000000
00100000
00000000
,  // measure 40
10000000
00010000
01000000
00100000
10000000
01000000
00010000
00001000
,  // measure 41
00010000
00000100
00000010
00000001
00001000
00000010
00000100
00000000
,  // measure 42
00001001
00000100
00001000
00010000
,  // measure 43
00100000
10000000
00010000
00000000
,  // measure 44
10000000
00000000
01000000
00000000
00010000
00001000
00000100
00000000
,  // measure 45
00000101
00001100
00001001
00000000
;
