#TITLE:Love Hina Again;
#SUBTITLE:- Kirari Takaramono;
#ARTIST:堀江由衣;
#TITLETRANSLIT:;
#SUBTITLETRANSLIT:;
#ARTISTTRANSLIT:Yui Horie;
#CREDIT:Anime Toshokan;
#BANNER:Love Hina Again - Kirari Takaramono.png;
#BACKGROUND:Love Hina Again - Kirari Takaramono bg.png;
#LYRICSPATH:;
#CDTITLE:dejiko.png;
#MUSIC:Love Hina Again - Kirari Takaramono.mp3;
#OFFSET:3.919;
#SAMPLESTART:44.650;
#SAMPLELENGTH:12.400;
#SELECTABLE:YES;
#BPMS:0.000=155.980;
#STOPS:;
#BGCHANGES:22.000=Love Hina Again - Kirari Takaramono.avi=1.000=0=0=1,
227.500=Love Hina Again - Kirari Takaramono bg.png=1.000=0=0=1,
99999=-nosongbg-=1.000=0=0=0 // don't automatically add -songbackground-
;
// cache tags:
#FIRSTBEAT:10.500;
#LASTBEAT:230.500;
#SONGFILENAME:Songs/Anime Mix 1/Love Hina Again - Kirari Takaramono/Love Hina Again - Kirari Takaramono.sm;
#HASMUSIC:1;
#HASBANNER:1;
#MUSICLENGTH:89.498;
// end cache tags

//---------------dance-single - BASIC----------------
#NOTES:
     dance-single:
     BASIC:
     Easy:
     2:
     0.176,0.160,0.056,0.000,0.006,105.000,5.000,0.000,0.000,0.000:
0000
0000
0000
0000
,
0000
0000
0000
0000
,
0000
0000
0000
0000
,
0000
0001
0000
1000
,
0000
0001
0000
1000
,
0000
0100
0000
1001
,
0000
0100
0000
1000
,
0000
0001
0000
1001
,
0000
1000
0000
0100
,
0000
0001
0000
1001
,
0000
0100
0000
0000
,
0000
1000
0000
0001
,
0000
1000
0000
0100
,
0000
0010
0000
0100
,
0000
0010
0000
1000
,
0000
0001
0000
1000
,
0000
0001
0000
0001
,
0000
1000
0000
1000
,
0000
0100
0000
0010
,
0000
0010
0000
0001
,
0000
0010
0000
1000
,
0000
0100
0000
0100
,
0000
0100
0000
0100
,
0000
0001
0000
0001
,
0000
0001
0000
0010
,
0000
0010
0000
0010
,
0000
1000
0000
1000
,
0000
1000
0000
0100
,
0000
0100
0000
0100
,
0000
0001
0000
0001
,
0000
0100
0000
1000
,
0000
0100
0000
0010
,
0000
1000
0000
0001
,
0000
1000
0000
0100
,
0000
0001
0000
0001
,
0000
0001
0000
0001
,
0000
1000
0000
0100
,
0000
0010
0000
1000
,
0000
0100
0000
0100
,
0000
0100
0000
0100
,
0000
0001
0000
1000
,
0000
0001
0000
0100
,
0000
0010
0000
1000
,
0000
0001
0000
0001
,
0000
1000
0000
0100
,
0000
0010
0000
0001
,
0000
0100
0000
0100
,
0000
0100
0000
0100
,
0000
0100
0000
0001
,
0000
0001
0000
1000
,
0000
1000
0000
0100
,
0000
0100
0000
0100
,
0000
0100
0000
0100
,
0000
0010
0000
0010
,
0000
0001
0000
1000
,
0000
0000
0000
0000
,
0000
0000
0000
0000
0000
0000
0000
0000
0000
1001
0000
0000
0000
0000
0000
0000
,
0000
1001
0000
0000
0000
0000
0000
0000
;

//---------------dance-single - ANOTHER----------------
#NOTES:
     dance-single:
     ANOTHER:
     Medium:
     5:
     0.378,0.419,0.190,0.045,0.006,216.000,17.000,4.000,0.000,0.000:
0000
0000
0000
0000
,
0000
0000
0000
0000
,
0000
0000
0000
0000
,
0000
0011
1000
1000
,
0001
0001
1000
1000
,
0001
0001
0100
0010
,
1000
0100
0001
0001
,
0100
1000
0001
1000
,
0010
0001
1000
0010
,
0001
0100
1000
1001
,
0110
2002
0000
3003
,
0000
0110
0100
1000
,
0001
0100
0010
0001
,
0001
1000
0100
0001
,
0001
0010
1000
0100
,
0001
1000
0001
1000
,
0001
0100
0010
0001
,
1001
0100
0110
1001
,
0001
0001
0001
0001
,
1000
0100
0010
1000
,
0100
0100
1000
0001
,
0001
1000
1000
0100
,
1001
1001
1000
1000
,
1000
0001
0001
0001
,
0100
0010
0100
0010
,
1000
0100
1000
0001
,
0100
0001
0010
1000
,
0001
0010
1000
0010
,
0001
0100
0001
0010
,
0001
0010
1000
0010
,
0100
0001
1000
0001
,
0110
0110
0001
0001
,
0001
0001
1000
1000
,
1000
1000
0001
0001
,
0001
0001
1000
0001
,
0100
0010
1000
0001
,
0100
1000
0001
0010
,
0001
1000
0001
0100
,
0010
0000
1000
0000
0001
0000
0000
0001
,
1000
0001
1000
0001
0000
0000
0001
0000
,
0001
1000
1000
1001
,
0100
0010
0010
0001
,
1000
0001
0001
1001
,
0001
0001
1000
0100
,
0010
0100
0100
0110
,
0100
0001
0010
0100
,
0010
1000
0100
0010
,
1001
0110
0001
1000
,
0100
1000
0001
0100
,
0010
0001
1000
0100
,
1000
0100
0001
1000
,
0001
0100
0100
0100
,
0100
0100
0010
0010
,
0010
0010
0010
1000
,
0001
1000
0001
1000
,
0100
0100
0100
0100
0100
0100
0100
0100
,
0100
0000
0000
0000
0000
0000
0000
0000
0000
0020
0000
0000
0000
0030
0000
0000
,
0000
0200
0000
0000
0000
0300
0000
0000
;

//---------------dance-single - MANIAC----------------
#NOTES:
     dance-single:
     MANIAC:
     Hard:
     8:
     0.517,0.805,0.190,0.123,0.056,296.000,17.000,11.000,0.000,0.000:
0000
0000
0000
0000
,
0000
0000
0000
0000
,
0000
0000
0000
0000
0000
1000
0100
2000
,
0000
0000
3001
0000
0000
0001
0100
0002
,
0000
0000
1003
0000
0000
1000
0100
2000
,
0000
3001
0001
1000
,
1010
0101
1100
0011
,
0001
0001
0000
0000
0010
0000
0010
1000
,
0100
1000
0001
1000
0000
0000
0100
0000
,
0001
0000
1000
0001
0010
0100
1000
0100
,
0110
0001
1001
1000
0001
0010
0100
0001
,
0000
0000
1000
0100
0000
0000
0001
0000
,
0100
0000
0001
0100
0000
0000
0010
0000
,
1000
0000
1000
0010
0000
0000
0100
0000
,
0001
0000
0100
0001
0000
0000
1010
0000
,
0001
0001
0100
0000
1000
0000
0001
0000
,
1000
1000
0010
0000
0100
0000
1000
0001
,
1000
0100
0001
0100
0000
0110
0000
0100
,
0100
0010
0010
0100
0010
0000
1000
0000
,
0001
0100
0100
0000
0010
0000
0001
1000
,
0010
0000
0010
0000
0100
0010
0100
0001
,
1000
0001
0100
0010
0000
0100
0100
0100
,
1000
0000
0001
0000
1000
0001
1000
0000
,
0100
0010
0100
0000
0001
0010
0001
0000
,
0010
0100
0010
0000
1000
0001
0100
0000
,
0001
1000
0010
0000
1000
0100
0001
0000
,
0001
1000
0010
0000
0000
1010
0000
0101
,
0000
0000
1000
0000
0010
0000
0001
1000
,
1000
0100
0001
0100
0000
0000
0001
0000
,
0100
0100
0010
0000
1000
1000
0001
0000
,
0100
0001
0001
0000
1000
0001
1000
0100
,
0100
0100
0100
0000
0000
1000
0100
2000
,
0000
0000
3001
0000
0000
0001
0100
0002
,
0000
0000
1003
0000
0000
0001
0001
2000
,
0000
0000
3001
0000
0010
0001
1000
0000
,
0100
0000
0001
0100
0010
0000
1000
0000
,
0001
1000
0000
0000
0100
0001
0001
0000
,
1000
0000
0100
0010
0000
0000
1000
1000
,
0001
0001
1000
1000
0001
0000
0000
1000
,
0001
1000
0100
0100
0000
1000
1000
0002
,
0000
0000
1003
0000
0000
0001
1000
2000
,
0000
0000
3001
0000
0000
0100
0100
0002
,
0000
0000
1003
0000
1000
1000
0100
0000
,
0001
0000
1000
0100
0100
0000
0010
0000
,
1000
0001
0001
0001
1000
0100
0100
0000
,
0010
0000
0010
0010
0000
0000
0100
0000
,
0001
0000
1000
0001
0010
0010
0100
0001
,
0011
1001
1100
0010
0001
0010
1000
0001
,
0000
0000
0100
1000
0001
0001
0100
0000
,
0010
1000
0100
0100
0001
0000
0001
0001
,
1000
1000
1000
0000
0001
0000
1000
1000
,
0000
0000
0010
0000
0100
0100
1000
0000
,
0001
0010
0001
0000
0001
0000
0001
0001
,
0000
0000
0100
0100
0100
0100
0100
0000
,
1001
1001
1001
1001
,
1000
0001
1000
0001
1000
0001
1000
0001
1000
0001
1000
0001
1000
0001
1000
0001
,
1000
0001
0000
0000
0000
0000
0000
0000
0000
2000
0000
0000
0000
0000
0000
0000
,
0000
0200
0000
0000
0000
3300
0000
0000
;

//---------------dance-single - BEGINNER----------------
#NOTES:
     dance-single:
     BEGINNER:
     Beginner:
     2:
     0.158,0.183,0.022,0.000,0.000,97.000,2.000,0.000,0.000,0.000:
0000
0000
0000
0000
,
0000
0000
0000
0000
,
0000
0000
0000
0000
,
0000
0000
0000
0000
,
0000
0000
0000
0000
,
0000
0000
0000
0000
,
0100
0000
1000
0000
,
0001
0000
1001
0000
,
1000
0000
0100
0000
,
0001
0000
1001
0000
,
0100
0000
0000
0000
,
1000
0000
0001
0000
,
1000
0000
0100
0000
,
0010
0000
0100
0000
,
0010
0000
1000
0000
,
0001
0000
1000
0000
,
0001
0000
0001
0000
,
1000
0000
1000
0000
,
0100
0000
0010
0000
,
0010
0000
0001
0000
,
0010
0000
1000
0000
,
0100
0000
0100
0000
,
0100
0000
0100
0000
,
0001
0000
0001
0000
,
0001
0000
0010
0000
,
0010
0000
0010
0000
,
1000
0000
1000
0000
,
1000
0000
0100
0000
,
0100
0000
0100
0000
,
0001
0000
0001
0000
,
0100
0000
1000
0000
,
0100
0000
0010
0000
,
1000
0000
0001
0000
,
1000
0000
0100
0000
,
0001
0000
0001
0000
,
0001
0000
0001
0000
,
1000
0000
0100
0000
,
0010
0000
1000
0000
,
0100
0000
0100
0000
,
0100
0000
0100
0000
,
0001
0000
1000
0000
,
0001
0000
0100
0000
,
0010
0000
1000
0000
,
0001
0000
0001
0000
,
1000
0000
0100
0000
,
0010
0000
0001
0000
,
0100
0000
0100
0000
,
0100
0000
0100
0000
,
0100
0000
0001
0000
,
0001
0000
1000
0000
,
1000
0000
0100
0000
,
0100
0000
0100
0000
,
0100
0000
0100
0000
,
0010
0000
0010
0000
,
0001
0000
1000
0000
;
