#TITLE:Final Fantasy VIII;
#SUBTITLE:- Eyes On Me [Almighty Mix];
#ARTIST:王菲;
#TITLETRANSLIT:;
#SUBTITLETRANSLIT:;
#ARTISTTRANSLIT:Faye Wong;
#CREDIT:;
#BANNER:EyesOnMeLogo.png;
#BACKGROUND:EyesOnMeBG.png;
#LYRICSPATH:;
#CDTITLE:;
#MUSIC:eyesonme.mp3;
#OFFSET:1.707;
#SAMPLESTART:43.069;
#SAMPLELENGTH:12.000;
#SELECTABLE:YES;
#BPMS:0.000=134.000;
#STOPS:;
#BGCHANGES:;
// cache tags:
#FIRSTBEAT:20.000;
#LASTBEAT:232.000;
#SONGFILENAME:Songs/Games/EyesOnMe/eyesonme.sm;
#HASMUSIC:1;
#HASBANNER:1;
#MUSICLENGTH:104.022;
// end cache tags

//---------------dance-single - ----------------
#NOTES:
     dance-single:
     :
     Easy:
     2:
     0.202,0.251,0.077,0.000,0.000,139.000,8.000,0.000,0.000,0.000:  // measure 1
0000
0000
0000
0000
,  // measure 2
0000
0000
0000
0000
,  // measure 3
0000
0000
0000
0000
,  // measure 4
0000
0000
0000
0000
,  // measure 5
0000
0000
0000
0000
,  // measure 6
0001
0000
0000
0000
,  // measure 7
1000
0000
0000
0000
,  // measure 8
0001
0000
0001
0000
,  // measure 9
1000
0000
1000
0000
,  // measure 10
0001
0001
0100
0000
,  // measure 11
1000
1000
0100
0000
,  // measure 12
0001
1001
0000
0100
,  // measure 13
0110
0000
0000
0000
,  // measure 14
1000
1000
0010
0000
,  // measure 15
0001
0001
0100
0000
,  // measure 16
0010
0110
0000
1000
,  // measure 17
1001
0000
0000
0000
,  // measure 18
0001
0001
1000
1000
,  // measure 19
0100
0000
0100
0000
,  // measure 20
0001
0001
1000
1000
,  // measure 21
0010
0000
0010
0000
,  // measure 22
1000
0000
0010
0000
,  // measure 23
0100
0000
0001
0000
,  // measure 24
0010
0010
0010
0010
,  // measure 25
0100
0100
0100
0100
,  // measure 26
1001
0000
0000
0000
,  // measure 27
0010
0010
1000
1000
,  // measure 28
0001
0000
0100
0000
,  // measure 29
0001
0001
0100
0100
,  // measure 30
1000
0000
0100
0000
,  // measure 31
0010
0001
0010
0000
,  // measure 32
0100
1000
0100
0000
,  // measure 33
0010
0000
0001
0000
,  // measure 34
0100
0000
1000
0000
,  // measure 35
0001
0001
1000
1000
,  // measure 36
0001
0000
1000
0000
,  // measure 37
0010
0000
0100
0000
,  // measure 38
1001
0000
0000
0000
,  // measure 39
0010
0100
0010
0000
,  // measure 40
0001
0001
0001
0001
,  // measure 41
1000
1000
1000
1000
,  // measure 42
0110
0000
0000
0000
,  // measure 43
1000
1000
0010
0010
,  // measure 44
0100
0000
0100
0000
,  // measure 45
0001
0001
0100
0100
,  // measure 46
0010
0000
0010
0000
,  // measure 47
0001
0100
1000
0000
,  // measure 48
1000
0100
0001
0000
,  // measure 49
0010
0000
1000
0000
,  // measure 50
0100
0000
0001
0000
,  // measure 51
1000
0010
0001
0000
,  // measure 52
0001
0010
1000
0000
,  // measure 53
0010
0000
0100
0000
,  // measure 54
1001
0000
0000
0000
,  // measure 55
0001
1000
0001
0000
,  // measure 56
0010
0010
0010
0010
,  // measure 57
0100
0100
0100
0100
,  // measure 58
0001
0000
1000
0000
,  // measure 59
0100
0000
0000
0000
;

//---------------dance-single - ----------------
#NOTES:
     dance-single:
     :
     Medium:
     5:
     0.320,0.335,0.019,0.000,0.000,231.000,2.000,0.000,0.000,0.000:  // measure 1
0000
0000
0000
0000
,  // measure 2
0000
0000
0000
0000
,  // measure 3
0000
0000
0000
0000
,  // measure 4
0000
0000
0000
0000
,  // measure 5
0000
0000
0000
0000
,  // measure 6
0100
0001
0010
1000
,  // measure 7
0010
0001
0100
1000
,  // measure 8
0000
0001
0000
0010
,  // measure 9
0000
1000
0000
0100
,  // measure 10
0100
0000
0001
0000
1000
0100
0010
0000
,  // measure 11
1000
0001
0010
0100
,  // measure 12
0010
1000
0100
0000
0001
0000
1000
0000
,  // measure 13
0100
0001
1000
0000
0100
0000
0001
0000
,  // measure 14
0100
1000
0100
0010
,  // measure 15
0000
0001
0000
0001
,  // measure 16
0100
1000
0100
0010
,  // measure 17
0000
1000
0000
0100
,  // measure 18
0010
1000
0001
1000
,  // measure 19
0100
0000
0001
0100
1000
0010
0001
0000
,  // measure 20
0010
0001
1000
0100
,  // measure 21
0100
0000
1000
0100
0001
0010
1000
0000
,  // measure 22
0010
1000
0100
0001
,  // measure 23
0001
0000
0100
1000
0010
1000
0100
0000
,  // measure 24
0010
0001
0100
1000
,  // measure 25
1000
0000
0100
0001
0010
0001
0100
0000
,  // measure 26
1000
0000
0000
0000
,  // measure 27
0010
0000
0100
0000
0001
0100
1000
0000
,  // measure 28
0001
0000
0010
0000
1000
0001
0100
0000
,  // measure 29
0010
0000
0010
0000
1000
0100
0001
0000
,  // measure 30
0100
0001
0010
1000
,  // measure 31
0010
0001
0100
1000
,  // measure 32
0100
0000
0001
0000
1000
0100
0001
0000
,  // measure 33
0001
0010
1000
0000
0100
0000
0001
0000
,  // measure 34
1000
0100
0001
0000
0100
1000
0010
0000
,  // measure 35
0001
0010
1000
0000
0100
0000
0001
0000
,  // measure 36
1000
0100
0001
0000
0100
1000
0010
0000
,  // measure 37
0001
1000
0100
0001
,  // measure 38
1000
0100
0001
0000
0100
1000
0001
0000
,  // measure 39
0001
0010
1000
0000
0100
0000
0001
0000
,  // measure 40
1000
0000
0001
0000
0100
1000
0010
0000
,  // measure 41
0010
1000
0001
0000
0001
0000
1000
0000
,  // measure 42
1001
0000
0010
0010
,  // measure 43
0010
0001
1000
0100
,  // measure 44
0001
0100
1000
0000
0100
1000
0010
0000
,  // measure 45
0000
1000
0000
0001
,  // measure 46
1000
0100
0001
0000
0100
0000
0010
0000
,  // measure 47
0001
0010
1000
0000
0100
0000
0001
0000
,  // measure 48
0000
0001
0000
1000
,  // measure 49
0010
0000
1000
0000
0001
0010
1000
0000
,  // measure 50
0010
0000
0100
0000
1000
0001
1000
0000
,  // measure 51
0100
1000
0100
0001
,  // measure 52
0010
0000
1000
0000
0001
0100
1000
0000
,  // measure 53
0010
0100
0001
0100
,  // measure 54
0100
0001
1000
0100
,  // measure 55
0001
0000
0010
0000
0001
0100
1000
0000
,  // measure 56
0100
1000
0001
0100
,  // measure 57
1000
0100
0001
0100
,  // measure 58
1000
0001
0100
1000
,  // measure 59
1001
0000
0000
0000
;

//---------------dance-single - ----------------
#NOTES:
     dance-single:
     :
     Hard:
     6:
     0.400,0.418,0.365,0.000,0.019,253.000,38.000,0.000,0.000,0.000:  // measure 1
0000
0000
0000
0000
,  // measure 2
0000
0000
0000
0000
,  // measure 3
0000
0000
0000
0000
,  // measure 4
0000
0000
0000
0000
,  // measure 5
0000
0000
0000
0000
,  // measure 6
0001
0100
1000
0110
,  // measure 7
0001
0010
1000
0100
,  // measure 8
0001
0010
0100
1001
,  // measure 9
1000
0100
0001
0010
,  // measure 10
0100
0000
0010
0000
0001
0100
1000
0100
,  // measure 11
0001
0001
0010
1000
,  // measure 12
0001
0100
0001
0000
1001
0000
1000
0100
,  // measure 13
1000
0010
1000
0010
,  // measure 14
0100
0000
0001
0000
1000
0100
0001
0100
,  // measure 15
1000
0001
0100
0001
,  // measure 16
0010
1000
0100
0000
0010
0001
1000
0001
,  // measure 17
0100
0000
0000
0000
0000
0000
0010
0100
,  // measure 18
1000
0100
0001
0010
,  // measure 19
1000
0000
0010
0001
0010
1000
0100
0000
,  // measure 20
0001
0101
1100
1000
,  // measure 21
0001
0000
0010
1000
0010
0001
0100
0000
,  // measure 22
0010
0000
0100
0000
1000
0100
0010
0000
,  // measure 23
0001
0000
1000
0000
0010
0100
0001
1000
,  // measure 24
0010
0101
1100
0101
,  // measure 25
0001
0010
0100
1000
0001
0010
0100
1000
,  // measure 26
0001
0000
0000
0000
1000
0001
0010
0000
,  // measure 27
0100
0000
0010
0000
1000
0100
0001
0000
,  // measure 28
1001
0000
0110
0000
0001
0100
1000
0000
,  // measure 29
1100
0000
0011
0000
0010
1000
0100
0000
,  // measure 30
0001
0000
1000
0000
0010
0001
1000
0001
,  // measure 31
0100
0000
1001
0000
0010
0100
1000
0000
,  // measure 32
0110
0000
0000
0000
0100
0010
0001
0000
,  // measure 33
1010
0000
0101
0000
1000
0100
0001
0000
,  // measure 34
0110
0000
0000
0000
0010
0001
1000
0000
,  // measure 35
1100
0000
0101
0000
1000
0010
0001
0000
,  // measure 36
0100
0000
0010
0000
0100
1000
0001
0000
,  // measure 37
0010
0000
0000
0100
0000
0000
0011
0000
,  // measure 38
1100
0100
0100
0000
,  // measure 39
0010
0100
0001
1000
0100
0000
0110
0000
,  // measure 40
0001
1000
0010
0100
0001
0000
1001
0000
,  // measure 41
1000
0100
1000
0000
0001
0100
0001
0000
,  // measure 42
1001
0000
0000
0000
0000
0000
0000
0000
1000
0000
0000
0100
0000
0000
0010
0000
,  // measure 43
0001
0100
1000
0100
,  // measure 44
0011
0000
0000
0000
1100
0000
0000
0000
0001
0000
0000
0010
0000
0000
0100
0000
,  // measure 45
1000
0010
0001
0010
,  // measure 46
0100
0000
0100
0000
0000
0001
1000
0001
,  // measure 47
1001
0000
0000
1000
0100
0000
0001
0000
,  // measure 48
0100
0000
0000
0000
1000
0000
0000
0000
0010
0000
0000
0100
0000
0000
0001
0000
,  // measure 49
1000
0100
0001
1001
,  // measure 50
1000
0000
0000
0000
0000
0000
0010
0000
0001
0000
0000
1000
0000
0000
0010
0000
,  // measure 51
0100
1000
0010
0001
,  // measure 52
0100
0000
0010
1000
0001
0100
0010
0000
,  // measure 53
1001
0110
0000
0011
,  // measure 54
1100
0000
0100
0100
,  // measure 55
0001
0100
0010
1000
0001
0000
1001
0000
,  // measure 56
0010
0000
0100
0000
0001
1000
0100
1000
,  // measure 57
0001
0010
1000
0010
,  // measure 58
0101
1100
1010
0011
,  // measure 59
1001
0000
0000
0000
;
