#TITLE:Last Thing On My Mind;
#SUBTITLE:;
#ARTIST:STEPS;
#TITLETRANSLIT:;
#SUBTITLETRANSLIT:;
#ARTISTTRANSLIT:;
#CREDIT:;
#BANNER:Last Thing On My Mind.png;
#BACKGROUND:Last Thing On My Mind-bg.png;
#LYRICSPATH:Last Thing On My Mind.lrc;
#CDTITLE:./CDTITLES/DANCING STAGE.PNG;
#MUSIC:Last Thing On My Mind.mp3;
#OFFSET:-2.355;
#SAMPLESTART:43.300;
#SAMPLELENGTH:12.000;
#SELECTABLE:YES;
#DISPLAYBPM:130.000;
#BPMS:0.000=130.310;
#STOPS:;
#BGCHANGES:;
// cache tags:
#FIRSTBEAT:8.000;
#LASTBEAT:172.000;
#SONGFILENAME:Songs/Dancing Stage/Last Thing On My Mind/Last Thing On My Mind.sm;
#HASMUSIC:1;
#HASBANNER:1;
#MUSICLENGTH:90.148;
// end cache tags

//---------------dance-single - ----------------
#NOTES:
     dance-single:
     :
     Easy:
     3:
     0.217,0.215,0.033,0.000,0.000,134.000,3.000,0.000,0.000,0.000:  // measure 1
0000
0000
0000
0000
,  // measure 2
0000
0000
0000
0000
,  // measure 3
0000
0000
0000
0000
,  // measure 4
0000
0000
0000
0000
,  // measure 5
0001
0010
1000
0100
,  // measure 6
0001
0010
1000
0100
,  // measure 7
0001
0010
1000
0100
,  // measure 8
0001
0010
1000
0100
,  // measure 9
0001
0000
0000
0000
,  // measure 10
0000
0000
0000
0000
,  // measure 11
0001
0001
0000
0000
,  // measure 12
1000
0001
1000
0001
,  // measure 13
1000
1000
0000
0000
,  // measure 14
0001
1000
0001
1000
,  // measure 15
0001
0001
0000
0000
,  // measure 16
1000
0001
1000
0001
,  // measure 17
1000
1000
0000
0000
,  // measure 18
0001
1000
0001
1000
,  // measure 19
1001
0000
0010
0000
,  // measure 20
0100
0000
0100
0000
,  // measure 21
1001
0000
0010
0000
,  // measure 22
0100
0000
0100
0000
,  // measure 23
0001
0001
0001
0001
,  // measure 24
1000
0010
0001
0100
,  // measure 25
1000
0010
0001
0100
,  // measure 26
1000
0010
0001
0100
,  // measure 27
1000
0010
0001
0100
,  // measure 28
1000
0100
0001
0100
,  // measure 29
1000
0100
0001
0100
,  // measure 30
0010
1000
0100
0001
,  // measure 31
1000
0100
0001
0100
,  // measure 32
1000
1000
1000
1000
,  // measure 33
0001
0001
0001
0001
,  // measure 34
0010
0010
0010
0010
,  // measure 35
0100
0100
0100
0100
,  // measure 36
1000
1000
1000
1000
,  // measure 37
0001
0001
0001
0001
,  // measure 38
0010
0010
0010
0010
,  // measure 39
0100
0100
0100
0100
,  // measure 40
1000
1000
1000
1000
,  // measure 41
0001
0001
0001
0001
,  // measure 42
0100
0100
0100
0100
,  // measure 43
0010
0010
0010
0010
,  // measure 44
1001
0000
0000
0000
;

//---------------dance-single - ----------------
#NOTES:
     dance-single:
     :
     Medium:
     5:
     0.323,0.334,0.300,0.000,0.000,177.000,27.000,0.000,0.000,0.000:  // measure 1
0000
0000
0000
0000
,  // measure 2
0000
0000
0000
0000
,  // measure 3
0001
0010
1000
0100
,  // measure 4
0001
0100
1000
0100
,  // measure 5
0001
0010
1000
0100
,  // measure 6
0001
0100
1000
0100
,  // measure 7
1001
0110
1001
0100
,  // measure 8
0001
1000
0010
0100
,  // measure 9
1001
0000
0000
0000
,  // measure 10
0000
0000
0000
0000
,  // measure 11
0001
0001
1000
0001
,  // measure 12
0110
1001
0110
1001
,  // measure 13
0100
0001
1000
0001
,  // measure 14
0110
1001
0110
1001
,  // measure 15
0100
0100
1000
0001
,  // measure 16
0110
1001
0110
1001
,  // measure 17
0100
0001
1000
0001
,  // measure 18
0110
1001
0110
1001
,  // measure 19
0010
1000
0100
0000
,  // measure 20
0010
0001
0100
0000
,  // measure 21
0010
1000
0100
1001
,  // measure 22
0010
0001
0100
1001
,  // measure 23
1010
1001
1100
1001
,  // measure 24
0010
0000
0100
0000
0100
0000
1000
0001
,  // measure 25
0100
0000
0010
0000
0010
0000
1000
0001
,  // measure 26
0010
0000
0100
0000
0100
0000
1000
0001
,  // measure 27
0100
0000
0010
0000
0010
0000
1000
0001
,  // measure 28
1000
0100
0001
0100
,  // measure 29
0010
1000
0100
0001
0100
1000
0010
0000
,  // measure 30
0001
0000
0001
0000
1000
0100
1000
0000
,  // measure 31
0001
0000
0001
0000
1000
0100
0001
0000
,  // measure 32
1000
0010
1000
0000
0010
0000
0010
0000
,  // measure 33
0001
0100
0001
0000
0100
0000
0100
0000
,  // measure 34
0010
1000
0010
0000
1000
0000
1000
0000
,  // measure 35
0100
0001
0100
0000
0001
0000
0001
0000
,  // measure 36
1000
0010
1000
0000
0010
0000
0010
0000
,  // measure 37
0001
0100
0001
0000
0100
0000
0100
0000
,  // measure 38
0010
1000
0010
0000
1000
0000
1000
0000
,  // measure 39
0100
0001
0100
0000
0001
0000
0001
0000
,  // measure 40
1000
0010
1000
0000
0010
0000
0010
0000
,  // measure 41
0001
0100
0001
0000
0100
0000
0100
0000
,  // measure 42
0010
0100
0010
0000
0100
0000
0100
0000
,  // measure 43
0100
0010
0100
0000
0010
0000
0010
0000
,  // measure 44
1001
0000
0000
0000
;

//---------------dance-single - ----------------
#NOTES:
     dance-single:
     :
     Hard:
     6:
     0.428,0.429,0.333,0.000,0.000,240.000,30.000,0.000,0.000,0.000:  // measure 1
0000
0000
0000
0000
,  // measure 2
0000
0000
0000
0000
,  // measure 3
0001
0010
1000
0100
,  // measure 4
0000
0000
0010
0100
0010
0001
1000
0001
,  // measure 5
0100
1000
0000
0010
0000
0001
0000
0100
,  // measure 6
0000
0000
0010
0100
0010
1000
0001
1000
,  // measure 7
0000
0101
0011
1001
,  // measure 8
0000
1100
1010
1001
,  // measure 9
0110
0000
0000
0000
,  // measure 10
0000
0000
0000
0000
,  // measure 11
0001
0000
0001
0000
1000
0100
0010
0001
,  // measure 12
1000
0100
0010
0001
1000
0100
0010
0001
,  // measure 13
0100
0010
1000
0001
0100
0010
1000
0001
,  // measure 14
0100
0010
1000
0001
0100
0010
1001
0000
,  // measure 15
0100
0000
0100
0000
0010
0001
1000
0100
,  // measure 16
0010
0001
1000
0100
0010
0001
1000
0100
,  // measure 17
0010
0100
0001
1000
0010
0100
0001
1000
,  // measure 18
0010
0100
0001
1000
0010
0100
1001
0000
,  // measure 19
0010
1000
0100
0010
0001
0000
0000
0000
,  // measure 20
0010
0001
0100
0010
1000
0000
0000
0000
,  // measure 21
0010
1000
0100
0010
0001
0000
0011
0000
,  // measure 22
0010
0001
0100
0010
1000
1010
0000
0000
,  // measure 23
0001
0001
0010
0010
1000
1000
0100
0100
,  // measure 24
0001
0010
1000
0100
,  // measure 25
0000
0010
0100
0010
0001
1000
0001
0100
,  // measure 26
1000
0010
0001
0100
,  // measure 27
0000
0000
0010
0100
0010
1000
0001
1000
,  // measure 28
0100
1000
1000
0100
0000
0001
0001
0100
,  // measure 29
0000
0010
1000
0100
0001
0100
1001
0110
,  // measure 30
0000
0001
0000
0100
0000
1000
0000
0100
,  // measure 31
0000
0010
0001
0100
1000
1001
0110
1001
,  // measure 32
0000
0001
0010
0001
0100
0000
0001
0010
,  // measure 33
0001
1000
0010
1000
0100
0000
1000
0100
,  // measure 34
0001
0100
1000
0010
0010
0000
0001
0010
,  // measure 35
1000
0010
0001
0100
0100
0000
1000
0010
,  // measure 36
1000
0010
0001
0011
0011
0000
0001
0010
,  // measure 37
0001
0010
1000
1010
1010
0000
1001
0000
,  // measure 38
0110
0000
1000
0100
0100
0000
1001
0000
,  // measure 39
0110
0000
0001
0100
0100
0000
0010
1000
,  // measure 40
0100
0001
0100
1000
0010
0100
0001
0100
,  // measure 41
1000
0100
0001
0010
1000
0010
1001
0000
,  // measure 42
0110
0000
1000
0001
0010
0100
1001
0000
,  // measure 43
0110
0000
0000
0000
1000
0001
1000
0110
,  // measure 44
1001
0000
0000
0000
;
