#TITLE:Chobits;
#SUBTITLE:- Let Me Be With You [Remix];
#ARTIST:Round Table feat. Nino;
#TITLETRANSLIT:;
#SUBTITLETRANSLIT:;
#ARTISTTRANSLIT:;
#CREDIT:Anime Toshokan;
#BANNER:Chobits - Let Me Be With You [Remix].png;
#BACKGROUND:Chobits - Let Me Be With You [Remix] bg.png;
#LYRICSPATH:;
#CDTITLE:dejiko.png;
#MUSIC:Chobits - Let Me Be With You [Remix].mp3;
#OFFSET:2.662;
#SAMPLESTART:45.270;
#SAMPLELENGTH:14.800;
#SELECTABLE:YES;
#BPMS:0.000=65.000;
#STOPS:;
#BGCHANGES:14.750=Chobits - Let Me Be With You [Remix].avi=1.000=0=0=1,
98.000=Chobits - Let Me Be With You [Remix] bg.png=1.000=0=0=1,
99999=-nosongbg-=1.000=0=0=0 // don't automatically add -songbackground-
;
// cache tags:
#FIRSTBEAT:6.500;
#LASTBEAT:101.500;
#SONGFILENAME:Songs/Anime Mix 2/Chobits - Let Me Be With You [Remix]/Chobits - Let Me Be With You [Remix].sm;
#HASMUSIC:1;
#HASBANNER:1;
#MUSICLENGTH:91.640;
// end cache tags

//---------------dance-single - BASIC----------------
#NOTES:
     dance-single:
     BASIC:
     Easy:
     2:
     0.106,0.095,0.011,0.011,0.000,66.000,1.000,1.000,0.000,0.000:
0000
0000
0000
0000
,
0000
0000
0000
0000
0000
0000
0000
1001
,
0000
0000
0000
0010
0000
0000
0000
0100
,
0000
0000
0000
1000
0000
0000
0000
0001
,
0000
0000
0000
0001
0000
0001
0000
0001
,
0000
0001
0000
0001
0000
0000
0000
0100
,
0000
0000
0000
1000
0000
0000
0000
0010
,
0000
0000
0000
0001
0000
0000
0000
0100
,
0000
0000
0000
0001
0000
0000
0000
0010
,
0000
0000
0000
1000
0000
1000
0000
1000
,
0000
0000
0000
0001
0000
0001
0000
0001
,
0000
0000
0000
1000
0000
1000
0000
1000
,
0000
0000
0000
0001
0000
0001
0000
1000
,
0000
1000
0000
0001
0000
0001
0000
1000
,
0000
0001
0000
1000
0000
0000
0000
0000
,
0000
0010
0000
0010
0000
0010
0000
0100
,
0000
0100
0000
0100
0000
0000
0000
0000
,
0000
0001
0000
1000
0000
0001
0000
1000
,
0000
0001
0000
1000
0000
0000
0000
0000
,
0000
0010
0000
0100
0000
0010
0000
0100
,
0000
0010
0000
0100
0000
0000
0000
0000
,
0000
0001
0000
0001
0000
1000
0000
1000
,
0000
0001
0000
1000
0000
0000
0000
0000
,
0000
0100
0000
0100
0000
0100
0000
0100
,
0000
0100
0000
0200
0000
0000
0000
0000
,
0310
0000
0000
0000
;

//---------------dance-single - ANOTHER----------------
#NOTES:
     dance-single:
     ANOTHER:
     Medium:
     4:
     0.200,0.177,0.371,0.000,0.000,94.000,34.000,0.000,0.000,0.000:
0000
0000
0000
0000
,
0000
0000
0000
0000
0000
0000
0000
0110
,
0000
1001
0000
0000
0010
1000
0001
0100
,
0010
0000
0000
1000
0000
0001
0000
1000
,
0000
0000
0000
0001
0000
1000
0000
1001
,
0000
0001
0000
1000
0000
0001
0000
1000
,
0000
1001
0000
0000
0100
0010
0010
0100
,
0000
0000
0000
0110
0000
0000
0000
1000
,
0000
0001
0000
1001
0000
0000
0000
0010
,
0000
0100
0000
0110
0000
0000
0000
0010
,
0000
1000
0000
1010
0000
0000
0000
0001
,
0000
0010
0000
0011
0000
0000
0000
0100
,
0000
0110
0000
0010
0000
1001
0000
0000
,
0000
1100
0000
0101
0000
1000
0000
0001
,
0000
1010
0000
0011
0000
0001
0001
0001
,
0000
1010
0000
0011
0000
1000
0000
0001
,
0000
1100
0000
0101
0000
1000
1000
1000
,
0000
0110
0000
1001
0000
0100
0000
0010
,
0000
1001
0000
0110
0000
0001
1000
0001
,
0000
1001
0000
1001
0000
1000
0000
0001
,
0000
1001
0000
1001
0000
1000
0001
1000
,
0000
1100
0000
0011
0000
0100
0000
0010
,
0000
1010
0000
0101
0000
0100
0100
0100
,
0000
1010
0000
0011
0000
1000
0000
0001
,
0000
1001
0000
0000
0001
0010
0100
1000
,
0001
0000
0000
0000
;

//---------------dance-single - MANIAC----------------
#NOTES:
     dance-single:
     MANIAC:
     Hard:
     7:
     0.469,0.471,1.000,0.044,0.196,189.000,108.000,4.000,0.000,0.000:
0000
0000
0000
0000
,
0000
0000
0000
0000
0000
1000
0001
1001
,
0001
1000
0010
0100
1010
0011
1001
1100
,
0101
1000
0001
0100
1000
0010
0001
1000
,
0001
0010
0100
1000
0001
0010
0100
1000
,
1000
0001
0001
1000
0100
0010
0100
0100
,
0010
0010
0001
1000
1010
1100
0011
0101
,
0010
0001
0001
1000
1000
0010
0010
0100
,
0100
1000
0001
0010
0100
1000
0100
0010
,
0001
0100
1000
0010
0001
0100
1000
0010
,
0001
0100
1000
0001
0100
1000
0010
0001
,
0100
0010
1000
0001
0010
0100
0001
1000
,
0001
0010
0100
1000
0001
0100
1000
0001
,
0000
1001
1001
0000
1001
0110
0000
0000
0000
0110
1001
0000
0110
0110
0000
0000
,
0000
1010
0011
0000
1010
0011
0000
0000
1010
0000
1010
0000
0011
0000
0011
0000
,
1001
1100
0011
0000
0011
1100
0000
0000
0000
1010
0101
0000
0101
1010
0000
0000
,
0000
1001
1001
0000
1001
1001
0000
0000
1100
0000
1100
0000
0101
0000
0101
0000
,
1001
1010
0011
0000
1010
0011
0000
0000
0000
1100
0101
0000
1100
0101
0000
0000
,
0000
1001
0110
0000
0110
1001
0000
0000
1010
0000
1001
0000
1100
0000
0101
0000
,
0011
1010
1100
0000
0011
0101
0000
0000
0000
1010
0011
0000
1100
0101
0000
0000
,
0000
0110
0110
0000
1001
1001
0000
0000
0220
0000
0000
0000
0000
0000
0330
0000
,
0000
1010
1010
0000
0011
0011
0000
0000
0000
1100
1100
0000
0101
0101
0000
0000
,
0000
0110
0110
0000
1001
1001
0000
0000
1100
0000
0101
0000
1010
0000
0011
0000
,
0110
1001
1001
0000
0110
0110
0000
0000
0000
1010
0011
0000
1100
0101
0000
0000
,
0000
1001
1001
0000
1001
1001
0000
0000
1010
0000
0011
0000
1100
0000
0101
0000
,
2002
0000
0000
3003
0000
0000
0000
0000
;

//---------------dance-single - BEGINNER----------------
#NOTES:
     dance-single:
     BEGINNER:
     Beginner:
     1:
     0.106,0.109,0.011,0.011,0.000,66.000,1.000,1.000,0.000,0.000:
0000
0000
0000
0000
,
0000
0000
0000
0000
,
1001
0000
0010
0000
,
0100
0000
1000
0000
,
0001
0000
0001
0001
,
0001
0001
0001
0000
,
0100
0000
1000
0000
,
0010
0000
0001
0000
,
0100
0000
0001
0000
,
0010
0000
1000
1000
,
1000
0000
0001
0001
,
0001
0000
1000
1000
,
1000
0000
0001
0001
,
1000
1000
0001
0001
,
1000
0001
1000
0000
,
0000
0010
0010
0010
,
0100
0100
0100
0000
,
0000
0001
1000
0001
,
1000
0001
1000
0000
,
0000
0010
0100
0010
,
0100
0010
0100
0000
,
0000
0001
0001
1000
,
1000
0001
1000
0000
,
0000
0100
0100
0100
,
0100
0100
0200
0000
,
0310
0000
0000
0000
;
