#TITLE:Hooke;
#SUBTITLE:;
#ARTIST:Beatdrop;
#TITLETRANSLIT:;
#SUBTITLETRANSLIT:;
#ARTISTTRANSLIT:;
#CREDIT:jammitch!;
#BANNER:Hooke.png;
#BACKGROUND:Hooke-bg.png;
#LYRICSPATH:;
#CDTITLE:jammitch!.png;
#MUSIC:Hooke.ogg;
#OFFSET:-6.599;
#SAMPLESTART:46.054;
#SAMPLELENGTH:13.360;
#SELECTABLE:YES;
#BPMS:0.000=145.940;
#STOPS:;
#BGCHANGES:;
// cache tags:
#FIRSTBEAT:0.000;
#LASTBEAT:225.000;
#SONGFILENAME:Songs/StepMix 1.0/Hooke/Hooke.sm;
#HASMUSIC:1;
#HASBANNER:1;
#MUSICLENGTH:100.620;
// end cache tags

//---------------dance-single - Expert----------------
#NOTES:
     dance-single:
     Expert:
     Challenge:
     9:
     0.707,0.755,0.179,0.080,0.353,472.000,18.000,8.000,13.000,0.000:
0000
0000
1000
0000
0010
0000
0100
0000
0010
0000
1000
0000
0100
0000
0010
0100
,
0010
0001
0100
0001
1000
0100
1000
0020
,
0000
0000
0130
0000
0001
0000
0010
0000
0100
0000
1000
0000
0010
0000
0100
0001
,
0100
0010
1000
0100
0010
0100
1000
0001
,
0100
0000
0010
0000
1000
0000
0001
0100
0000
0001
1000
0000
0010
0000
0100
0000
,
0100
0000
0000
0000
0001
0000
0100
0010
0000
0100
0001
0000
1000
0000
0100
0000
,
0100
0000
0000
0000
1000
0000
0010
0100
0000
0010
1000
0000
0001
0000
0010
0000
,
0001
0000
0000
0000
0100
0000
0010
1000
0000
0001
0010
0000
0001
0000
1000
0000
,
0010
0000
0100
0000
1000
0000
0100
0001
0000
1000
0100
0000
0010
0000
0001
0000
,
0001
0000
0000
0000
0100
0000
0010
1000
0000
0001
1000
0000
0100
0000
0010
0000
,
0010
0000
0000
0000
0001
0000
0100
0010
0000
1000
0100
0000
1000
0000
0010
0000
,
0100
0000
0000
0000
0001
0000
1000
0100
0000
1000
0010
0000
0100
0000
0001
0000
,
1000
0100
0001
0100
0010
0010
1000
0020
,
0000
0130
1000
0001
0010
0010
1000
0020
,
0000
0031
0100
0010
0001
0001
0010
2000
,
0000
3100
0001
0100
0010
0010
0001
0100
,
0110
0010
1000
0001
0100
0100
1000
0200
,
0000
0301
1000
0100
0001
0001
1000
0020
,
0000
0130
1000
0001
0010
0010
0100
0002
,
0000
1003
0010
0100
1000
1000
0001
0100
,
1001
0000
0000
0001
0100
0000
0010
0000
1000
0000
1000
0000
1000
0000
0001
0000
,
0101
0000
0100
0000
1010
0010
0110
0100
,
1001
0000
0000
0001
1000
0000
0000
0001
0100
0000
0000
0001
0010
0000
0000
0100
,
1000
0000
0010
0000
0100
0000
0010
0000
1000
0000
0001
0000
0100
0010
0000
0010
,
1000
0100
0001
1000
0010
0100
1000
0001
,
0010
1000
0001
0100
0010
0001
1000
0100
,
0010
1000
0001
0100
1000
0010
0001
1000
,
0100
0010
1000
0001
0010
1000
0001
0100
,
1000
0010
0100
1000
0001
0010
1000
0100
,
0001
1000
0010
0100
1000
0001
0100
0001
,
1000
0010
0001
1000
0100
0010
0100
0001
,
1000
0000
0001
0000
0010
0000
0100
0000
0001
0000
1000
0000
0010
0100
0010
0100
,
1000
0000
0001
0000
0100
0000
0010
1000
0000
0001
0010
0000
0100
0000
0100
0000
,
1000
0000
0001
0000
0010
0000
0001
1000
0000
0010
1000
0000
0001
0000
0001
0000
,
0100
0000
0010
0000
1000
0000
0001
0010
0000
0001
1000
0000
0010
0000
0010
0000
,
0100
0000
0001
0000
1000
0000
0100
0010
0000
0100
1000
0000
0001
0000
0001
0000
,
0100
0000
0010
0000
1000
0000
0001
0010
0000
0100
1000
0000
0001
0000
0001
0000
,
0010
0000
0001
0000
0100
0000
0010
1000
0000
0001
0100
0000
0001
0000
0001
0000
,
1000
0000
0010
0000
1000
0000
0001
0100
0000
0010
1000
0000
0100
0000
0100
0000
,
0010
0000
0001
0000
1000
0000
0100
1000
0000
0001
0010
0000
0001
0000
0001
0000
,
1000
0000
0000
0000
0101
0000
1000
0100
0000
0100
1000
0000
1000
0001
1000
0000
,
0100
0000
0000
0000
1010
0000
0001
0010
0000
0010
0001
0000
0001
1000
0001
0000
,
0100
0000
0001
0000
0011
0000
1000
0010
0000
0010
0100
0000
0100
0001
0100
0000
,
0010
0000
1000
0000
1100
0000
0001
0100
0000
0100
0010
0000
0010
1000
0010
0000
,
0100
0000
0001
0000
1001
0000
0010
1000
0000
1000
0001
0000
0100
0001
1000
0000
,
0010
0000
0100
0000
0101
0000
1000
0001
0000
0001
0100
0000
0010
1000
0001
0000
,
0100
0000
0001
0000
1001
0000
0010
1000
0000
1000
0001
1000
0100
1000
0001
1000
,
0100
0000
0010
0000
0011
0000
1000
0001
0000
0001
0100
0001
1000
0001
0100
0001
,
1000
0010
0100
0001
1100
0010
0001
0100
,
0010
1000
0100
0010
0001
0100
0010
0100
,
0001
1000
0010
0100
1001
0100
0010
0100
,
0001
1000
010M
M010
0M01
00M1
1000
1000
,
0100
0010
0100
1000
0101
0010
0001
0100
,
0010
1000
0010
0100
0001
0010
0001
0100
,
0010
1000
0100
1000
0101
0010
0001
0100
,
0010
1000
01M0
M010
0M01
00M1
0100
0200
,
M01M
03M0
0MM0
0000
0000
0000
0000
0000
;

//---------------dance-single - Hard----------------
#NOTES:
     dance-single:
     Hard:
     Hard:
     8:
     0.618,0.474,0.000,0.099,0.000,425.000,0.000,10.000,0.000,0.000:
0000
0010
1000
0001
0010
0100
1000
0020
,
0000
0130
0001
1000
0100
0010
0001
0200
,
0000
0310
1000
0001
0010
0100
1000
0020
,
0000
0130
0001
1000
0100
0010
0001
0100
,
0010
1000
0001
0010
0001
1000
0100
2000
,
0000
3001
0100
0001
1000
0100
1000
0002
,
0000
1003
0010
0100
0010
1000
0100
0020
,
0000
0031
0100
0001
1000
0100
0010
0100
,
1000
0001
0010
0001
1000
0010
0100
0020
,
0000
1030
0001
0010
0001
0100
0010
0200
,
0000
0301
1000
0100
0010
0100
1000
0002
,
0000
0103
0010
0100
0001
1000
0100
0010
,
0001
0100
0001
1000
0100
0010
0100
1000
,
1000
0001
0010
0001
0100
0010
0100
0001
,
0001
1000
0100
0010
0001
0100
0010
1000
,
1000
0001
0010
0100
1000
0010
0100
0001
,
1000
0010
0100
0010
1000
0001
0010
0001
,
0001
0100
0010
0100
0001
1000
0010
0100
,
0100
0001
0010
0001
1000
0100
0010
0100
,
0100
1000
0010
0100
0010
1000
0001
0100
,
0010
0000
1000
0000
0010
0010
0010
1000
,
0001
0000
0100
0000
0001
0001
0001
0100
,
0010
0000
0100
0000
0010
0010
0010
1000
,
0001
0000
0100
0000
0001
0001
0001
1000
,
0100
1000
0010
1000
0100
1000
0010
1000
,
0001
0010
0001
0100
0001
0010
0100
1000
,
0010
1000
0100
1000
0010
1000
0100
1000
,
0001
0010
0001
0100
0001
0010
0100
1000
,
0010
0100
0010
1000
0010
0100
0010
1000
,
0001
0100
0010
0100
0001
0010
0100
1000
,
0010
0100
0010
1000
0010
0100
0010
1000
,
0001
0100
0010
0100
0001
0010
0100
1000
,
0010
0100
0001
0010
0001
1000
0010
1000
,
0001
0100
0010
0100
0001
0010
0100
1000
,
0010
0100
0010
1000
0100
1000
0001
0010
,
0001
0100
0010
0100
0001
0010
0100
1000
,
0001
1000
0100
1000
0010
0100
0001
0010
,
0001
1000
0010
1000
0001
0010
0100
1000
,
0001
0100
0010
1000
0100
1000
0010
0100
,
0010
1000
0001
0100
0001
0010
0100
1000
,
0001
0000
0100
0001
0001
0001
0100
0100
,
0010
0000
1000
0010
0010
0010
1000
1000
,
0001
0000
0100
0010
0010
0010
0100
0100
,
0001
0001
1000
0001
0001
0001
1000
1000
,
0010
0000
0100
0001
0001
0001
1000
1000
,
0100
0000
1000
0010
0010
0010
0100
0100
,
0001
0000
1000
0100
0100
0100
1000
1000
,
0010
0010
0100
0001
0001
0001
1000
1000
,
0010
0100
0010
1000
0001
0010
0001
0100
,
0010
0100
0001
1000
0001
0010
0100
1000
,
0001
0100
0010
0100
0001
1000
0100
0010
,
0100
1000
0010
0100
0001
0100
0010
1000
,
0001
0100
0001
0010
0001
1000
0010
0100
,
0010
1000
0001
1000
0001
0010
0100
1000
,
0001
0100
0010
1000
0001
0010
0001
1000
,
0100
1000
0001
0100
0001
0010
0100
2000
,
0001
3000
0000
0000
0000
0000
0000
0000
;

//---------------dance-single - Medium----------------
#NOTES:
     dance-single:
     Medium:
     Medium:
     5:
     0.355,0.363,0.000,0.010,0.000,249.000,0.000,1.000,0.000,0.000:
0000
0010
1000
0000
0010
0000
1000
0100
,
0000
0100
1000
0000
0001
0000
0100
0010
,
0000
0010
0100
0000
0001
0000
0010
0100
,
0000
0100
0010
0000
0001
0000
1000
0010
,
1000
0100
0000
0000
0000
0010
0000
0000
,
0000
0100
0000
0000
0000
1000
0000
0000
,
0000
0000
0000
0001
0000
0000
0100
0000
,
0010
0000
0100
0000
0000
0001
0000
1000
,
0010
0000
0000
0000
0000
0100
0000
0000
,
0000
0001
0000
0000
0000
0100
0000
0000
,
0000
0000
0000
0010
0000
0000
1000
0000
,
0100
0000
0010
0000
0000
0001
0000
1000
,
0000
0010
0000
0000
0000
0100
0000
0000
,
0000
0010
0000
0000
0000
1000
0000
0000
,
0000
0000
0000
0010
0000
0000
0100
0000
,
0001
0000
0100
0000
0000
0010
0000
1000
,
0001
0000
0000
0000
0000
0100
0000
0000
,
0000
0010
0000
0000
0000
0100
0000
0000
,
0000
0000
0000
0001
0000
0000
0100
0000
,
0001
0010
0100
1000
0001
0010
0100
1000
,
0001
0000
1000
0000
0001
0100
0001
0000
,
1000
0000
0010
0000
1000
0100
1000
0000
,
0010
0000
0100
0000
0001
1000
0001
0000
,
0010
0000
0100
0000
1000
0010
1000
0000
,
0001
0100
0010
0100
,
0001
0000
1000
0000
0010
0000
0100
0001
,
0100
0010
1000
0100
,
0010
0000
0001
0000
0100
0000
0010
1000
,
0010
1000
0001
0010
,
0100
0000
1000
0000
0010
0000
0100
0001
,
0100
0010
0100
0001
,
1000
0000
0100
0000
0010
0000
0001
1000
,
0001
0000
0100
0000
0010
0000
0100
0001
,
0100
0000
0010
0000
1000
0000
0001
0010
,
0001
0000
0100
0000
0010
0000
1000
0100
,
1000
0000
0001
0000
0010
0000
0001
1000
,
0001
0000
0100
0000
0010
0000
1000
0001
,
1000
0000
0010
0000
0100
0000
0001
0010
,
0001
0000
1000
0000
0100
0000
0010
0001
,
0010
0000
0100
0000
1000
0000
0010
0100
,
0010
0000
0010
0000
0010
0000
0010
1000
,
0001
0000
0001
0000
0001
0000
0001
1000
,
0100
0000
0100
0000
0100
0000
0100
1000
,
0010
0000
0010
0000
0010
0000
0010
0100
,
0001
0000
1000
0000
1000
0000
1000
0010
,
0100
0000
0100
0000
0100
0000
0100
0001
,
0010
0000
0010
0000
0010
0000
0010
0001
,
1000
0000
1000
0000
1000
0000
1000
0010
,
0100
0000
0001
0000
1000
0100
1000
0100
,
1000
0000
0010
0000
0100
0001
0100
0001
,
0100
0000
0010
0000
1000
0001
1000
0001
,
1000
0000
0100
0000
0010
0001
0010
0001
,
0010
0000
1000
0000
0001
0100
0001
0100
,
0001
0000
0010
0000
0100
1000
0100
1000
,
0100
0000
1000
0000
0010
0100
0010
0100
,
0010
0000
1000
0000
0001
0100
0001
0020
,
0000
0030
0000
0000
0000
0000
0000
0000
;

//---------------dance-single - Easy----------------
#NOTES:
     dance-single:
     Easy:
     Easy:
     3:
     0.202,0.250,0.050,0.040,0.000,133.000,5.000,4.000,0.000,0.000:
0000
1000
0010
2000
,
3000
0001
0010
0002
,
0003
0100
0010
0200
,
0300
0001
1000
0002
,
0103
0000
0010
0000
,
0100
0000
0001
0000
,
1000
0000
0100
0000
,
1000
0000
0010
0000
,
0100
0000
0001
0000
,
1000
0000
0100
0000
,
0010
0000
0001
0000
,
0100
0000
0010
0000
,
0100
0000
0001
0000
,
0100
0000
0010
0000
,
1000
0000
0100
0000
,
0010
0000
0100
0000
,
1000
0000
0001
0000
,
0100
0000
0001
0000
,
0010
0000
0100
0000
,
0010
0010
0001
0001
,
0100
0000
1001
0001
,
0100
0000
1001
1000
,
0100
0000
1001
0001
,
0010
0000
1001
1000
,
0010
0000
0100
0000
,
0010
0000
1000
0000
,
0001
0000
0010
0000
,
0001
0000
0100
1000
,
1000
0000
0010
0000
,
0100
0000
0010
0000
,
1000
0000
0001
0000
,
0100
0000
0010
0010
,
0001
0000
0100
0000
,
0010
0000
0100
0000
,
0001
0000
1000
0000
,
0010
0000
0100
0100
,
0001
0000
1000
0000
,
0100
0000
1000
0000
,
0010
0000
0100
0000
,
0001
0000
1000
1000
,
0001
0000
0100
0000
,
0001
0000
0100
0010
,
1000
0000
0100
0000
,
1000
0000
0100
0010
,
0001
0000
1000
0000
,
0001
0000
1000
0010
,
0100
0000
0010
0000
,
0100
0000
0010
1000
,
0001
0000
0100
0000
,
0001
0000
0010
0000
,
0100
0000
1000
0000
,
0010
0000
1000
1000
,
0001
0000
0100
0000
,
0010
0000
1000
0000
,
0100
0000
0010
0000
,
0001
0000
1000
1000
,
1001
0000
0000
0000
;

//---------------dance-single - Beginner----------------
#NOTES:
     dance-single:
     Beginner:
     Beginner:
     1:
     0.135,0.195,0.000,0.000,0.000,95.000,0.000,0.000,0.000,0.000:
0010
0000
0000
0000
,
0100
0000
0000
0000
,
0010
0000
0000
0000
,
0100
0000
0000
0000
,
0001
0000
0001
0000
,
1000
0000
1000
0000
,
0001
0000
0001
0000
,
0100
0000
0100
0000
,
1000
0000
1000
0000
,
0001
0000
0001
0000
,
1000
0000
1000
0000
,
0100
0000
0100
0000
,
0001
0000
0001
0000
,
0010
0000
0010
0000
,
0100
0000
0100
0000
,
1000
0000
1000
0000
,
0001
0000
0001
0000
,
0100
0000
0100
0000
,
0010
0000
0010
0000
,
1000
0000
1000
0000
,
0001
0000
1000
1000
,
1000
0000
0001
0001
,
0001
0000
1000
1000
,
1000
0000
0001
0001
,
0001
0000
0000
0000
,
1000
0000
0000
0000
,
0010
0000
0000
0000
,
0100
0000
0100
0000
,
0100
0000
0000
0000
,
0001
0000
0000
0000
,
1000
0000
0000
0000
,
0010
0000
0010
0000
,
0010
0000
0000
0000
,
0100
0000
0000
0000
,
0010
0000
0000
0000
,
1000
0000
1000
0000
,
1000
0000
0000
0000
,
0001
0000
0000
0000
,
0010
0000
0000
0000
,
0001
0000
0001
0000
,
0001
0000
0100
0000
,
0001
0000
0100
0000
,
0010
0000
1000
0000
,
0010
0000
1000
0000
,
0001
0000
0010
0000
,
0001
0000
0010
0000
,
0100
0000
1000
0000
,
0100
0000
1000
0000
,
0001
0000
0000
0000
,
0100
0000
0000
0000
,
0001
0000
0000
0000
,
1000
0000
1000
0000
,
1000
0000
0000
0000
,
0010
0000
0000
0000
,
1000
0000
0000
0000
,
0001
0000
0001
0000
,
0001
0000
0000
0000
;
