#TITLE:Eating Candies;
#SUBTITLE:;
#ARTIST:Vospi;
#TITLETRANSLIT:;
#SUBTITLETRANSLIT:;
#ARTISTTRANSLIT:;
#CREDIT:vospi.bemafia.ru;
#BANNER:eating.png;
#BACKGROUND:eating-bg-advert.png;
#LYRICSPATH:;
#CDTITLE:vospi.png;
#MUSIC:eating candies.mp3;
#OFFSET:-0.075;
#SAMPLESTART:49.967;
#SAMPLELENGTH:13.980;
#SELECTABLE:YES;
#BPMS:0.000=180.000;
#STOPS:;
#BGCHANGES:;
// cache tags:
#FIRSTBEAT:0.000;
#LASTBEAT:383.000;
#SONGFILENAME:Songs/StepMix 1.0/Eating Candies/eating candies.sm;
#HASMUSIC:1;
#HASBANNER:1;
#MUSICLENGTH:144.065;
// end cache tags

//---------------dance-single - ----------------
#NOTES:
     dance-single:
     :
     Hard:
     9:
     0.578,0.665,0.153,0.368,0.153,508.000,22.000,53.000,0.000,0.000:
0010
0010
0000
0000
,
0000
0000
0000
0000
0000
0001
0010
0001
,
0100
0100
0000
0000
,
0000
0000
0000
0000
0000
0001
1000
0001
,
0010
0100
0000
0000
,
0000
0000
0000
0000
0000
1000
0100
1000
,
0010
0000
0000
0000
,
0020
0001
1000
0031
,
1000
0100
1000
0000
0010
0002
0013
0000
,
1000
0010
1000
0000
0001
0020
0031
0000
,
0010
0100
0010
0000
1000
0020
1030
0000
,
0100
1000
0100
0000
0010
2000
3010
0000
,
0001
0010
0100
0000
1000
0020
0130
0000
,
0001
0100
0010
0000
1000
0200
0310
0000
,
0001
1000
0010
0000
0100
0002
0013
0000
,
0100
1000
0010
0000
0200
0000
0301
0000
,
0010
0001
0000
0000
0000
0000
0100
0000
,
0020
0200
0330
0001
0010
0100
1000
0010
,
1000
0100
0010
0001
0000
0000
0000
0000
,
0202
0000
0000
0000
0303
0000
0010
0000
0000
0100
0000
0000
0000
1000
0000
0000
,
0001
0010
0000
0100
1000
1000
0010
0000
,
0000
0202
0000
0000
0303
0000
0000
0000
,
1000
0000
0100
0010
0000
0000
0000
0000
,
0110
0000
0000
0000
0000
0000
0000
0001
0000
0010
0000
0000
0100
0000
0000
0000
,
1000
0011
0000
0000
0000
0010
1000
0000
,
0002
0020
0033
0010
0001
0010
0100
1000
,
0010
1000
0100
0010
0000
0000
0000
0000
,
0110
0000
0000
0000
0000
0000
0000
0001
0000
0010
0000
0000
0100
0000
0000
0000
,
0001
0001
0010
0100
0100
1000
0010
0000
,
0000
0202
0000
0000
0000
0000
0303
0000
,
1000
0100
0010
0001
0000
0000
0000
0000
,
0022
0000
0000
0000
0033
0000
0100
1000
0200
0000
0000
0000
0000
0000
0000
0300
,
1000
0010
0100
0001
0000
0000
0010
0000
,
0000
0000
0001
0000
0100
0000
0000
0000
0010
0000
0100
0001
0100
0000
1000
0000
,
0100
0001
0010
0100
0000
0100
0000
0000
,
0202
0000
0303
0000
1000
0100
0001
0100
,
0001
0100
0010
1000
0010
0100
0002
0000
,
0000
0203
0000
0300
0000
1010
0000
0000
,
0000
0000
0000
0000
0000
0000
0100
0000
0000
0010
0000
0000
0001
0000
0000
0000
,
2000
0000
0000
0000
3000
0000
0001
0100
0002
0000
0000
0000
0000
0000
0003
0000
,
0010
0100
1000
0010
0100
0010
0100
0001
,
0011
0000
0000
0101
0000
0000
1000
0000
0010
0000
0100
0000
0001
0000
0100
0000
,
0010
1000
0100
0010
0001
0000
0000
0000
,
0202
0303
0000
0000
,
0001
0100
0010
1000
0100
0010
2002
0000
,
3003
0202
0000
0303
0000
0010
0000
0000
,
0000
0000
0000
0000
0000
0000
0100
0000
0000
0001
0000
0000
0010
0000
0000
0000
,
0200
0000
2000
0300
0020
3000
0002
0033
,
0010
0000
1000
0000
1000
0200
0301
0000
,
1000
0000
0010
0000
1000
0200
0301
0000
,
1000
0000
0010
0000
0001
0020
1030
0000
,
1000
0000
0010
0000
0001
0020
1030
1000
,
0020
0000
0130
0000
1000
0100
0010
0000
,
0200
0000
0310
0000
0100
0010
0001
0000
,
0001
0010
0100
1000
0000
0000
0000
0000
,
0001
0000
0010
0000
0000
0000
0200
0000
0300
0000
0000
0000
0001
1000
0100
1000
,
0001
0100
0010
1000
0100
0000
0001
0010
,
0100
1000
0010
0000
1000
0010
0100
0001
,
0020
0000
0000
0000
0000
0030
0001
0010
,
0100
0000
0000
1000
0000
0000
0010
0000
0101
0000
0010
0000
0100
0000
0001
0000
,
1000
0000
0010
0000
0100
0001
0010
0000
,
0200
0000
1300
0000
0100
0000
1000
0010
,
0200
0000
0000
0000
0000
0000
0000
0300
,
0101
0000
0000
0000
1100
0000
0000
0000
0001
0010
0001
0010
0001
0010
0001
0010
,
0001
0000
1000
0000
0100
0000
0000
0100
0010
0000
0001
0000
0100
0000
0000
0000
,
1000
0000
1000
0000
0010
0000
0000
0010
0100
0000
0001
0000
0010
0000
0000
0000
,
0010
0000
0010
0000
0100
0000
0000
0100
1000
0000
0010
0000
0100
0000
0000
0000
,
0100
0000
0100
0000
0001
0000
0000
0001
1000
0000
0010
0000
0100
0000
0001
0000
,
0010
0000
0010
0000
0100
0000
0000
0100
1000
0000
0001
0000
0100
0000
0000
0000
,
0100
0000
0100
0000
0010
0000
0000
0010
1000
0000
0001
0000
0100
0000
0000
0000
,
0100
0000
0100
0000
0001
0000
0000
0001
0010
0000
0100
0000
1000
0000
0000
0000
,
1000
0011
0101
0011
,
0100
0000
0100
0000
0010
0000
0000
0010
1000
0000
0100
0000
0010
0000
0001
0000
,
0010
0000
0010
0000
0001
0000
0000
0001
0010
0000
0100
0000
1000
0000
0010
0000
,
0100
0000
0100
0000
0010
0000
0000
0010
1000
0000
0100
0000
0010
0000
0001
0000
,
0100
0100
0101
0000
0100
0010
1000
0100
,
0001
0000
0001
0000
0100
0000
0000
0100
1000
0000
0010
0000
0100
0000
0001
0000
,
0010
0000
0010
0000
1000
0000
0000
1000
0010
0000
0001
0000
0100
0000
0010
0000
,
1000
0000
1000
0000
0010
0000
0000
0010
0100
0000
0001
0000
0010
0000
1000
0000
,
0010
0000
0002
0000
0013
0000
0100
0010
0100
0000
1000
0000
0010
0000
0100
0000
,
0001
0000
0100
0000
0010
0000
0000
0010
1000
0000
0200
0000
1300
0000
0000
0000
,
0100
0000
1000
0000
0010
0000
0000
0010
0100
0000
0002
0000
0103
0000
0000
0000
,
0001
0000
0010
0000
0100
0000
0000
0100
1000
0000
0020
0000
0130
0000
0000
0000
,
0010
0000
1000
0000
0100
0000
0000
0100
0010
0000
0002
0000
0013
0000
0010
0000
,
0100
0000
1000
0000
0010
0000
0000
0100
0001
0000
0010
0000
0100
0000
0000
0000
,
0100
0000
1000
0000
0010
0000
0000
0100
0001
0000
0010
0000
0100
0000
0000
0000
,
0100
0000
1000
0000
0010
0000
0000
0100
0001
0000
0010
0000
0100
0000
0000
0000
,
1000
0000
0010
0000
0100
0000
0001
0000
1000
0001
1000
0001
1000
0001
1000
0001
,
1000
0000
0010
0000
0000
1000
0001
0000
,
0100
0000
0010
0000
0000
1000
0010
0000
,
0100
0000
0001
0000
0000
0010
0100
0000
,
1000
0000
0010
0000
0000
0100
0010
0000
,
1000
0000
0010
0000
0000
1000
0001
0000
,
0100
0000
0010
0000
0000
1000
0010
0000
,
0100
0000
0001
0000
0000
0010
0100
0000
,
1000
0010
0100
0110
;

//---------------dance-single - ----------------
#NOTES:
     dance-single:
     :
     Medium:
     6:
     0.400,0.498,0.264,0.111,0.014,349.000,38.000,16.000,0.000,0.000:
1000
0001
0000
0100
,
0010
1000
0000
1000
,
0010
0100
0000
0100
,
0001
0010
0000
0010
,
0100
1000
0000
1000
,
0001
0010
0000
0010
,
0001
0100
0000
0100
,
0002
0000
0000
0003
,
0010
0110
1000
0010
,
0100
0101
0010
0001
,
0010
0110
1000
0010
,
0100
0000
0101
0000
0010
0000
0001
0010
,
0100
1100
0010
0100
,
0001
0110
0010
0100
,
1000
0110
0010
0100
,
0001
0000
0110
0000
0010
1000
0100
0000
,
1001
0000
0000
0000
,
0000
0000
0000
0010
,
1000
0001
0000
0000
,
0000
0000
0000
0010
,
0001
1000
0000
0000
,
0000
0000
0000
0010
,
1000
0001
0000
0000
,
0000
1000
1000
1000
,
0020
0130
0001
0010
,
0200
0310
0001
0100
,
0020
0130
0001
0010
,
0200
0000
0310
0000
0001
0000
0100
0001
,
0200
0310
1000
0100
,
0020
0130
1000
0010
,
0200
0310
1000
0100
,
0020
0130
1000
0010
,
0100
1010
0100
1000
,
0100
0011
0100
1000
,
0010
0101
0010
0100
,
1000
0000
0110
0000
0001
0000
0010
0001
,
1000
0101
0010
0100
,
0001
0011
1000
0010
,
0100
0101
0010
0100
,
1000
1100
0010
0100
,
0001
0100
0010
0100
,
0001
0010
0100
0010
,
0001
0000
0100
0010
1000
0000
0000
0000
,
0200
0000
0000
0300
,
1000
0100
0010
0100
,
1000
0010
0100
0010
,
1000
0100
0010
0100
,
2000
3200
0320
0031
,
0100
0000
0101
0000
0010
0001
0010
0000
,
0100
0000
1100
0000
0100
1000
0100
0000
,
0010
0000
0000
0000
0000
0010
0001
0000
,
1000
0000
0001
0000
0100
0001
0100
0000
,
1000
0010
0100
0001
,
0010
0000
0000
0100
0000
0000
1000
0000
0010
0000
0000
0100
0000
0000
0001
0000
,
0010
0100
0010
0100
0000
0000
0000
0000
,
0001
0010
0000
1100
0000
0000
0010
0100
,
0001
1000
0001
1000
0010
0000
0001
0100
,
0001
0100
0010
0000
0100
0001
0010
0100
,
2000
0000
0000
0000
0000
3000
0000
0001
,
0010
0000
0000
0100
0000
0000
1000
0000
0010
0000
0100
0000
0010
0000
0100
0000
,
0000
0100
0010
0001
0010
0000
0000
0000
,
0110
0000
0000
0000
0000
0000
0010
0001
,
0100
0000
0000
0000
,
1001
0000
1001
0000
0001
1000
0000
0000
,
1000
0000
0010
0000
0100
0001
0100
0000
,
0100
0000
0010
0000
1000
0100
1000
0000
,
1000
0000
0010
0000
0100
0001
0100
0000
,
0100
0000
0010
0000
1000
0100
1000
0100
,
1000
0000
0010
0000
0100
0010
0100
0000
,
0001
0000
0010
0000
0100
0010
0100
0000
,
1000
0000
0010
0000
0100
0010
0100
0000
,
0000
0101
1100
0101
,
1100
0000
0000
1000
0000
0000
0101
0000
,
0000
0000
0000
0000
0001
0010
0001
0000
,
1000
0000
0000
0100
,
0011
0000
0000
0000
,
0011
0000
0000
1010
0000
0000
1100
0000
,
0000
0000
0000
0000
0001
1000
0001
0000
,
0101
0000
0000
0000
0000
0000
0001
0010
,
0000
0000
0000
1000
0010
1000
0100
1000
,
0010
0000
0000
0100
0000
0000
0101
0000
,
0000
0000
0000
0000
0001
0010
0001
0000
,
0100
0000
0000
1000
,
0010
0000
0000
0000
,
0100
0000
0000
0001
0000
0000
0011
0000
,
0000
0000
0000
0000
0001
1000
0001
0000
,
1001
0000
0000
0000
0000
0000
0010
1000
,
0000
0000
0000
0000
,
0000
1000
0010
1000
0010
1000
0000
0100
,
0001
0100
0001
0100
0000
0001
0000
0010
,
0200
0000
0000
0000
0000
0300
0000
0001
,
0010
0000
0000
0100
0000
0000
1000
0000
0010
0000
0100
0000
0010
0000
0100
0000
,
0000
1000
0010
0100
0010
0000
0000
0000
,
0001
0000
0000
0000
0000
0000
1000
0100
,
0002
0000
0000
0003
,
0110
0000
1001
0000
0010
0100
0000
0000
;

//---------------dance-single - ----------------
#NOTES:
     dance-single:
     :
     Easy:
     1:
     0.086,0.132,0.014,0.000,0.000,85.000,2.000,0.000,0.000,0.000:
0000
0000
0000
0000
,
0000
0000
0000
0000
,
0000
0000
0000
0000
,
0000
0000
0000
0000
,
0100
0000
0000
0000
,
0000
0000
0000
0000
,
0001
0000
0000
0000
,
0000
0000
0000
0000
,
0010
0000
0000
0000
,
1000
0000
0000
0000
,
0100
0000
0000
0000
,
0001
0000
0000
0000
,
0001
0000
0000
0000
,
1000
0000
0000
0000
,
0010
0000
0000
0000
,
1000
0000
0000
0000
,
0100
0000
0000
0000
,
0000
0000
0000
0000
,
0100
0000
0000
0000
,
0000
0000
0000
0000
,
0100
0000
0000
0000
,
0000
0000
0000
0000
,
0100
0000
0000
0000
,
0000
0000
0000
0000
,
0001
0000
0000
0000
,
1000
0000
0000
0000
,
0010
0000
0000
0000
,
1000
0000
0000
0000
,
0100
0000
0000
0000
,
1000
0000
0000
0000
,
0010
0000
0000
0000
,
0100
0000
0000
0000
,
0001
0000
0000
0000
,
0100
0000
0000
0000
,
0001
0000
0000
0000
,
1000
0000
0000
0000
,
0010
0000
0000
0000
,
1000
0000
0000
0000
,
0100
0000
0000
0000
,
1000
0000
0000
0000
,
0010
0000
0000
0000
,
0100
0000
0000
0000
,
0001
0000
0000
0000
,
1000
0000
0000
0000
,
0001
0000
0000
0000
,
0100
0000
0000
0000
,
0001
0000
0000
0000
,
0010
0000
0000
0000
,
1000
0000
0000
0000
,
0010
0000
0000
0000
,
1000
0000
0000
0000
,
0100
0000
0000
0000
,
0100
0000
0000
0000
,
0010
0000
0000
0000
,
0010
0000
0000
0000
,
0001
0000
0000
0000
,
0001
0000
0000
0000
,
0010
0000
0010
0000
,
0010
0000
0000
0000
,
1000
0000
0000
0000
,
0001
0000
0000
0000
,
0010
0000
0000
0000
,
1000
0000
0000
0000
,
0100
0000
0000
0000
,
0010
0000
0000
0000
,
0100
0000
0000
0000
,
0010
0000
0000
0000
,
0100
0000
0000
0000
,
0010
0000
0000
0000
,
0100
0000
0000
0000
,
0001
0000
0000
0000
,
0010
0000
0000
0000
,
1000
0000
0000
0000
,
0100
0000
0000
0000
,
0010
0000
0000
0000
,
0001
0000
0000
0000
,
1000
0000
0000
0000
,
0010
0000
0000
0000
,
0001
0000
0000
0000
,
0100
0000
0000
0000
,
1000
0000
0000
0000
,
0010
0000
0000
0000
,
0100
0000
0000
0000
,
0001
0000
0000
0000
,
0010
0000
0000
0000
,
0100
0000
0000
0000
,
1000
0000
0000
0000
,
0001
0000
0000
0000
,
0110
0000
0000
0000
,
0000
0000
0000
0000
,
1001
0000
0000
0000
,
0000
0000
0000
0000
,
0001
0000
0000
0000
,
1000
0000
0000
0000
,
0010
0000
0000
0000
,
0100
0000
0000
0000
;
