#TITLE:ALTERNATION;
#SUBTITLE:;
#ARTIST:Arsenial;
#TITLETRANSLIT:;
#SUBTITLETRANSLIT:;
#ARTISTTRANSLIT:;
#CREDIT:;
#BANNER:Banner.png;
#BACKGROUND:Background.PNG;
#LYRICSPATH:;
#CDTITLE:;
#MUSIC:ALTERNATiON.ogg;
#OFFSET:0.000;
#SAMPLESTART:30.000;
#SAMPLELENGTH:12.000;
#SELECTABLE:YES;
#BPMS:0.000=200.000,64.000=150.000,64.500=120.000,65.000=100.000,66.000=120.000,67.000=150.000,67.500=161.200,67.750=171.220,68.000=185.000,181.500=160.000;
#STOPS:;
#BGCHANGES:;
// cache tags:
#FIRSTBEAT:8.000;
#LASTBEAT:247.000;
#SONGFILENAME:Songs/StepMix 2/Alternation/alternation.sm;
#HASMUSIC:1;
#HASBANNER:1;
#MUSICLENGTH:92.682;
// end cache tags

//---------------dance-single - ----------------
#NOTES:
     dance-single:
     :
     Hard:
     11:
     1.000,1.000,1.000,0.194,0.631,484.000,157.000,18.000,0.000,13.000:
0000
0000
0000
0000
,
0000
0000
0000
0000
,
1010
0101
1010
0101
1010
0101
0000
1100
,
0110
0011
0110
1001
0000
0000
0000
0000
,
0011
1100
0011
1100
0011
1100
0000
0011
,
1001
0110
1100
0101
0000
0000
0000
0000
,
0110
1001
0110
1001
0110
1001
0000
0110
,
0101
0000
0110
0000
1100
0000
1001
0000
1000
0100
1000
0000
0001
0100
0001
0100
,
0001
0010
0001
0010
0001
1000
0100
1000
0100
0010
0100
1000
0001
0100
0010
1000
,
0001
1000
0001
0010
0001
0100
0010
0100
0010
0001
1000
0001
1000
0010
0100
0010
,
1000
0001
1000
0100
0010
0001
0010
0100
1000
0100
1000
0100
0010
0001
0100
0001
,
0010
0100
1000
0100
0010
0001
1000
0000
1000
0100
1000
0000
0001
0100
0001
0000
,
0101
1010
1001
0110
,
0011
1010
0110
1001
,
1100
0110
1001
0110
,
0010
0001
0010
0001
0010
0001
0010
0001
1000
0001
1000
0001
1000
0001
1000
0000
,
1001
0000
0000
0000
,
0000
0000
0000
1001
0000
1010
0000
0101
,
0000
0110
0000
1001
0000
1010
0000
0101
,
0000
0110
0000
1100
0000
1001
0000
0011
,
0000
0110
0000
0101
0000
1100
0000
0110
,
0000
1001
0000
1010
0000
0101
0000
0110
,
0000
1100
0000
0101
0000
0110
0000
1001
,
0000
1100
0000
0101
0000
0110
0000
0101
,
0000
1100
0000
0110
0000
0101
0000
1010
,
0000
1001
0000
1000
0100
1100
0000
0001
,
0100
0000
0101
0000
0000
0000
0010
0000
0100
0000
0110
0000
0010
0100
0010
0000
,
0100
0110
0000
1000
0100
0101
0000
0001
,
0100
0000
1100
0000
0000
0000
0001
0000
1000
0000
1001
0000
1000
0001
1000
0000
,
0001
1001
0000
0001
0010
0110
0000
1000
,
0100
0000
0110
0000
0000
0000
0001
0000
0010
0000
0110
0000
1000
0100
1000
0000
,
0100
0110
0000
0100
1000
0101
0000
0001
,
0100
0000
1010
0000
0000
0000
0100
0000
1000
0000
1001
0000
0010
0100
0010
0000
,
0100
0101
0000
2001
0000
0100
0000
0100
,
0000
0100
0000
3120
1000
1000
0132
0100
,
0100
0003
2010
0000
0000
0000
3201
0000
0000
0000
0010
0000
0000
0000
0010
0000
,
0000
0010
0000
1320
1000
1000
2130
0100
,
0100
3201
0000
2301
0000
0010
0000
0010
,
0000
0010
0000
3012
0010
0010
0123
0100
,
0100
1032
0000
0213
0000
1000
0000
1000
,
0000
1000
0000
2301
0001
0001
3201
0010
,
0310
0000
1002
0000
0000
0003
1010
0000
0000
0000
1001
0000
0000
0000
0110
0000
,
0000
1100
0000
0101
0000
0110
0000
1100
,
0000
1001
0000
0110
0000
1100
0000
0101
,
0000
0000
0110
0000
0000
0000
1000
0100
1000
0100
0010
0001
0010
0001
0010
0100
,
1000
0100
0010
0001
0010
0000
1001
0000
1010
0000
0100
0000
0101
0000
0010
0000
,
1010
0100
0101
1000
0110
0001
1010
0100
,
1001
0110
1100
0010
0101
1000
1010
0100
,
0110
1000
1001
0010
1100
0001
0110
0010
,
0101
0110
1010
1000
0101
0100
0110
0001
,
1100
1000
0011
0100
0110
0010
1001
0001
,
0110
1100
1001
0010
1010
0100
0101
1000
,
0110
0000
0001
0000
1001
0000
0010
0000
1100
0000
0100
0000
0110
0000
0001
1000
,
0001
1000
0001
1000
0001
1000
0001
0100
0010
1000
0001
0010
0100
1000
0100
0010
,
0001
0100
0010
0100
0001
0010
0100
1000
0100
0010
0100
1000
0010
0100
0001
0010
,
0100
0010
0001
0010
0100
1000
0001
0100
0010
1000
0100
0010
0001
1000
0010
0100
,
0010
1000
0100
0010
0001
0010
0100
0010
0001
0100
0010
1000
0100
0010
0001
0010
,
0001
0100
0010
1000
0100
0010
0001
0100
0010
1000
0100
0010
0001
1000
0010
0100
,
0001
1000
0100
0010
0001
0010
0100
0010
0001
0100
0010
1000
0100
0010
0001
0010
,
0100
1000
0010
0100
0010
1000
0100
0010
0001
0010
0100
1000
0010
0100
0010
1000
,
0100
0010
0001
0010
0100
1000
0100
0010
0100
0010
0100
0010
0100
0001
1000
0001
,
1000
0001
1000
0001
1000
0000
2002
0000
0000
0000
0000
0000
3003
0000
0000
0000
;

//---------------dance-single - ----------------
#NOTES:
     dance-single:
     :
     Medium:
     9:
     0.504,0.698,0.183,0.140,0.124,297.000,17.000,13.000,0.000,0.000:
0000
0000
0000
0000
,
0000
0000
0000
0000
,
0000
0000
0000
0000
,
0000
0000
0000
0000
,
0000
0000
0000
0000
,
0000
0000
0000
0000
,
1000
0100
0010
0001
1000
0100
0000
0001
,
0010
0100
1000
0001
0000
0000
0000
0000
,
1000
0001
0010
0001
0100
0010
0000
0100
,
0000
0001
0000
0010
0100
0010
0000
0000
,
1000
0010
0100
0010
1000
0100
0000
0001
,
0000
0010
0000
1000
0100
0010
0000
0000
,
1000
0010
0100
0001
1000
0100
0000
0001
,
0000
0010
0000
0100
1000
0100
0000
0000
,
1000
0010
0100
0001
1000
0010
0000
0100
,
0000
0100
0000
1000
0100
1000
0000
0000
,
1001
0000
0000
0000
,
0000
0000
0000
1000
0000
1000
0000
1000
,
0000
1000
0000
1000
0000
1000
0000
0100
,
0000
0100
0000
0010
0000
0010
0000
0010
,
0000
0010
0000
0010
0000
0010
0000
0001
,
0000
0001
0000
0100
0000
0100
0000
0100
,
0000
0100
0000
0100
0000
0100
0000
0010
,
0000
0010
0000
1000
0000
1000
0000
1000
,
0000
1000
0000
1000
0000
1000
0000
0010
,
0000
0010
0000
1000
0100
0020
0000
0031
,
0010
0000
0200
0000
0000
0000
1300
0000
0001
0000
0010
0000
0100
0010
0100
0000
,
1000
0100
0000
0001
0100
2000
0000
3100
,
0010
0000
0002
0000
0000
0000
0103
0000
0010
0000
0100
0000
0010
1000
0010
0000
,
0100
0010
0000
1000
0010
0002
0000
0013
,
1000
0000
0002
0000
0000
0000
0103
0000
1000
0000
0001
0000
0010
0100
1000
0000
,
0100
0010
0000
1000
0010
0200
0000
1300
,
0001
0000
0020
0000
0000
0000
0130
0000
1000
0000
0010
0000
0100
0010
0001
0000
,
0010
0100
0000
2000
0000
0000
0000
0000
,
0000
0000
0000
0001
0000
0000
0010
0000
,
0000
0100
0000
3020
0000
0000
0000
0000
,
0000
0000
0000
1000
0000
0000
0100
0000
,
0000
0001
0000
0230
0000
0000
0000
0000
,
0000
0000
0000
0001
0000
0000
0010
0000
,
0000
1000
0000
0320
0000
0000
0000
0000
,
0000
0000
0000
0001
0000
0000
1000
0000
,
0000
0130
0000
1010
0000
1010
0000
1010
,
0000
1010
0000
1010
0000
1010
0000
0101
,
0000
0101
0000
0110
0000
0110
0000
0110
,
0000
0110
0000
0110
0000
0110
0000
1001
,
0000
1001
0000
1000
0100
0000
0100
0000
,
0100
0100
0100
0100
,
0100
0010
0100
0000
0001
0000
0001
0000
,
0001
0001
0001
0001
,
0001
0010
0001
0000
0100
0000
0100
0000
,
0100
0100
0100
0100
,
0100
1000
0001
0000
0010
0000
1000
0000
,
0001
1000
0010
0100
,
0001
0000
0100
0000
1000
0000
0100
0000
0010
0000
0001
0010
0001
0000
0010
0000
,
0100
0000
1000
0100
1000
0000
0010
0000
0100
0000
0001
0100
0010
0000
0100
0000
,
1000
0000
0001
0100
0001
0000
0010
0000
0100
0000
1000
0100
1000
0000
0010
0000
,
0100
0000
1000
0010
1000
0000
0001
0000
0100
0000
0001
1000
0001
0000
1000
0000
,
0010
0000
0100
0010
0100
0000
0001
0000
1000
0000
0001
1000
0001
0000
0100
0000
,
0010
0000
0100
0001
0100
0000
0010
0000
0100
0000
0001
0010
0001
0000
1000
0000
,
0010
0000
0100
0010
0100
0000
0010
0000
0100
0000
0001
0100
0001
0000
0010
0000
,
0100
0000
1000
0100
1000
0000
1000
0001
1000
0000
1000
0010
1000
0000
1000
0100
,
1000
0000
1000
0001
1000
0001
2000
0000
0000
0000
3000
0000
0000
0000
0000
0000
;

//---------------dance-single - ----------------
#NOTES:
     dance-single:
     :
     Easy:
     7:
     0.427,0.563,0.302,0.000,0.000,249.000,28.000,0.000,0.000,0.000:
0000
0000
0000
0000
,
0000
0000
0000
0000
,
0000
0000
0000
0000
,
0000
0000
0000
0000
,
0000
0000
0000
0000
,
0000
0000
0000
0000
,
1000
0100
0010
0100
,
0001
0000
0010
0001
0000
0000
0000
0000
,
1000
0010
0100
0001
,
0010
0000
0100
0000
0010
0100
0010
0000
,
1000
0010
0100
1000
,
0010
0000
0100
0000
0001
0100
0001
0000
,
1000
0100
0010
0100
,
0001
1000
0010
0100
,
1000
0001
0100
1000
,
1000
0100
1000
0100
0010
0001
0010
0001
,
1000
0000
0000
0000
,
0000
0000
0000
1000
0000
0100
0000
1000
,
0000
0100
0000
1000
0000
0100
0000
1000
,
0000
1000
0000
0001
0000
0100
0000
0001
,
0000
0100
0000
0001
0000
0100
0000
0001
,
0000
0001
0000
0010
0000
1000
0000
0010
,
0000
1000
0000
0010
0000
1000
0000
0100
,
0000
0100
0000
0001
0000
0010
0000
0001
,
0000
0010
0000
0001
0000
0010
0000
0001
,
0000
0001
0000
1000
0000
1010
0000
0001
,
0000
0101
0000
0100
0000
0110
0000
0100
,
0010
0100
0000
0010
0000
1010
0000
0001
,
0000
0101
0000
0100
0000
0110
0000
1000
,
0100
0010
0000
0100
0000
1010
0000
0010
,
0000
0101
0000
1000
0000
1010
0000
0100
,
0010
0100
0000
0010
0000
0011
0000
0100
,
0000
1010
0000
0100
0000
0101
0000
0010
,
0100
0001
0000
0100
0000
0000
0000
0000
,
0000
0000
0000
0001
0000
0000
0010
0000
,
0000
0100
0000
1000
0000
0000
0000
0000
,
0000
0000
0000
0010
0000
0000
0001
0000
,
0000
0010
0000
1000
0000
0000
0000
0000
,
0000
0000
0000
0100
0000
0000
0010
0000
,
0000
1000
0000
0001
0000
0000
0000
0000
,
0000
0000
0000
1000
0000
0000
0010
0000
,
0000
0100
0000
0001
0000
1000
0000
0010
,
0000
0100
0000
0001
0000
0010
0000
0100
,
0000
0001
0000
0100
0000
0010
0000
1000
,
0000
0010
0000
0100
0010
0100
0010
0100
,
0010
0100
0010
0100
0000
1010
0000
0100
,
0000
1010
0000
0100
0000
1010
0000
0100
,
0000
1010
0000
0010
0000
0101
0000
0010
,
0000
0101
0000
0010
0000
0101
0000
0010
,
0000
0101
0000
1000
0000
1001
0000
0010
,
0000
1001
0000
0001
0000
1001
0000
0100
,
0000
1001
0000
0010
0000
1010
0000
0010
,
0000
0011
0000
0100
0000
1100
0000
0010
,
1000
0100
0010
0100
1000
0100
0010
0001
,
0100
0010
1000
0100
0010
0100
0010
0001
,
0010
0001
1000
0001
1000
0001
0100
0001
,
0100
0010
1000
0010
1000
0100
0010
0100
,
0001
1000
0010
0100
0001
1000
0010
0100
,
0001
0010
0001
0100
0010
0100
0001
0010
,
0100
1000
0001
0100
0010
0100
0001
0100
,
1000
0100
0010
1000
0010
0001
0010
0100
,
0001
1000
0100
0110
0000
0000
0000
0000
;
