#TITLE:Neon Genesis Evangelion;
#SUBTITLE:- Decisive Battle [Extended];
#ARTIST:Shiroh Sagisu;
#TITLETRANSLIT:;
#SUBTITLETRANSLIT:;
#ARTISTTRANSLIT:;
#CREDIT:Anime Toshokan;
#BANNER:Neon Genesis Evangelion - Decisive Battle [Extended].png;
#BACKGROUND:Neon Genesis Evangelion - Decisive Battle [Extended] bg.png;
#LYRICSPATH:;
#CDTITLE:dejiko.png;
#MUSIC:Neon Genesis Evangelion - Decisive Battle [Extended].mp3;
#OFFSET:0.002;
#SAMPLESTART:38.370;
#SAMPLELENGTH:12.800;
#SELECTABLE:YES;
#DISPLAYBPM:150.000;
#BPMS:0.000=150.130,32.000=149.530,60.000=150.120,108.000=150.550,136.000=149.640,168.000=150.410,196.000=150.050,236.000=149.580,256.000=150.540,284.000=149.780;
#STOPS:;
#BGCHANGES:;
// cache tags:
#FIRSTBEAT:6.000;
#LASTBEAT:344.000;
#SONGFILENAME:Songs/DDR Anime 2nd Mix/Neon Genesis Evangelion - Decisive Battle [Extended]/Neon Genesis Evangelion - Decisive Battle [Extended].sm;
#HASMUSIC:1;
#HASBANNER:1;
#MUSICLENGTH:140.214;
// end cache tags

//---------------dance-single - BASIC----------------
#NOTES:
     dance-single:
     BASIC:
     Easy:
     5:
     0.335,0.429,0.342,0.064,0.011,272.000,48.000,9.000,0.000,0.000:
0000
0000
0000
0000
,
0000
0000
1000
0001
,
1000
0000
0000
0100
0000
0000
0010
0000
,
0000
0001
0000
0000
1001
0000
1001
0000
,
0010
0000
0000
1000
0000
0000
0001
0000
,
0000
1000
0000
0000
1001
0000
1001
0000
,
0001
0000
0000
0010
0000
0000
0100
0000
,
0000
0010
0000
0000
0110
0000
0110
0000
,
0100
0000
0000
0001
0000
0000
1000
0000
,
0000
0001
0000
0000
1001
0000
1001
0000
,
1000
0000
0000
0100
0000
0000
0010
0000
,
0000
0010
0000
1000
0001
1000
0001
1000
,
0001
0000
0000
0100
0000
0000
0010
0000
,
0000
1000
0000
0000
1000
0100
0010
0001
,
0001
0000
0000
0010
0000
0000
0100
0000
,
0000
1000
0000
0000
0110
0000
0110
0000
,
0000
0000
0100
0000
0100
0000
0100
0001
,
1000
0000
1000
0100
0000
0010
0000
0100
,
0000
0000
0000
1000
0000
0001
0000
1000
,
1000
0000
1000
0100
0000
0100
0000
0020
,
0000
0000
0000
0000
,
0030
0000
0001
0100
,
1000
0000
0000
0100
0000
0000
1000
0000
,
0000
0001
0000
0000
0001
0000
1000
0000
,
0100
0000
0000
0100
0000
0000
0100
0000
,
0000
0100
0000
0000
1001
0000
1001
0000
,
1000
0000
0000
0100
0000
0000
0001
0000
,
0010
0000
0000
0000
1000
0100
1000
0200
,
0000
0000
0000
0300
,
0000
0000
1000
0010
,
0100
0000
0000
0100
0000
0000
0100
0000
,
0000
0100
0000
0000
1000
0100
0001
0010
,
1000
0000
0000
0100
0000
0000
0001
0000
,
0000
0010
0000
0000
1000
0000
1001
0000
,
0001
0000
0000
0010
0000
0000
1000
0000
,
0000
0100
0000
0000
0010
0000
0001
0000
,
0010
0000
0000
1000
0000
0000
0100
0000
,
0000
0010
0000
0000
0001
0000
0010
0000
,
0010
0010
0100
0100
,
1000
0000
0001
0000
1000
0100
0010
0001
,
0000
0000
0100
0000
0010
0000
1000
0001
,
1000
0000
1000
0001
,
0100
0000
0000
0010
0000
1001
0000
0010
,
0010
0100
1000
0001
,
0200
0000
0000
0000
,
0302
0000
0000
0000
,
2003
0000
0000
0000
,
3000
0000
1001
0101
,
0100
0000
0000
0010
0000
0000
0100
0000
,
0000
0010
0000
0000
1001
0100
0010
0000
,
1000
0000
0000
0001
0000
0000
0100
0000
,
0000
0010
0000
0100
0010
1000
0001
0100
,
0010
0000
0000
0010
0000
0000
0100
0000
,
0000
1000
0000
0000
0110
0000
0110
0000
,
0100
0000
0000
1001
0000
0000
1100
0000
,
0000
1000
0000
0000
1100
0000
0101
0000
,
0100
0000
0000
0001
0000
0000
1000
0000
,
0010
0000
0101
0110
,
1100
0000
0000
0011
0000
0000
0110
0000
,
0000
1001
0000
1000
0100
0010
0001
0100
,
1000
0000
1000
0000
1000
0000
0100
0010
,
0001
0000
0100
1000
0000
0010
0000
0001
,
0000
0000
0000
1001
0000
0110
0000
0100
,
0010
0000
0001
1000
0000
0001
0000
0200
,
0000
0000
0000
0300
,
0000
0000
1001
1001
,
0000
0000
0000
0100
0000
0100
0000
0010
,
0000
0000
0000
0000
0001
0000
0000
0000
0000
0000
0010
0000
0000
0000
0000
0000
0010
0000
0000
0000
0000
0100
0000
0000
0000
0000
1000
0000
0000
0000
0000
0000
,
1000
0000
0000
0100
0000
0000
0010
0000
,
0000
0001
0000
0000
0110
0000
1100
0000
,
0001
0000
0000
0010
0000
0000
0100
0000
,
0000
1000
0000
0000
0110
0000
0011
0000
,
0100
0000
0000
0001
0000
0000
1000
0000
,
0000
0010
0000
0000
1001
0000
0101
0000
,
0001
0000
0000
0100
0000
0000
0010
0000
,
0000
0001
0000
0000
0110
0000
1010
0000
,
0010
0000
0010
0000
0010
0000
1000
0001
,
0001
0000
0100
1000
0000
0010
0000
0001
,
0000
0000
0000
1001
0000
0110
0000
0100
,
0010
0000
0001
1000
0000
0001
0000
0200
,
0000
0000
0000
0300
,
0000
0000
1001
1001
,
0000
1000
0100
0000
0010
0001
0000
0010
,
0100
0000
1000
1000
1001
0000
0110
0000
,
0220
0000
0000
0000
,
0000
0000
0000
0000
,
0330
0000
0000
0000
;

//---------------dance-single - ANOTHER----------------
#NOTES:
     dance-single:
     ANOTHER:
     Medium:
     7:
     0.488,0.583,0.620,0.036,0.164,387.000,87.000,5.000,0.000,0.000:
0000
0000
0000
0000
,
0000
0000
0000
0000
,
0000
0000
0000
0000
,
0000
0000
1000
0001
,
0000
1000
0100
0000
0100
0010
0000
0010
,
0001
0000
1000
1000
0100
0000
0100
0000
,
0000
0001
0010
0000
0010
0100
0000
0100
,
1000
0000
0001
0001
0010
0000
0010
0000
,
1001
0000
0000
0110
0000
0000
1100
0000
,
0000
0000
0011
0000
0000
0000
0000
0000
1000
0000
0100
0010
0001
0000
0010
0100
,
1000
0000
0000
0000
0000
0000
0001
1000
0000
0000
0000
0000
0001
1000
0000
0000
,
0000
0000
0001
1000
0000
0000
0101
0000
1000
0000
0001
0000
0010
0000
0100
0000
,
1001
0000
0000
0110
0000
0000
1100
0000
,
0000
0000
0011
0000
0000
0000
0000
0000
1000
0000
0100
0010
0001
0000
0010
0100
,
1000
0000
0000
0000
0000
0000
0001
1000
0000
0000
0000
0000
0001
1000
0000
0000
,
0000
0000
0001
1000
0000
0000
0101
0000
1000
0000
0001
0000
0010
0000
0100
0000
,
1000
0000
1001
0000
1000
0000
0001
0100
,
0100
0000
1000
0010
0000
0101
0000
1010
,
0000
0000
0000
1000
0000
0100
0000
0001
,
0100
0000
1000
0100
0000
0011
0000
0110
,
0000
0000
1001
0000
0001
0000
1000
0010
,
0010
0000
0001
0100
0000
1010
0000
0101
,
0000
0000
0000
0001
0000
0010
0000
1000
,
0000
0000
0000
0000
0001
0000
0000
0000
0000
0000
0010
0000
0000
0000
0000
0000
0010
0000
0000
0000
0000
0100
0000
0000
0000
0000
1000
0000
0000
0000
0000
0000
,
0010
0000
0110
0000
0010
0000
0100
1000
,
1000
0000
0010
0001
0000
1100
0000
0011
,
0000
0000
0000
0010
0000
1000
0000
0100
,
1000
0000
0010
1000
0000
0101
0000
1001
,
0000
0000
0110
0000
0100
0000
0010
0001
,
0001
0000
0100
1000
0000
0011
0000
1100
,
0000
0000
0000
0100
0000
0001
0000
0010
,
0000
0000
0000
0000
0100
0000
0000
0000
0000
0000
0001
0000
0000
0000
0000
0000
0001
0000
0000
0000
0000
1000
0000
0000
0000
0000
0010
0000
0000
0000
0000
0000
,
0000
0001
0010
0000
0010
0100
0000
0100
,
1100
0000
0000
0000
0000
0000
0000
0000
0001
0000
0010
0100
1000
0000
0100
0010
,
0001
0000
0000
0000
0000
0000
0001
1000
0000
0000
0000
0000
0001
1000
0000
0000
,
0000
0001
1000
0000
1010
0000
1100
0000
,
0000
1001
1001
0000
0110
0110
0000
1100
,
1100
0000
0000
0000
0000
0000
0000
0000
0001
0000
0010
0100
1000
0000
0100
0010
,
0001
0000
0000
0000
0000
0000
0001
1000
0000
0000
0000
0000
0001
1000
0000
0000
,
0000
0001
1000
0100
1000
0100
0001
0010
,
1000
0000
1001
0000
1000
0000
0001
0100
,
0100
0000
1000
0010
0000
0101
0000
1010
,
0000
0000
0000
1000
0000
0100
0000
0001
,
0100
0000
1000
0100
0000
0011
0000
0220
,
0000
0000
0000
0000
0000
0000
0000
0330
,
0000
0000
1001
0110
,
0000
0110
0110
0000
1001
1001
0000
1010
,
1010
0000
1000
0100
1001
0000
0110
0000
,
0000
1000
0100
0000
0100
0010
0000
0010
,
0001
0000
1000
1000
0100
0000
0100
0000
,
0000
0001
0010
0000
0010
0100
0000
0100
,
1000
0000
0001
0001
0010
0000
0010
0000
,
1001
0000
0000
0110
0000
0000
1100
0000
,
0000
0000
0011
0000
0000
0000
0000
0000
1000
0000
0100
0010
0001
0000
0010
0100
,
1000
0000
0000
0000
0000
0000
0001
1000
0000
0000
0000
0000
0001
1000
0000
0000
,
0000
0000
0001
1000
0000
0000
0101
0000
1000
0000
0001
0000
0010
0000
0100
0000
,
1001
0000
0000
0110
0000
0000
1100
0000
,
0000
0000
0011
0000
0000
0000
0000
0000
1000
0000
0100
0010
0001
0000
0010
0100
,
1000
0000
0000
0000
0000
0000
0001
1000
0000
0000
0000
0000
0001
1000
0000
0000
,
0000
0000
0001
1000
0000
0000
0101
0000
1000
0000
0001
0000
0010
0000
0100
0000
,
1000
0000
1001
0000
1000
0000
0001
0100
,
0100
0000
1000
0010
0000
0101
0000
1010
,
0000
0000
0000
1000
0000
0100
0000
0001
,
0100
0000
1000
0100
0000
0011
0000
0110
,
0000
0000
1001
0000
0001
0000
1000
0010
,
0010
0000
0001
0100
0000
1010
0000
0101
,
0000
0000
0000
0001
0000
0010
0000
1000
,
0000
0000
0000
0000
0001
0000
0000
0000
0000
0000
0010
0000
0000
0000
0000
0000
0010
0000
0000
0000
0000
0100
0000
0000
0000
0000
1000
0000
0000
0000
0000
0000
,
1001
0000
0000
0110
0000
0000
1100
0000
,
0000
0000
0011
0000
0000
0000
0000
0000
1000
0000
0100
0010
0001
0000
0010
0100
,
1000
0000
0000
0000
0000
0000
0001
1000
0000
0000
0000
0000
0001
1000
0000
0000
,
0000
0000
0001
1000
0000
0000
0101
0000
1000
0000
0001
0000
0010
0000
0100
0000
,
0100
0100
1000
0000
1000
0001
0000
0001
,
0011
0000
0000
0000
0100
0000
0000
0000
1000
0000
0100
0010
0001
0000
0010
0100
,
1000
0000
0000
0000
0000
0000
0001
1000
0000
0000
0000
0000
0001
1000
0000
0000
,
0000
0001
1000
0100
1000
0100
0001
0010
,
1000
0000
1001
0000
1000
0000
0001
0100
,
0100
0000
1000
0010
0000
0101
0000
1010
,
0000
0000
0000
1000
0000
0100
0000
0001
,
0100
0000
1000
0100
0000
0011
0000
0220
,
0000
0000
0000
0000
0000
0000
0000
0330
,
0000
0000
1001
0110
,
0000
0110
0110
0000
1001
1001
0000
1010
,
1010
0000
1000
0001
,
0020
0000
0000
0000
,
0000
0000
0000
0000
,
0030
0000
0000
0000
;

//---------------dance-single - MANIAC----------------
#NOTES:
     dance-single:
     MANIAC:
     Hard:
     9:
     0.524,0.583,0.514,0.228,0.196,410.000,72.000,32.000,0.000,1.000:
0000
0000
0000
0000
,
0000
0000
0000
0000
,
0000
0000
0000
0000
,
0000
0000
0000
0200
0000
0000
0000
0000
,
0300
1000
0100
0000
0100
0010
0000
0010
,
0001
0000
0100
0010
1010
0000
0101
0000
,
0000
1000
0100
0000
0100
0010
0000
0010
,
0100
0000
0001
1000
1010
0000
0101
0000
,
0000
1001
1001
0000
0110
0110
0000
1010
,
0101
0000
0000
0000
0000
0000
0000
0000
1000
0000
0100
0010
0001
0000
0100
0010
,
1000
0000
0000
0000
0000
0000
1000
0001
0000
0000
0000
0000
0001
1000
0000
0000
,
0000
0000
1000
0001
0000
0000
0100
0000
0010
0000
1000
0000
0001
0000
1000
0000
,
0110
0000
0000
1100
0000
0000
0011
0000
,
1010
0000
0000
0000
0000
0000
0000
0000
0001
0000
0010
0100
1000
0000
0010
0100
,
1000
0001
0000
0000
0000
0000
1000
0100
0000
0000
0000
0000
1000
0010
0000
0000
,
0000
0000
0001
1000
0000
0000
0100
0000
0010
0000
1000
0000
0001
0000
0010
0000
,
1001
0000
1100
0000
1010
0000
0100
0001
,
0011
0000
0100
1000
0000
0110
0000
0022
,
0000
0033
0000
1000
0000
0100
0000
0010
,
0001
0000
0100
0010
0000
0010
0000
2000
,
0000
0100
0010
0100
,
3100
0000
0001
0100
0000
1010
0000
1001
,
0000
0000
0000
1001
0000
1100
0000
0011
,
0000
0000
0000
0000
0001
0000
0000
0000
0000
0000
0010
0000
0000
0000
0000
0000
0010
0000
0000
0000
0000
0100
0000
0000
0000
0000
1000
0000
0000
0000
0000
0000
,
0011
0000
1100
0000
1010
0000
0100
0001
,
0101
0000
1000
0010
0000
2002
0000
0000
,
0000
3003
0000
1000
0000
0100
0000
0010
,
0001
0000
0100
0010
0000
0010
0000
2000
,
0000
0100
0010
0100
,
3001
0000
0100
0001
0000
1010
0000
0110
,
0000
0000
0000
1001
0000
1100
0000
0011
,
0000
0000
0000
0000
0001
0000
0000
0000
0000
0000
0010
0000
0000
0000
0000
0000
0010
0000
0000
0000
0000
0100
0000
0000
0000
0000
1000
0000
0000
0000
0000
0000
,
0100
1000
0100
0000
0100
0010
0000
0010
,
0101
0000
0000
0000
0000
0000
0000
0000
1000
0000
0100
0010
0001
0000
0100
0010
,
1000
0000
0000
0000
0000
0000
1000
0001
0000
0000
0000
0000
0001
1000
0000
0000
,
0000
0000
1000
0001
0000
0000
0100
0000
0010
0000
1000
0000
0001
0000
1000
0000
,
0110
0000
0000
1100
0000
0000
0011
0000
,
1010
0000
0000
0000
0000
0000
0000
0000
0001
0000
0010
0100
1000
0000
0010
0100
,
1000
0001
0000
0000
0000
0000
1000
0100
0000
0000
0000
0000
1000
0010
0000
0000
,
0000
0000
0001
1000
0000
0000
0100
0000
0010
0000
1000
0000
0001
0000
0010
0000
,
1001
0000
1100
0000
1010
0000
0100
0001
,
0011
0000
0100
1000
0000
0110
0000
0022
,
0000
0033
0000
1000
0000
0100
0000
0010
,
0001
0000
0100
0010
0000
0010
0000
2000
,
0100
0000
0000
0001
0000
0000
0100
0000
,
3000
0001
0000
0000
1010
0000
1001
0000
,
0100
1000
0100
0000
0100
0010
0000
0010
,
0100
0000
0001
1000
1010
0000
0101
0000
,
0001
0100
0001
0000
0001
1000
0000
1000
,
0001
0000
0010
0100
1100
0000
0011
0000
,
0010
0001
0010
0000
0010
0100
0000
0100
,
0001
0000
0000
0100
0010
1000
0001
0010
,
0100
1000
0100
0000
0100
0010
0000
0010
,
1010
0000
0000
0000
0000
0000
0000
0000
0001
0000
0010
0100
1000
0000
0010
0100
,
1000
0001
0000
0000
0000
0000
1000
0100
0000
0000
0000
0000
1000
0010
0000
0000
,
0000
0000
0001
1000
0000
0000
0100
0000
0010
0000
1000
0000
0001
0000
0010
0000
,
0100
1000
0100
0000
0100
0010
0000
0010
,
1010
0000
0000
0000
0000
0000
0000
0000
0001
0000
0010
0100
1000
0000
0010
0100
,
0010
0100
0000
0000
0000
0000
0010
1000
0000
0000
0000
0000
0010
0001
0000
0000
,
0000
0000
0100
0010
0000
0000
1000
0000
0001
0000
0010
0000
0100
0000
0001
0000
,
1001
0000
1100
0000
1010
0000
0100
0001
,
0011
0000
0100
1000
0000
0110
0000
0022
,
0000
0033
0000
1000
0000
0100
0000
0010
,
0001
0000
0100
0010
0000
0010
0000
2000
,
0100
0000
0000
0001
0000
0000
0100
0000
,
3000
0001
0000
0000
1010
0000
1001
0000
,
0000
0000
0000
1001
0000
1100
0000
0011
,
0000
0000
0000
0000
0001
0000
0000
0000
0000
0000
0010
0000
0000
0000
0000
0000
0010
0000
0000
0000
0000
0100
0000
0000
0000
0000
1000
0000
0000
0000
0000
0000
,
0100
1000
0100
0000
0100
0010
0000
0010
,
0011
0000
0000
0000
0000
0000
0000
0000
0100
0000
0001
1000
0010
0000
0001
1000
,
0100
0010
0000
0000
0000
0000
0100
1000
0000
0000
0000
0000
0100
0001
0000
0000
,
0000
0000
0001
1000
0000
0000
0100
0000
0010
0000
1000
0000
0001
0000
0010
0000
,
0001
0100
0001
0000
0001
1000
0000
1000
,
0011
0000
0000
0000
0000
0000
0000
0000
0100
0000
0001
1000
0010
0000
0001
1000
,
0001
1000
0000
0000
0000
0000
0001
0100
0000
0000
0000
0000
0001
0010
0000
0000
,
0000
0000
1000
0001
0000
0000
0010
0000
0100
0000
0001
0000
1000
0000
0100
0000
,
1001
0000
0200
0000
2300
0000
3100
0002
,
0000
0000
0103
1000
0000
0110
0000
0022
,
0000
0033
0000
2000
0000
3200
0000
0320
,
0032
0000
0103
0010
0000
0020
0000
2030
,
0200
0000
0300
0002
0000
0003
0200
0000
,
3300
0000
1010
1001
,
0100
1000
0200
0300
0100
0020
0030
0010
,
0000
0000
0001
0100
2000
0000
0002
0000
,
3200
0000
0000
0000
,
0000
0000
0000
0000
,
0303
0000
0000
0000
;

//---------------dance-single - BEGINNER----------------
#NOTES:
     dance-single:
     BEGINNER:
     Beginner:
     2:
     0.158,0.215,0.214,0.036,0.000,120.000,30.000,5.000,0.000,0.000:
0000
0000
0000
0000
,
0000
0000
1000
0000
,
1000
0000
0000
0010
,
0000
0000
1001
0000
,
0010
0000
0000
0001
,
0000
0000
1001
0000
,
0001
0000
0000
0100
,
0000
0000
0110
0000
,
0100
0000
0000
1000
,
0000
0000
1001
0000
,
1000
0000
0000
0010
,
0000
0000
0001
0000
,
0001
0000
0000
0010
,
0000
0000
1000
0000
,
0001
0000
0000
0100
,
0000
0000
0110
0000
,
0000
0100
0100
0000
,
1000
0000
0000
0000
,
0110
0000
0000
0000
,
1000
0000
0000
0000
,
1001
0000
0000
0000
,
0000
0000
0001
0000
,
1000
0000
0000
1000
,
0000
0000
0001
0000
,
0100
0000
0000
0100
,
0000
0000
1001
0000
,
1000
0000
0000
0001
,
0010
0000
1000
0000
,
0110
0000
0000
0000
,
0000
0000
1000
0000
,
0100
0000
0000
0100
,
0000
0000
1000
0000
,
1000
0000
0000
0001
,
0000
0000
1000
0000
,
0001
0000
0000
1000
,
0000
0000
0010
0000
,
0010
0000
0000
0100
,
0000
0000
0001
0000
,
0010
0000
0100
0000
,
1000
0000
1000
0000
,
0000
0100
0010
0000
,
1000
0000
1000
0000
,
0100
0000
0000
0000
,
0010
0000
1000
0000
,
0200
0000
0300
0000
,
0002
0000
0003
0000
,
2000
0000
3000
0000
,
0000
0000
1001
0000
,
0100
0000
0000
0100
,
0000
0000
1001
0000
,
1000
0000
0000
0100
,
0000
0000
0010
0000
,
0010
0000
0000
0100
,
0000
0000
0110
0000
,
0100
0000
0000
1100
,
0000
0000
1100
0000
,
0100
0000
0000
1000
,
0010
0000
0101
0000
,
1100
0000
0000
0110
,
0000
0000
0100
0000
,
1000
0000
1000
0000
,
0001
0000
0000
0000
,
0110
0000
0000
0000
,
0010
0000
0000
0000
,
1001
0000
0000
0000
,
0000
0000
1001
0000
,
0110
0000
0000
0000
,
0000
0000
0010
0000
,
1000
0000
0000
0010
,
0000
0000
0110
0000
,
0001
0000
0000
0100
,
0000
0000
0110
0000
,
0100
0000
0000
1000
,
0000
0000
1001
0000
,
0001
0000
0000
0010
,
0000
0000
0110
0000
,
0010
0000
0010
0000
,
0001
0000
0000
0000
,
0110
0000
0000
0000
,
0010
0000
0000
0000
,
1001
0000
0000
0000
,
0000
0000
1001
0000
,
0000
0100
0010
0000
,
0100
0000
1001
0000
,
0220
0000
0000
0000
,
0000
0000
0000
0000
,
0330
0000
0000
0000
;
