#TITLE:ViennaCore;
#SUBTITLE:;
#ARTIST:JAKAZiD;
#TITLETRANSLIT:;
#SUBTITLETRANSLIT:;
#ARTISTTRANSLIT:;
#CREDIT:;
#BANNER:ViennaCore BN.png;
#BACKGROUND:ViennaCore BG.png;
#LYRICSPATH:;
#CDTITLE:;
#MUSIC:ViennaCore.mp3;
#OFFSET:-1.440;
#SAMPLESTART:33.373;
#SAMPLELENGTH:10.740;
#SELECTABLE:YES;
#BPMS:0.000=180.000,32.000=90.000,48.000=180.000;
#STOPS:;
#BGCHANGES:;
// cache tags:
#FIRSTBEAT:16.000;
#LASTBEAT:252.000;
#SONGFILENAME:Songs/StepMix 1/ViennaCore/ViennaCore.sm;
#HASMUSIC:1;
#HASBANNER:1;
#MUSICLENGTH:93.472;
// end cache tags

//---------------dance-single - ----------------
#NOTES:
     dance-single:
     :
     Hard:
     9:
     0.624,0.674,0.439,0.214,0.118,347.000,41.000,20.000,0.000,0.000:  // measure 1
0000
0000
0000
0000
,  // measure 2
0000
0000
0000
0000
,  // measure 3
0000
0000
0000
0000
,  // measure 4
0000
0000
0000
0000
,  // measure 5
0100
0010
0100
0010
0100
0001
1000
0000
,  // measure 6
0001
1000
0001
1000
0001
0100
0010
0000
,  // measure 7
0100
0001
0010
0000
1000
0100
0001
0000
,  // measure 8
2002
0000
0000
3003
,  // measure 9
1001
0100
0001
0000
1001
0100
1000
0000
,  // measure 10
1001
0100
0001
0010
1000
0100
1001
0110
,  // measure 11
1000
0001
1100
0000
0001
1000
0101
0000
,  // measure 12
0101
1000
0101
0100
1001
1001
0100
0000
,  // measure 13
1000
0000
0000
0001
0100
0000
0000
0000
1000
0000
0000
0001
0100
0000
0000
0000
,  // measure 14
0100
0001
1000
0001
2000
0000
3001
0000
,  // measure 15
1000
0010
0001
0010
,  // measure 16
1000
0102
2003
3001
,  // measure 17
0100
0000
0000
0001
1000
0000
0000
0000
0100
0000
0000
0001
1000
0000
0000
0000
,  // measure 18
1000
0010
0100
0010
0200
0000
0310
0010
,  // measure 19
1000
0001
1000
0010
,  // measure 20
1000
0001
1000
0001
0200
0000
0020
0330
,  // measure 21
1000
0100
0010
0001
1000
0001
1000
0001
,  // measure 22
1000
0001
0010
0100
1000
0000
0001
1000
,  // measure 23
0001
1001
0101
1001
,  // measure 24
1000
1000
0001
0001
2000
0000
3001
0000
,  // measure 25
1000
0010
0100
0010
1000
0010
0100
0010
,  // measure 26
1000
0100
0010
0001
0010
0100
1000
0001
,  // measure 27
1000
0001
1000
0000
0010
0000
1001
0000
,  // measure 28
0101
0100
1010
1001
,  // measure 29
1000
0001
0100
0001
2000
0000
3001
0001
,  // measure 30
0010
0100
1000
0010
0200
0000
0310
0010
,  // measure 31
1000
0001
0100
0001
0010
0001
1000
0001
,  // measure 32
1000
0010
0000
0000
1000
0100
0000
0000
0010
0001
0000
0000
1000
0100
0000
0000
,  // measure 33
1000
0001
0100
0001
1000
0001
0100
0100
,  // measure 34
0001
1000
0001
0100
0001
1000
0010
0010
,  // measure 35
1000
0101
0110
1010
,  // measure 36
1000
0010
0000
0000
0000
0100
0001
0000
0000
0000
0000
0000
0100
0000
0001
0000
,  // measure 37
0100
0001
0000
0000
0000
0000
1000
0010
0000
0000
0000
0000
1000
0000
0010
0000
,  // measure 38
1000
0010
0000
0000
0000
0000
1000
0001
0000
0000
0000
0000
1000
0000
0001
0000
,  // measure 39
2000
0001
0001
3001
,  // measure 40
1000
0100
1000
0001
0100
0001
1000
0001
,  // measure 41
0100
0001
0100
0001
1000
0010
0100
0010
,  // measure 42
1000
0100
0001
0100
1000
0010
0001
0010
,  // measure 43
1000
0001
1000
0001
2000
0000
3001
0000
,  // measure 44
1001
0000
0100
0001
0010
0001
1000
0010
,  // measure 45
0100
0001
1000
0001
0200
0000
0310
0000
,  // measure 46
1000
0001
0100
0001
0010
0001
1000
0100
,  // measure 47
1000
0001
0100
0001
2000
0000
3001
0000
,  // measure 48
1000
0010
0100
0010
1000
0000
0101
0000
,  // measure 49
0100
0001
0010
0001
0100
0000
1010
0000
,  // measure 50
1000
0100
1000
0100
0010
0001
0010
0001
,  // measure 51
1000
0010
0000
0000
1000
0001
0000
0000
0100
0001
0000
0000
1000
0001
0000
0000
,  // measure 52
1000
0100
0001
0100
1000
0000
1001
0000
,  // measure 53
0001
0010
1000
0010
0001
0000
1001
0000
,  // measure 54
0102
1003
2001
3100
,  // measure 55
1002
0203
0302
1003
,  // measure 56
1001
0000
0010
0000
,  // measure 57
1000
0000
0000
0000
0100
0000
0000
0001
,  // measure 58
1000
0000
0010
0000
,  // measure 59
0100
0000
0000
0000
0001
0000
0000
0100
,  // measure 60
0010
1000
0001
0101
,  // measure 61
1000
0001
1000
1100
,  // measure 62
0110
0101
0110
1100
,  // measure 63
0110
0000
1000
0000
1000
0000
0110
0000
0001
0000
0001
0000
,  // measure 64
0110
0000
0000
0000
;

//---------------dance-single - ----------------
#NOTES:
     dance-single:
     :
     Medium:
     6:
     0.504,0.505,0.535,0.289,0.000,253.000,50.000,27.000,0.000,0.000:  // measure 1
0000
0000
0000
0000
,  // measure 2
0000
0000
0000
0000
,  // measure 3
0000
0000
0000
0000
,  // measure 4
0000
0000
0000
0000
,  // measure 5
0010
0100
0010
0100
,  // measure 6
1000
0001
1000
0001
,  // measure 7
0010
0100
1000
0001
,  // measure 8
2002
0000
0000
3003
,  // measure 9
1000
0100
1000
0000
0001
0010
0001
0000
,  // measure 10
1000
0100
1000
0001
0010
0001
0100
0000
,  // measure 11
0001
0100
0001
0000
1000
0010
1000
0000
,  // measure 12
0001
0100
0001
1000
0010
1000
0001
0000
,  // measure 13
1000
0101
1000
0101
,  // measure 14
0101
1001
0102
1003
,  // measure 15
0001
0100
0001
1000
,  // measure 16
0001
1000
0020
0130
,  // measure 17
0001
1100
0001
1100
,  // measure 18
1100
1001
2100
3001
,  // measure 19
1000
0010
1000
0001
,  // measure 20
1000
0001
0200
0310
,  // measure 21
1000
0001
0200
0000
0010
0000
0310
0000
,  // measure 22
0001
1000
0020
0000
0100
0000
0130
0000
,  // measure 23
1000
0010
0001
0010
,  // measure 24
1000
0001
1000
0000
0100
0000
1001
0000
,  // measure 25
0010
1000
0002
0000
1000
0000
1003
0000
,  // measure 26
0100
0001
2000
0000
0001
0000
3001
0000
,  // measure 27
0100
1000
0100
0001
,  // measure 28
1000
0001
1000
0000
0100
0000
1001
0000
,  // measure 29
1002
0100
1003
1001
,  // measure 30
2001
0100
3001
1001
,  // measure 31
1000
0100
0001
0000
0001
0100
1000
0000
,  // measure 32
1001
0100
1001
1001
,  // measure 33
0120
1000
0130
0110
,  // measure 34
0210
0001
0310
0110
,  // measure 35
2000
3001
0002
1003
,  // measure 36
1001
0000
0000
1000
0000
0000
1000
0000
,  // measure 37
0001
0000
0000
0001
0000
0000
0001
0000
,  // measure 38
1000
0000
0000
1000
0000
0000
1000
0000
,  // measure 39
0002
0000
0000
2000
0000
0000
3003
0000
,  // measure 40
1000
0010
0100
0000
0010
1000
0010
0000
,  // measure 41
0100
0001
0100
0000
0010
0000
1001
0000
,  // measure 42
1000
0001
0100
0000
0001
1000
0001
0000
,  // measure 43
0100
0010
0100
0000
0001
1000
0010
0000
,  // measure 44
1001
0000
0100
0000
0001
1000
0010
0000
,  // measure 45
0100
0000
1001
0000
0010
1000
0100
0000
,  // measure 46
0010
0101
0010
1100
,  // measure 47
0001
0110
0110
1001
,  // measure 48
0010
0001
0100
0001
0200
0000
0301
0000
,  // measure 49
0010
1000
0100
1000
0200
0000
1300
0000
,  // measure 50
0001
0100
0001
0000
1000
0100
1000
0000
,  // measure 51
1001
0100
1001
1001
,  // measure 52
0100
1000
0010
1000
0020
0000
1030
0000
,  // measure 53
0100
0001
0010
0001
0020
0000
0031
0000
,  // measure 54
2000
3001
0002
1003
,  // measure 55
2000
3002
2003
3001
,  // measure 56
1001
0000
0010
0000
,  // measure 57
1000
0000
0100
0000
,  // measure 58
1001
0000
0010
0000
,  // measure 59
1000
0000
0001
0000
,  // measure 60
0101
0000
1100
0000
,  // measure 61
0101
0101
1100
0000
,  // measure 62
0011
0000
1010
0000
,  // measure 63
0011
1010
1010
0011
,  // measure 64
1001
0000
0000
0000
;

//---------------dance-single - ----------------
#NOTES:
     dance-single:
     :
     Easy:
     4:
     0.292,0.337,0.118,0.214,0.000,160.000,11.000,20.000,0.000,0.000:  // measure 1
0000
0000
0000
0000
,  // measure 2
0000
0000
0000
0000
,  // measure 3
0000
0000
0000
0000
,  // measure 4
0000
0000
0000
0000
,  // measure 5
0010
0000
0000
0000
,  // measure 6
0100
0000
0000
0000
,  // measure 7
0010
0000
0100
0000
,  // measure 8
2002
0000
0000
3003
,  // measure 9
1000
0000
1000
0000
,  // measure 10
0001
1000
0001
0001
,  // measure 11
0100
0000
0100
0000
,  // measure 12
0010
0100
0010
0010
,  // measure 13
1000
0100
1000
0100
,  // measure 14
1000
0100
2000
3000
,  // measure 15
0001
0000
0100
0000
,  // measure 16
0010
0000
1001
0000
,  // measure 17
0001
0100
0001
0100
,  // measure 18
0001
0100
0002
0003
,  // measure 19
1000
0000
0010
0000
,  // measure 20
0100
0000
2002
3003
,  // measure 21
1000
0001
1000
0000
,  // measure 22
0010
0100
0010
0000
,  // measure 23
1000
0001
0100
0000
,  // measure 24
0100
0001
2000
3000
,  // measure 25
0001
0100
0001
0000
,  // measure 26
1000
0100
1000
0000
,  // measure 27
0010
0100
0001
0000
,  // measure 28
0001
0100
0020
0030
,  // measure 29
1000
0001
0200
0300
,  // measure 30
0001
1000
0020
0030
,  // measure 31
0200
0300
0200
0300
,  // measure 32
1001
0000
1001
0000
,  // measure 33
1000
1000
0100
0000
,  // measure 34
0001
0001
0100
0000
,  // measure 35
0010
0010
0100
0100
,  // measure 36
0002
0000
1000
0003
,  // measure 37
0200
0000
0010
0300
,  // measure 38
0002
0000
1000
1003
,  // measure 39
0020
0000
0100
0130
,  // measure 40
1000
0000
1000
0000
,  // measure 41
0001
0000
0001
0000
,  // measure 42
1000
0000
0100
0000
,  // measure 43
0010
0010
1001
0000
,  // measure 44
0001
0000
0001
0000
,  // measure 45
1000
0000
1000
0000
,  // measure 46
0001
0000
0010
0000
,  // measure 47
0100
0100
1001
0000
,  // measure 48
0010
0100
0020
0030
,  // measure 49
0100
0010
0200
0300
,  // measure 50
0001
1000
0001
0100
,  // measure 51
0110
0000
0110
0000
,  // measure 52
0001
1000
0002
0003
,  // measure 53
1000
0001
2000
3000
,  // measure 54
0001
0001
1000
1000
,  // measure 55
0010
0010
0100
0100
,  // measure 56
1001
0000
0010
0000
,  // measure 57
1000
0000
0100
0000
,  // measure 58
0001
0000
0010
0000
,  // measure 59
1000
0000
0100
0000
,  // measure 60
0001
0001
1000
0000
,  // measure 61
0010
0010
0100
0000
,  // measure 62
0001
0010
0100
1000
,  // measure 63
0001
0010
0100
0010
,  // measure 64
1001
0000
0000
0000
;

//---------------dance-single - ----------------
#NOTES:
     dance-single:
     :
     Beginner:
     2:
     0.142,0.202,0.086,0.096,0.000,76.000,8.000,9.000,0.000,0.000:  // measure 1
0000
0000
0000
0000
,  // measure 2
0000
0000
0000
0000
,  // measure 3
0000
0000
0000
0000
,  // measure 4
0000
0000
0000
0000
,  // measure 5
0010
0000
0000
0000
,  // measure 6
0100
0000
0000
0000
,  // measure 7
0010
0000
0000
0000
,  // measure 8
0200
0000
0000
0300
,  // measure 9
0001
0000
1000
0000
,  // measure 10
0001
0000
0001
0000
,  // measure 11
1000
0000
0001
0000
,  // measure 12
1000
0000
1000
0000
,  // measure 13
0001
0000
0000
0000
,  // measure 14
0010
0000
0100
0000
,  // measure 15
1000
0000
0000
0000
,  // measure 16
0100
0000
0010
0000
,  // measure 17
0001
0000
0000
0000
,  // measure 18
1000
0000
0001
0000
,  // measure 19
1000
0000
0000
0000
,  // measure 20
0010
0000
0020
0030
,  // measure 21
1000
0000
0000
0000
,  // measure 22
0001
0000
0000
0000
,  // measure 23
1000
0000
1000
0000
,  // measure 24
0001
0000
0001
0000
,  // measure 25
0001
0000
0000
0000
,  // measure 26
1000
0000
0000
0000
,  // measure 27
0001
0000
1000
0000
,  // measure 28
0001
0000
1000
0000
,  // measure 29
0020
0000
0030
0000
,  // measure 30
0020
0000
0030
0000
,  // measure 31
0200
0000
0300
0000
,  // measure 32
0200
0000
0300
0000
,  // measure 33
0002
0000
0003
0000
,  // measure 34
0002
0000
0003
0000
,  // measure 35
2000
0000
3000
0000
,  // measure 36
1001
0000
0000
0000
,  // measure 37
1001
0000
0000
0000
,  // measure 38
1001
0000
0000
0000
,  // measure 39
1001
0000
1001
0000
,  // measure 40
0010
0000
0000
0000
,  // measure 41
0100
0000
0000
0000
,  // measure 42
1000
0000
0000
0000
,  // measure 43
0100
0000
0100
0000
,  // measure 44
1001
0000
0000
0000
,  // measure 45
1000
0000
0000
0000
,  // measure 46
0010
0000
0000
0000
,  // measure 47
0100
0000
0100
0000
,  // measure 48
1001
0000
0000
0000
,  // measure 49
0010
0000
0000
0000
,  // measure 50
0100
0000
0000
0000
,  // measure 51
0001
0000
0001
0000
,  // measure 52
1000
0000
0000
0000
,  // measure 53
0010
0000
0000
0000
,  // measure 54
0100
0000
0000
0000
,  // measure 55
0010
0000
0010
0000
,  // measure 56
1001
0000
0000
0000
,  // measure 57
0000
0000
0000
0000
,  // measure 58
0100
0000
0000
0000
,  // measure 59
0000
0000
0000
0000
,  // measure 60
0001
0000
0000
0000
,  // measure 61
1000
0000
0000
0000
,  // measure 62
0001
0000
0000
0000
,  // measure 63
1000
0000
1000
0000
,  // measure 64
0001
0000
0000
0000
;
