#TITLE:PERFECT FREE;
#SUBTITLE:;
#ARTIST:nite system;
#TITLETRANSLIT:;
#SUBTITLETRANSLIT:;
#ARTISTTRANSLIT:;
#CREDIT:;
#BANNER:Perfect Free.png;
#BACKGROUND:Perfect Free-bg.png;
#LYRICSPATH:;
#CDTITLE:./CDTitles/ddr_clubver.png;
#MUSIC:Perfect Free.mp3;
#OFFSET:-0.035;
#SAMPLESTART:25.900;
#SAMPLELENGTH:12.000;
#SELECTABLE:YES;
#BPMS:0.000=130.000;
#STOPS:;
#BGCHANGES:;
// cache tags:
#FIRSTBEAT:15.500;
#LASTBEAT:168.000;
#SONGFILENAME:Songs/Dance Dance Revolution Club Mix/Perfect Free/Perfect Free.sm;
#HASMUSIC:1;
#HASBANNER:1;
#MUSICLENGTH:78.984;
// end cache tags

//---------------dance-single - ----------------
#NOTES:
     dance-single:
     :
     Easy:
     5:
     0.302,0.425,0.228,0.000,0.000,149.000,18.000,0.000,0.000,0.000:  // measure 1
0000
0000
0000
0000
,  // measure 2
0000
0000
0000
0000
,  // measure 3
0000
0000
0000
0000
,  // measure 4
0000
0000
0000
0000
,  // measure 5
0001
1000
0010
1001
,  // measure 6
1000
0001
0100
0010
,  // measure 7
0001
1000
0010
1001
,  // measure 8
1000
0001
0100
0010
,  // measure 9
0001
1000
0010
1001
,  // measure 10
0001
1000
0010
0100
,  // measure 11
1000
0001
0100
1001
,  // measure 12
0001
1000
0010
0100
,  // measure 13
1000
0001
0100
1001
,  // measure 14
0001
1000
0011
1100
,  // measure 15
1000
0001
0010
0110
,  // measure 16
0001
1000
0100
1001
,  // measure 17
1000
0001
0010
0110
,  // measure 18
1000
1000
1000
1000
,  // measure 19
0001
0000
0001
0001
0000
0000
0100
0000
,  // measure 20
1000
0000
1000
1000
0000
0000
0100
0000
,  // measure 21
0001
0000
0001
0001
0000
0000
0010
0000
,  // measure 22
1000
0000
1000
0100
0000
0000
0000
0000
,  // measure 23
0001
0001
0001
0001
,  // measure 24
0100
0100
0100
0100
,  // measure 25
1001
0110
1001
0110
,  // measure 26
1000
0100
1000
0100
1000
0100
1000
0000
,  // measure 27
1000
0000
1000
0000
0000
1000
1000
0000
,  // measure 28
0001
0000
0001
0000
0000
0001
0001
0000
,  // measure 29
0001
0000
0001
0000
0000
0001
0001
0000
,  // measure 30
1000
0000
1000
0000
0000
1000
1000
0000
,  // measure 31
0001
0000
0001
0000
0000
0001
0100
0000
,  // measure 32
0100
0000
0100
0000
0000
0100
1000
0000
,  // measure 33
1000
0000
1000
0000
0000
1000
0010
0000
,  // measure 34
0010
0000
0010
0000
0000
0010
0001
0000
,  // measure 35
0001
0000
0001
0000
0000
0001
0100
0000
,  // measure 36
0100
0000
0100
0000
0000
0100
1000
0000
,  // measure 37
1000
0000
1010
0000
0000
1000
0010
0000
,  // measure 38
0010
0000
0011
0000
0000
0010
0001
0000
,  // measure 39
0001
0000
0101
0000
0000
0001
0100
0000
,  // measure 40
0000
0000
0000
0010
0000
0000
0000
0000
,  // measure 41
0000
0000
0000
0000
,  // measure 42
0010
0000
0010
0001
0100
0000
0100
0000
,  // measure 43
1001
0000
0000
0000
;

//---------------dance-single - ----------------
#NOTES:
     dance-single:
     :
     Medium:
     6:
     0.392,0.452,0.177,0.000,0.095,203.000,14.000,0.000,0.000,0.000:  // measure 1
0000
0000
0000
0000
,  // measure 2
0000
0000
0000
0000
,  // measure 3
0000
0000
0000
0000
,  // measure 4
0000
0000
0000
0000
,  // measure 5
0001
1000
0010
1001
,  // measure 6
1000
0000
0001
0000
0100
1000
0100
1000
,  // measure 7
1001
1000
0010
0110
,  // measure 8
1000
0001
0100
1001
,  // measure 9
0001
1000
0010
0110
,  // measure 10
0001
1000
0010
1001
,  // measure 11
1000
0001
0100
0110
,  // measure 12
0001
1000
0010
1001
,  // measure 13
1000
0001
0100
0110
,  // measure 14
0001
0000
1000
0000
0010
0001
0010
0001
,  // measure 15
1001
0000
0000
1000
0100
0000
0000
0001
,  // measure 16
0000
0000
0000
0001
0100
0000
0000
1000
,  // measure 17
0000
0000
0000
1000
0100
0000
0000
0000
,  // measure 18
1000
0001
1000
0001
1000
0001
1000
0001
,  // measure 19
0001
0000
0001
0001
0000
0001
0100
1000
,  // measure 20
1000
0000
1000
1000
0000
1000
0100
0001
,  // measure 21
0100
0000
0000
0000
,  // measure 22
0000
0000
0000
0011
0000
0000
0000
0000
,  // measure 23
0001
0001
0001
0001
0001
0001
0001
0001
,  // measure 24
0001
0001
0001
0001
0001
0001
0001
0001
,  // measure 25
0100
0001
0001
0001
0001
0001
0001
0001
,  // measure 26
1000
0001
1000
0001
1000
0001
0001
1000
,  // measure 27
1000
0000
0000
1000
0000
0000
1000
0000
0000
0000
1000
0000
1000
0000
1000
0000
,  // measure 28
1000
0000
0000
1000
0000
0000
1000
0000
0000
0000
1000
0000
0100
0000
0001
0000
,  // measure 29
0001
0000
0000
0001
0000
0000
0001
0000
0000
0000
0001
0000
0010
0000
1000
0000
,  // measure 30
1000
0000
0000
1000
0000
0000
1000
0000
0000
0000
1000
0000
0100
0000
0001
0000
,  // measure 31
0001
0000
0000
0001
0000
0000
0001
0000
0000
0000
0001
0000
0010
0000
1000
0000
,  // measure 32
1000
0000
0000
1000
0000
0000
1000
0000
0000
0000
1000
0000
0100
0000
0001
0000
,  // measure 33
0001
0000
0000
0001
0000
0000
0001
0000
0000
0000
0001
0000
0010
0000
1000
0000
,  // measure 34
1000
0000
0000
1000
0000
0000
1000
0000
0000
0000
1000
0000
0100
0000
0001
0000
,  // measure 35
0001
0000
0000
0001
0000
0000
0001
0000
0000
0000
0001
0000
0010
0000
1000
0000
,  // measure 36
1000
0000
0000
1000
0000
0000
1000
0000
0000
0000
1000
0000
0100
0000
0001
0000
,  // measure 37
0001
0000
0000
0001
0000
0000
0001
0000
0000
0000
0001
0000
0010
0000
1000
0000
,  // measure 38
1000
0000
0000
1000
0000
0000
1000
0000
0000
0000
1000
0000
0100
0000
0001
0000
,  // measure 39
0001
0000
0000
0001
0000
0000
0001
0000
0000
0000
0001
0000
0010
0000
1000
0000
,  // measure 40
1000
0000
0000
1000
0000
0000
1000
0000
0000
0000
1000
0000
0100
0000
0001
0000
,  // measure 41
0001
0000
0000
0001
0000
0000
0001
0000
0000
0000
0001
0000
0001
0000
0001
0000
,  // measure 42
0011
0000
0001
0001
0001
0000
0101
0000
,  // measure 43
1001
0000
0000
0000
;

//---------------dance-single - ----------------
#NOTES:
     dance-single:
     :
     Hard:
     7:
     0.440,0.585,0.392,0.000,0.095,212.000,31.000,0.000,0.000,0.000:  // measure 1
0000
0000
0000
0000
,  // measure 2
0000
0000
0000
0000
,  // measure 3
0000
0000
0000
0000
,  // measure 4
0000
0000
0000
0000
0000
0000
0000
0010
,  // measure 5
0000
0000
0000
1000
0100
0000
0000
1000
,  // measure 6
0000
0000
0000
0100
0001
0000
0000
0100
,  // measure 7
0000
0000
0000
0001
0010
0000
0000
0001
,  // measure 8
0000
0000
0000
0010
1000
0000
0000
0010
,  // measure 9
0000
0000
0000
1000
0100
0000
0110
1000
,  // measure 10
0000
0000
0000
0100
0001
0000
1001
0100
,  // measure 11
0000
0000
0000
0001
0010
0000
0110
0001
,  // measure 12
0000
0000
0000
0010
1000
0000
1001
0010
,  // measure 13
0000
0000
1100
1000
0100
0000
0110
1000
,  // measure 14
0000
0000
0101
0100
0001
0000
0110
0100
,  // measure 15
0000
0000
1001
0001
0010
0000
0110
0001
,  // measure 16
0000
0000
0110
0010
1000
0000
1001
1000
,  // measure 17
0000
0000
0001
1000
1000
0000
0001
0000
,  // measure 18
1000
0001
1000
0001
1000
0001
1000
0001
,  // measure 19
0010
0000
1000
0100
0000
1000
1000
0100
,  // measure 20
1000
0000
0100
0001
0000
0100
0100
0001
,  // measure 21
0100
0000
0001
0010
0000
0001
0001
0010
,  // measure 22
0001
0000
0010
1000
0000
0010
0010
1000
,  // measure 23
0010
1000
1000
0100
0100
0001
0001
0010
,  // measure 24
0010
1000
1000
0100
0100
0001
0001
0010
,  // measure 25
1010
1100
0101
0011
,  // measure 26
1010
1000
1100
0100
0101
0001
0011
1001
,  // measure 27
1000
0000
0000
1000
0000
0000
1000
0000
0000
0000
0100
0000
1000
0000
0100
0000
,  // measure 28
0100
0000
0000
0100
0000
0000
0100
0000
0000
0000
0001
0000
0100
0000
0001
0000
,  // measure 29
0001
0000
0000
0001
0000
0000
0001
0000
0000
0000
0010
0000
0001
0000
0010
0000
,  // measure 30
0010
0000
0000
0010
0000
0000
0010
0000
0000
0000
1000
0000
0010
0000
1000
0000
,  // measure 31
1000
0000
0000
0100
0000
0000
0001
0000
0000
0000
0001
0000
0100
0000
1000
0000
,  // measure 32
0100
0000
0000
0001
0000
0000
0010
0000
0000
0000
0010
0000
0001
0000
0100
0000
,  // measure 33
0001
0000
0000
0010
0000
0000
1000
0000
0000
0000
1000
0000
0010
0000
0001
0000
,  // measure 34
0010
0000
0000
1000
0000
0000
1100
0000
0000
0000
0100
0000
1000
0000
0010
0000
,  // measure 35
1000
0000
0000
0100
0000
0000
0101
0000
0000
0000
0001
0000
0100
0000
1000
0000
,  // measure 36
0100
0000
0000
0001
0000
0000
0011
0000
0000
0000
0010
0000
0001
0000
0100
0000
,  // measure 37
0001
0000
0000
0010
0000
0000
1010
0000
0000
0000
1000
0000
0010
0000
0001
0000
,  // measure 38
0010
0000
0000
1000
0000
0000
0100
0000
0010
0000
0100
0000
1000
0000
0010
0000
,  // measure 39
1000
0000
0000
0100
0000
0000
0001
0000
1000
0000
0001
0000
0100
0000
1000
0000
,  // measure 40
0100
0000
0000
0001
0000
0000
0010
0000
0100
0000
0010
0000
0001
0000
0100
0000
,  // measure 41
0001
0000
0000
0010
0000
0000
0001
0000
0010
0000
0001
0000
0010
0000
0000
0000
,  // measure 42
0011
0000
1001
0101
0011
0000
0101
0000
,  // measure 43
1001
0000
0000
0000
;

//---------------dance-double - ----------------
#NOTES:
     dance-double:
     :
     Easy:
     6:
     0.402,0.479,0.190,0.000,0.095,207.000,15.000,0.000,0.000,0.000:  // measure 1
00000000
00000000
00000000
00000000
,  // measure 2
00000000
00000000
00000000
00000000
,  // measure 3
00000000
00000000
00000000
00000000
,  // measure 4
00000000
00000000
00000000
00000000
,  // measure 5
00100000
01000000
00010000
00011000
,  // measure 6
00000100
00000000
00000010
00000000
00001000
00010000
00001000
00010000
,  // measure 7
00100000
01000000
00010000
00011000
,  // measure 8
00000100
00000010
00001000
00011000
,  // measure 9
00100000
01000000
00010000
00011000
,  // measure 10
00000100
00000010
00001000
00011000
,  // measure 11
00100000
01000000
00010000
00011000
,  // measure 12
00000100
00000010
00001000
00011000
,  // measure 13
00100000
01000000
00010000
00011000
,  // measure 14
00000100
00000000
00000010
00000000
00001000
00010000
00001000
00010000
,  // measure 15
00000000
00000000
00000000
00000001
00000100
00000000
00000000
00001000
,  // measure 16
00000000
00000000
00000000
00001000
00010000
00000000
00000000
00010000
,  // measure 17
00000000
00000000
00000000
00010000
01000000
00000000
00000000
00000000
,  // measure 18
10000000
01000000
10000000
01000000
10000000
01000000
10000000
01000000
,  // measure 19
10000000
00000000
10000000
10000000
00000000
10000000
01000000
00010000
,  // measure 20
00010000
00000000
00010000
00010000
00000000
00010000
00001000
00000100
,  // measure 21
00001000
00000000
00001000
00001000
00000000
00001000
00000100
00000001
,  // measure 22
00000001
00000000
00000001
00000001
00000000
00000001
00000100
00000001
,  // measure 23
00000001
00000001
00000001
00000001
00000001
00000001
00000001
00000001
,  // measure 24
00000001
00000001
00000001
00000001
00000001
00000001
00000001
00000001
,  // measure 25
00000101
00001100
00011000
01010000
,  // measure 26
00010000
00010000
10000000
00010000
10000000
00010000
00010000
10000000
,  // measure 27
10000000
00000000
00000000
10000000
00000000
00000000
10000000
00000000
00000000
00000000
10000000
00000000
10000000
00000000
10000000
00000000
,  // measure 28
10000000
00000000
00000000
10000000
00000000
00000000
10000000
00000000
00000000
00000000
10000000
00000000
01000000
00000000
00010000
00000000
,  // measure 29
00010000
00000000
00000000
00010000
00000000
00000000
00010000
00000000
00000000
00000000
00001000
00000000
00010000
00000000
00000100
00000000
,  // measure 30
00001000
00000000
00000000
00001000
00000000
00000000
00001000
00000000
00000000
00000000
00001000
00000000
00000010
00000000
00000000
00000000
,  // measure 31
00000001
00000000
00000000
00000001
00000000
00000000
00000001
00000000
00000000
00000000
00000001
00000000
00000100
00000000
00001000
00000000
,  // measure 32
00001000
00000000
00000000
00001000
00000000
00000000
00001000
00000000
00000000
00000000
00010000
00000000
00001000
00000000
01000000
00000000
,  // measure 33
00010000
00000000
00000000
00010000
00000000
00000000
00010000
00000000
00000000
00000000
00010000
00000000
00100000
00000000
10000000
00000000
,  // measure 34
10000000
00000000
00000000
10000000
00000000
00000000
10000000
00000000
00000000
00000000
10000000
00000000
01000000
00000000
00010000
00000000
,  // measure 35
00010000
00000000
00000000
00010000
00000000
00000000
00010000
00000000
00000000
00000000
00001000
00000000
00010000
00000000
00000100
00000000
,  // measure 36
00001000
00000000
00000000
00001000
00000000
00000000
00001000
00000000
00000000
00000000
00001000
00000000
00000010
00000000
00000001
00000000
,  // measure 37
00000001
00000000
00000000
00000001
00000000
00000000
00000001
00000000
00000000
00000000
00000001
00000000
00000100
00000000
00001000
00000000
,  // measure 38
00001000
00000000
00000000
00001000
00000000
00000000
00001000
00000000
00000000
00000000
00010000
00000000
00001000
00000000
01000000
00000000
,  // measure 39
00010000
00000000
00000000
00010000
00000000
00000000
00010000
00000000
00000000
00000000
00010000
00000000
00100000
00000000
10000000
00000000
,  // measure 40
10000000
00000000
00000000
10000000
00000000
00000000
10000000
00000000
00000000
00000000
10000000
00000000
01000000
00000000
00010000
00000000
,  // measure 41
00010000
00000000
00000000
00010000
00000000
00000000
00010000
00000000
00000000
00000000
00010000
00000000
00001000
00000000
00010000
00000000
,  // measure 42
00011000
00000000
00001000
00010000
00001000
00000000
01010000
00000000
,  // measure 43
11000000
00000000
00000000
00000000
;

//---------------dance-double - ----------------
#NOTES:
     dance-double:
     :
     Medium:
     7:
     0.436,0.558,0.405,0.000,0.095,209.000,32.000,0.000,0.000,0.000:  // measure 1
00000000
00000000
00000000
00000000
,  // measure 2
00000000
00000000
00000000
00000000
,  // measure 3
00000000
00000000
00000000
00000000
,  // measure 4
00000000
00000000
00000000
00000000
00000000
00000000
00000000
00100000
,  // measure 5
00000000
00000000
00000000
10000000
01000000
00000000
00000000
10000000
,  // measure 6
00000000
00000000
00000000
01000000
00010000
00000000
00000000
01000000
,  // measure 7
00000000
00000000
00000000
00010000
00001000
00000000
00000000
00010000
,  // measure 8
00000000
00000000
00000000
00001000
00000010
00000000
00000000
00001000
,  // measure 9
00000000
00000000
00000000
00000010
00000001
00000000
00000110
00000010
,  // measure 10
00000000
00000000
00000000
00000001
00000100
00000000
00001001
00000001
,  // measure 11
00000000
00000000
00000000
00000100
00001000
00000000
00000110
00000100
,  // measure 12
00000000
00000000
00000000
00001000
00010000
00000000
00011000
00001000
,  // measure 13
00000000
00000000
10010000
00010000
00100000
00000000
01100000
00010000
,  // measure 14
00000000
00000000
01100000
00100000
10000000
00000000
10010000
00100000
,  // measure 15
00000000
00000000
10010000
10000000
01000000
00000000
01100000
00010000
,  // measure 16
00000000
00000000
00011000
00001000
00000100
00000000
00000110
00001000
,  // measure 17
00000000
00000000
00011000
01000000
00010000
00000000
01100000
00000000
,  // measure 18
10000000
00010000
10000000
00010000
10000000
00010000
10000000
00010000
,  // measure 19
10000000
00000000
11000000
10000000
00000000
10000000
01000000
00010000
,  // measure 20
00001000
00000000
00001100
00001000
00000000
00001000
00000100
00000001
,  // measure 21
00000001
00000000
00000101
00000001
00000000
00000001
00000100
00001000
,  // measure 22
00010000
00000000
01010000
00010000
00000000
00010000
01000000
10000000
,  // measure 23
10000000
10000000
01000000
01000000
00010000
00010000
00001000
00001000
,  // measure 24
00000100
00000100
00000001
00000001
00000100
00000100
00001000
00001000
,  // measure 25
00011000
00110000
10100000
01010000
,  // measure 26
00011000
00001000
00001100
00000100
00000101
00000001
00001001
00000001
,  // measure 27
00000001
00000000
00000000
00000001
00000000
00000000
00000001
00000000
00000000
00000000
00000001
00000000
00000100
00000000
00001000
00000000
,  // measure 28
00001000
00000000
00000000
00001000
00000000
00000000
00001000
00000000
00000000
00000000
00010000
00000000
00001000
00000000
01000000
00000000
,  // measure 29
00010000
00000000
00000000
00010000
00000000
00000000
00010000
00000000
00000000
00000000
00010000
00000000
00100000
00000000
10000000
00000000
,  // measure 30
10000000
00000000
00000000
10000000
00000000
00000000
10000000
00000000
00000000
00000000
10000000
00000000
01000000
00000000
00010000
00000000
,  // measure 31
00001000
00000000
00000000
00001000
00000000
00000000
00001000
00000000
00000000
00000000
00001000
00000000
00000100
00000000
00000001
00000000
,  // measure 32
00000001
00000000
00000000
00000001
00000000
00000000
00000001
00000000
00000000
00000000
00000001
00000000
00000100
00000000
00001000
00000000
,  // measure 33
00010000
00000000
00000000
00010000
00000000
00000000
00010000
00000000
00000000
00000000
00010000
00000000
01000000
00000000
10000000
00000000
,  // measure 34
10000000
00000000
00000000
10000000
00000000
00000000
10000000
00000000
00000000
00000000
10000000
00000000
01000000
00000000
00010000
00000000
,  // measure 35
00001000
00000000
00000000
00010000
00000000
00000000
00100000
00000000
00000000
00000000
10000000
00000000
01000000
00000000
00010000
00000000
,  // measure 36
00001000
00000000
00000000
00000100
00000000
00000000
00000010
00000000
00000000
00000000
00000001
00000000
00000100
00000000
00001000
00000000
,  // measure 37
00010000
00000000
00000000
00001000
00000000
00000000
00000010
00000000
00000000
00000000
00000001
00000000
00000100
00000000
00001000
00000000
,  // measure 38
00010000
00000000
00000000
01000000
00000000
00000000
00100000
00000000
00000000
00000000
10000000
00000000
01000000
00000000
00010000
00000000
,  // measure 39
00001000
00000000
00000000
00000100
00000000
00000000
00000010
00000000
00000000
00000000
00000001
00000000
00000100
00000000
00001000
00000000
,  // measure 40
00010000
00000000
00000000
00001000
00000000
00000000
00000010
00000000
00000000
00000000
00000001
00000000
00000100
00000000
00001000
00000000
,  // measure 41
00010000
00000000
00000000
01000000
00000000
00000000
00100000
00000000
00000000
00000000
10000000
00000000
01000000
00000000
00010000
00000000
,  // measure 42
00011000
00000000
00001100
00011000
00110000
00000000
01010000
00000000
,  // measure 43
11000000
00000000
00000000
00000000
;
