#TITLE:fluid data;
#SUBTITLE:;
#ARTIST:the pondermatic;
#TITLETRANSLIT:;
#SUBTITLETRANSLIT:;
#ARTISTTRANSLIT:;
#CREDIT:;
#BANNER:Fluid Data_BN.png;
#BACKGROUND:Fluid Data_BG.png;
#LYRICSPATH:;
#CDTITLE:;
#MUSIC:Fluid Data.mp3;
#OFFSET:-0.262;
#SAMPLESTART:34.304;
#SAMPLELENGTH:13.340;
#SELECTABLE:YES;
#BPMS:0.000=148.000,79.500=130.000,79.750=110.000,80.000=95.000,80.125=85.000,80.250=74.000,82.000=148.000,227.000=147.000,227.813=146.000,228.604=145.000,229.396=144.000,230.208=143.000,231.000=142.000,231.792=141.000,232.604=140.000,233.396=139.000,234.208=138.000,235.000=137.000,236.000=136.000,236.792=135.000,237.604=134.000,238.396=133.000,239.208=132.000,240.000=131.000,240.792=130.000,241.604=129.000,242.396=128.000,243.208=127.000,244.000=126.000,245.000=125.000,245.792=124.000,246.604=123.000,247.396=122.000,248.208=121.000,249.000=120.000,249.792=119.000,250.604=118.000,251.396=117.000,252.208=116.000,253.000=115.000,254.000=114.000,254.792=113.000,255.604=112.000,256.396=111.000,257.208=110.000,258.000=109.000,258.792=108.000,259.604=107.000,260.396=106.000,261.208=105.000,262.000=104.000;
#STOPS:;
#BGCHANGES:;
// cache tags:
#FIRSTBEAT:28.000;
#LASTBEAT:268.000;
#SONGFILENAME:Songs/StepMix 2/Fluid Data/Fluid Data.sm;
#HASMUSIC:1;
#HASBANNER:1;
#MUSICLENGTH:114.161;
// end cache tags

//---------------dance-single - ----------------
#NOTES:
     dance-single:
     :
     Challenge:
     10:
     0.775,0.968,0.166,0.289,0.552,567.000,19.000,33.000,0.000,1.000:
0000
0000
0000
0000
,
0000
0000
0000
0000
,
0000
0000
0000
0000
,
0000
0000
0000
0000
,
0000
0000
0000
0000
,
0000
0000
0000
0000
,
0000
0000
0000
0000
,
1100
0000
0000
0000
0000
0000
0101
0000
0000
0000
0000
0000
0010
0000
1000
0100
,
0010
0001
0010
1000
0010
0001
0100
1000
,
0100
0001
0010
0100
1000
0100
0010
0001
,
0010
1000
0010
0001
0100
1000
0100
0001
,
1000
0100
0010
0001
0010
0100
1000
0001
,
0100
0010
1000
0010
0001
0010
1000
0100
,
0001
0100
1000
0010
0001
0010
1000
0100
,
0010
0001
0010
0100
1000
0001
0100
0010
,
1000
0000
0000
0010
0000
0000
0100
0000
0000
0001
0000
0000
1000
0000
0000
0100
0000
0000
0001
0000
0100
0000
1000
0000
,
0101
0000
0000
1100
0000
0000
1001
0000
,
0011
0000
0000
1010
0000
0000
1001
0000
,
0110
0000
0000
1100
0000
0000
1001
0000
,
0101
0000
0000
0110
0000
0000
1010
1002
,
0000
0000
0000
0000
0000
0000
0000
0000
0003
0000
0000
0000
0110
0000
0100
0010
1000
0000
0000
0000
0001
0000
0010
0000
0100
0000
0000
0000
0010
0000
0000
0000
,
0001
1000
0010
0000
0100
0000
0010
1000
0100
0000
0010
0001
0010
0000
0100
0000
,
1000
0001
0100
0000
0010
0000
1000
0001
0010
0000
0100
1000
0001
0000
0100
0000
,
0010
1000
0100
0000
0010
0000
0001
0010
0100
0000
1000
0001
0100
0000
0010
0000
,
1000
0001
0010
0000
0100
0000
1000
0001
0100
0000
0001
0010
0100
0000
0010
0000
,
0001
1000
0010
0000
0100
0000
0010
1000
0100
0000
1000
0001
0100
0000
0010
0000
,
1000
0001
0010
0000
0100
0000
1000
0001
0100
0000
0010
1000
0100
0000
0010
0000
,
0001
0010
0100
0000
1000
0000
0001
0100
0010
0000
1000
0100
0010
0000
0100
0000
,
1000
0001
0100
0000
0010
0000
1000
0100
0010
0000
0010
0001
0010
0000
1000
0000
,
0010
0001
0100
0000
1000
0000
0100
0001
0010
0000
1000
0010
0001
0000
0100
0000
,
1000
0100
0001
0000
0010
0000
0100
1000
0010
0000
0001
0010
1000
0000
0100
0000
,
0010
0001
0010
0000
1000
0000
0010
0001
0100
0000
1000
0100
0001
0000
0010
0000
,
0100
1000
0010
0000
0001
0000
0010
1000
0100
0000
1000
0010
0001
0000
0010
0000
,
1000
0100
0001
0000
0100
0000
1000
0001
0100
0000
0010
1000
0010
0000
0100
0000
,
0001
0010
1000
0000
0010
0000
0001
0100
0010
0000
0010
0100
0001
0000
1000
0000
,
1000
0100
0010
0000
0001
0000
0001
1000
0010
0000
0010
0100
0001
0000
0010
0000
,
0010
0100
1000
0000
0001
0000
0001
0100
0020
0000
2030
0000
3020
0000
0032
0000
,
0023
2030
3200
0302
0203
2300
3002
0203
,
0320
2030
3020
0032
0023
2030
3200
0302
,
0203
0320
0032
2003
3020
0230
0302
0203
,
0320
0000
2030
0000
3001
0000
0010
0001
1000
0000
1000
0100
0010
0000
0100
0000
,
1000
0001
0100
0000
0010
0000
0100
0001
0010
0000
0100
1000
0100
0000
0010
0000
,
0001
1000
0010
0000
0100
0000
0001
1000
0100
0000
0010
0001
1000
0000
0010
0000
,
0100
0001
0010
0000
0100
0000
1000
0100
0010
0000
0001
1000
0010
0000
0100
0000
,
0001
1000
0100
0000
0010
0000
0001
1000
0010
0000
1000
0100
0010
0000
0100
0000
,
1000
0001
0100
0000
0010
0000
0100
0001
0010
0000
0001
1000
0010
0000
0100
0000
,
0001
1000
0100
0000
0010
0000
0001
1000
0010
0000
0100
0001
0010
0000
0100
0000
,
1000
0100
0010
0000
0001
0000
1000
0010
0100
0000
0001
0010
0100
0000
0010
0000
,
0001
1000
0010
0000
0100
0000
0001
0010
1000
0000
0001
0010
0100
0000
0010
0000
,
0001
1000
0010
0000
0100
0000
0010
1000
0100
0000
0010
0001
0010
0000
0100
0000
,
1000
0001
0100
0000
0010
0000
1000
0001
0010
0000
0100
1000
0001
0000
0100
0000
,
0010
1000
0100
0000
0010
0000
0001
0010
0100
0000
1000
0001
0100
0000
0010
0000
,
1000
0001
0010
0000
0100
0000
1000
0001
0100
0000
0001
0010
0100
0000
0010
0000
,
0001
1000
0010
0000
0100
0000
0010
1000
0100
0000
1000
0001
0100
0000
0010
0000
,
1000
0001
0010
0000
0100
0000
1000
0001
0100
0000
0010
1000
0100
0000
0010
0000
,
0001
0010
0100
0000
1000
0000
0001
0100
0010
0000
1000
0100
0010
0000
0100
0000
,
1000
0001
0100
0000
0010
0000
1000
0100
0010
0000
0100
1000
0001
0000
1000
0000
,
0001
0100
0001
0000
1000
0000
0100
1000
0010
0000
1000
0001
0010
0000
0001
0000
,
1000
0010
1000
0000
0001
0000
0010
0100
1000
0000
0001
0100
0010
0000
0100
0000
,
0001
1000
0100
0000
0010
0000
0100
1000
0001
0000
0100
0010
1000
0000
0100
0000
,
0010
0001
0100
0000
0010
0000
1000
0001
0010
0000
0100
1000
0001
0000
0100
0000
,
0010
1000
0100
0000
0010
0000
0001
0010
0100
0000
0010
0001
0100
0000
0010
0000
,
1000
0010
0100
0000
0001
0000
1000
0100
0010
0000
0100
1000
0001
0000
0100
0000
,
0010
1000
0100
0000
1000
0000
0001
0100
0010
0000
0100
0001
1000
0000
0100
0000
,
0010
0001
1000
0000
0010
0000
0100
0001
1000
0000
0000
0000
0011
0000
0100
0000
,
0000
1010
0100
0001
2002
0000
0000
0000
,
0000
0000
0010
0000
,
3003
0000
0000
0000
;

//---------------dance-single - ----------------
#NOTES:
     dance-single:
     :
     Hard:
     7:
     0.464,0.495,0.044,0.114,0.013,353.000,5.000,13.000,0.000,0.000:
0000
0000
0000
0000
,
0000
0000
0000
0000
,
0000
0000
0000
0000
,
0000
0000
0000
0000
,
0000
0000
0000
0000
,
0000
0000
0000
0000
,
0000
0000
0000
0000
,
0101
0000
0000
1100
0000
0000
0001
1000
,
1001
0001
0100
0010
0100
0001
1000
0000
,
0010
1000
0100
0010
0100
1000
0001
0000
,
1000
0010
0100
0010
1000
0100
0010
0000
,
0001
0010
0100
0010
0001
1000
0100
0000
,
0010
0001
0100
0010
1000
0010
0100
0000
,
0001
1000
0100
0010
0001
0010
1000
0000
,
0010
0001
0100
0010
1000
0010
0100
0000
,
0001
1000
0100
0010
0001
0010
0100
1000
,
0001
0000
0000
1000
0000
0000
0100
0000
,
0010
0000
0000
0001
0000
0000
1000
0000
,
0010
0000
0000
0100
0000
0000
0001
0000
,
1000
0000
0000
0100
0000
0000
0020
0000
,
0000
0000
0000
0000
0000
0000
0000
0000
0000
0000
0000
0000
0130
0000
1000
0001
2000
0000
0000
0000
0000
0000
0000
0000
0010
0000
0000
0000
0000
0000
0000
0000
,
0100
0010
0100
0001
,
3010
1000
0100
0010
0002
0000
0010
0000
,
0100
0010
0100
1000
,
0013
0001
0100
0010
0200
0000
0010
0000
,
1000
0010
1000
0001
,
1300
0100
1000
0001
0020
0000
0100
0000
,
0001
0100
0001
1000
,
0031
1000
0100
0010
0002
0000
1000
0000
,
0100
1000
0010
0100
,
1003
0010
0100
0010
2000
0000
0100
0000
,
0010
0100
0001
0010
,
3100
0010
0001
1000
0020
0000
1000
0000
,
0001
1000
0100
0001
,
1030
0001
0010
0001
0200
0000
0010
0000
,
1000
0010
0001
1000
,
0310
0100
0001
1000
0220
0000
0000
0000
,
0000
0000
0000
0000
,
0000
0000
0330
0000
,
0000
0000
0000
0000
,
0000
0000
0000
0000
1000
0000
0001
0100
0001
0000
1000
0000
0010
0000
0100
0000
,
0010
1000
0001
0000
0100
0001
0010
0100
,
0010
0001
1000
1000
0001
0100
0010
0100
,
0001
0010
0100
0000
1000
0100
0010
0100
,
1000
0001
0010
0010
0100
1000
0010
0100
,
0001
0100
0010
0000
1000
0001
0010
0100
,
1000
0100
0001
0001
0100
1000
0010
0100
,
0001
0100
0010
0000
1000
0001
0010
0100
,
1000
0100
0010
0001
0100
0010
1000
0001
,
1000
0010
0100
0000
0010
1000
0001
1000
,
0010
0100
1000
1000
0100
1000
0001
1000
,
0100
0001
1000
0000
0010
0001
1000
0010
,
0100
0001
1000
1000
0001
0010
0001
1000
,
0100
1000
0001
0000
0010
0100
0001
1000
,
0010
0001
0100
0100
1000
0100
0001
1000
,
0100
1000
0001
0000
0010
0100
1000
0001
,
0100
0010
0100
0010
1000
0001
0100
0001
,
1000
0100
0010
0001
1000
0010
0100
0001
,
0010
0100
0010
0001
1000
0010
0100
0001
,
0010
0100
0010
0001
1000
0100
0010
0100
,
1000
0001
0100
0010
1000
0001
0010
0100
,
0010
0001
1000
0010
0100
0001
0100
0010
,
1000
0100
0001
0100
1000
0010
0001
0010
,
1000
0100
0001
1000
0010
0001
1000
0100
,
0001
0100
1000
0010
0100
0100
0010
1000
,
1000
0001
0001
1000
2002
0000
0000
0000
,
0000
0000
3003
0000
;

//---------------dance-single - ----------------
#NOTES:
     dance-single:
     :
     Medium:
     5:
     0.353,0.350,0.009,0.035,0.013,277.000,1.000,4.000,0.000,0.000:
0000
0000
0000
0000
,
0000
0000
0000
0000
,
0000
0000
0000
0000
,
0000
0000
0000
0000
,
0000
0000
0000
0000
,
0000
0000
0000
0000
,
0000
0000
0000
0000
,
0001
0000
0000
1000
0000
0000
0001
1000
,
0001
0100
0010
0100
,
0001
0000
1000
0000
0100
0000
0010
0100
,
1000
0100
0010
0100
,
1000
0000
0001
0000
0100
0000
0010
0100
,
0001
0010
0100
0010
,
0001
0000
1000
0000
0010
0000
0100
0010
,
1000
0010
0100
0010
,
1000
0000
0000
0001
0000
0000
0010
0000
0000
0100
0010
0100
,
0010
0000
0000
0010
0000
0000
0010
0000
,
0100
0000
0000
0100
0000
0000
0100
0000
,
1000
0000
0000
1000
0000
0000
1000
0000
,
0001
0000
0000
0001
0000
0000
0002
0000
,
0000
0000
0000
0000
0000
0000
1003
0001
1000
0000
0000
0000
1000
0000
0000
0000
,
0100
0000
1000
1000
1000
0000
0001
0000
,
0100
0000
0010
1000
0100
0000
0100
0000
,
1000
0000
0100
0100
0100
0000
0010
0000
,
0001
0000
1000
0100
0010
0000
0010
0000
,
0001
0000
0010
0010
0010
0000
0001
0000
,
1000
0000
0010
0100
0001
0000
0001
0000
,
0010
0000
0001
0001
0001
0000
0100
0000
,
0010
0000
1000
0100
0010
0000
0001
0000
,
1000
0000
0010
0100
0010
0000
1000
0000
,
0100
0000
0010
0001
0100
0000
0010
0000
,
1000
0000
0010
0100
0010
0000
1000
0000
,
0100
0000
0010
0001
1000
0000
0010
0000
,
0100
0000
0010
1000
0010
0000
1000
0000
,
0100
0000
0010
0001
0100
0000
0001
0000
,
1000
0000
0100
0010
0100
0000
1000
0000
,
0001
0000
0100
0010
0220
0000
0000
0000
,
0000
0000
0330
0000
,
0000
0000
1000
0000
0100
1000
0000
0100
,
1000
0001
0100
0010
,
0100
0000
0010
1000
0100
0000
0100
0000
,
0001
0000
0100
0010
0100
0000
0010
0000
,
0001
0000
1000
0100
0001
0000
0001
0000
,
0100
0000
0001
1000
0001
0000
1000
0000
,
0010
0000
0100
0001
1000
0000
1000
0000
,
0010
0000
1000
0001
1000
0000
0010
0000
,
0100
0000
1000
0001
0010
0000
0010
0000
,
1000
0000
0010
0100
0010
0000
0001
0000
,
1000
0000
0100
0001
1000
0000
0010
0000
,
0100
0000
1000
0001
1000
0000
0100
0000
,
0001
0000
1000
0010
0001
0000
1000
0000
,
0100
0000
1000
0001
1000
0000
0100
0000
,
0001
0000
1000
0010
0100
0000
1000
0000
,
0001
0000
1000
0100
1000
0000
0100
0000
,
0001
0000
1000
0010
0001
0000
0010
0000
,
0100
0000
0001
1000
0001
0000
0100
0000
,
0010
0000
0001
0010
0100
0000
1000
0000
,
0100
0000
1000
0100
1000
0000
0001
0000
,
1000
0000
0001
1000
0001
0000
0100
0000
,
0001
0000
0100
0001
0100
0000
0010
0000
,
0100
0000
0010
0100
0010
0000
1000
0000
,
0010
0000
1000
0010
1000
0000
0001
0000
,
1000
0000
0001
1000
0001
0000
0010
0000
,
0001
0000
0010
0001
0010
0000
0100
0000
,
0010
0000
0100
1000
0001
0001
0100
0010
,
0010
1000
0001
1000
0002
0000
0000
0000
,
0000
0000
1003
0000
;

//---------------dance-single - ----------------
#NOTES:
     dance-single:
     :
     Easy:
     3:
     0.247,0.262,0.175,0.053,0.000,171.000,20.000,6.000,0.000,0.000:
0000
0000
0000
0000
,
0000
0000
0000
0000
,
0000
0000
0000
0000
,
0000
0000
0000
0000
,
0000
0000
0000
0000
,
0000
0000
0000
0000
,
0000
0000
0000
0000
,
1001
0000
0001
1000
,
0001
0000
0100
0001
,
1000
0000
0100
1000
,
0001
0000
0010
0001
,
1000
0000
0010
1000
,
0001
0000
0010
0001
,
0100
0000
0010
1000
,
0100
0000
1000
0100
,
0010
0000
0001
0100
,
0010
0000
1001
0000
,
0100
0000
1001
0000
,
0010
0000
1100
0000
,
0101
0000
1001
0220
,
0000
0330
0010
0000
,
0100
0001
0010
0000
,
0100
1000
0010
0000
,
1000
0001
0010
0000
,
0001
1000
0010
0000
,
0100
0001
1000
0000
,
0100
1000
0001
0000
,
0010
0001
0100
0000
,
0010
1000
1100
0000
,
0010
0001
1000
0000
,
0010
0100
0001
0000
,
1000
0100
0010
0000
,
0001
1000
1010
0000
,
0100
0001
1000
0000
,
0100
0010
0011
0000
,
0100
0010
1000
0000
,
0001
1000
2002
0000
,
0000
0000
0000
0000
,
0000
0000
3003
0000
,
0000
0000
0000
0000
,
0000
1000
0001
0100
,
0001
1000
0100
0000
,
0110
0000
1000
0100
,
1000
0001
0100
0000
,
0110
0000
0001
0010
,
0001
1000
0010
0000
,
0110
0000
1000
0010
,
1000
0001
0010
0000
,
0110
0000
0001
1000
,
0010
0100
0001
0000
,
1100
0000
0010
0001
,
0100
0010
1000
0000
,
0011
0000
0100
1000
,
0001
0100
0010
0000
,
0101
0000
0010
1000
,
0100
0010
0001
0000
,
1010
0000
0100
0100
,
0001
1000
0100
0100
,
1000
0001
0010
0010
,
0001
1000
0010
0010
,
0100
0001
1000
1000
,
0100
0010
0001
0001
,
0010
0100
1000
1000
,
0001
0100
0010
0010
,
0100
0001
1000
0100
,
0010
0001
2002
0000
,
0000
0000
3003
0000
;

//---------------dance-single - ----------------
#NOTES:
     dance-single:
     :
     Beginner:
     1:
     0.140,0.175,0.061,0.000,0.000,105.000,7.000,0.000,0.000,0.000:
0000
0000
0000
0000
,
0000
0000
0000
0000
,
0000
0000
0000
0000
,
0000
0000
0000
0000
,
0000
0000
0000
0000
,
0000
0000
0000
0000
,
0000
0000
0000
0000
,
0000
0000
0000
0000
,
1000
0000
1000
0000
,
0001
0000
0001
0000
,
0010
0000
0010
0000
,
0100
0000
0100
0000
,
0010
0000
0010
0000
,
0001
0000
0001
0000
,
1000
0000
1000
0000
,
0100
0000
0100
0000
,
0110
0000
0000
0000
,
1001
0000
0000
0000
,
0110
0000
0000
0000
,
1001
0000
0000
0000
,
0000
0000
0100
0000
,
0001
0000
0100
0000
,
0010
0000
1000
0000
,
0100
0000
1000
0000
,
0010
0000
0100
0000
,
0001
0000
1000
0000
,
0100
0000
0010
0000
,
0001
0000
1000
0000
,
0010
0000
0110
0000
,
0100
0000
0001
0000
,
1000
0000
0100
0000
,
1000
0000
0001
0000
,
0100
0000
0010
0000
,
1000
0000
0001
0000
,
0010
0000
0100
0000
,
1000
0000
0001
0000
,
1000
0000
1001
0000
,
0000
0000
0000
0000
,
0000
0000
0000
0000
,
0000
0000
0000
0000
,
0000
0000
1000
0000
,
0100
0000
0001
0000
,
0010
0000
0001
0000
,
0100
0000
1000
0000
,
0010
0000
0100
0000
,
0001
0000
0100
0000
,
1000
0000
0010
0000
,
0001
0000
0010
0000
,
1000
0000
0100
0000
,
0010
0000
0001
0000
,
1000
0000
0010
0000
,
0100
0000
0001
0000
,
0100
0000
0010
0000
,
1000
0000
0100
0000
,
0010
0000
0001
0000
,
1000
0000
0010
0000
,
0100
0000
0001
0000
,
0100
0000
1000
0000
,
0010
0000
0001
0000
,
0100
0000
1000
0000
,
0010
0000
1000
0000
,
0100
0000
0001
0000
,
0010
0000
1000
0000
,
0100
0000
0001
0000
,
0010
0000
1000
0000
,
0001
0000
1001
0000
,
0000
0000
0100
0000
;

//---------------dance-double - ----------------
#NOTES:
     dance-double:
     :
     Challenge:
     10:
     0.776,0.968,0.175,0.298,0.552,566.000,20.000,34.000,0.000,1.000:
00000000
00000000
00000000
00000000
,
00000000
00000000
00000000
00000000
,
00000000
00000000
00000000
00000000
,
00000000
00000000
00000000
00000000
,
00000000
00000000
00000000
00000000
,
00000000
00000000
00000000
00000000
,
00000000
00000000
00000000
00000000
,
00110000
00000000
00000000
00000000
00000000
00000000
00001010
00000000
00000000
00000000
00000000
00000000
00011000
00000000
00001000
00010000
,
00001000
00010000
00000100
00001000
00000001
00000100
00000010
00000100
,
00000001
00001000
00000100
00010000
00001000
00100000
01000000
10000000
,
00010000
01000000
00001000
00010000
00000100
00001000
00000010
00000100
,
00000001
00001000
00000100
00010000
00001000
00100000
01000000
10000000
,
00010000
01000000
00100000
01000000
00010000
10000000
01000000
00100000
,
00010000
00100000
00001000
00010000
00000100
00001000
00000001
00000100
,
00000010
00001000
00000100
00001000
00000001
00000100
00000010
00001000
,
00000100
00000000
00000000
00010000
00000000
00000000
00001000
00000000
00000000
00100000
00000000
00000000
01000000
00000000
00000000
00100000
00000000
00000000
00010000
00000000
10000000
00000000
00100000
00000000
,
01100000
00000000
00000000
01010000
00000000
00000000
01001000
00000000
,
00011000
00000000
00000000
00010100
00000000
00000000
00001100
00000000
,
00000110
00000000
00000000
00000011
00000000
00000000
00001001
00000000
,
00001010
00000000
00000000
00010010
00000000
00000000
00020000
00002000
,
00000000
00000000
00000000
00000000
00000000
00000000
00000000
00000000
00000000
00000000
00033000
00000000
00011000
00000000
00001000
00010000
00001000
00000000
00000000
00000000
01000000
00000000
00001000
00000000
00010000
00000000
00000000
00000000
00000100
00000000
00000000
00000000
,
00001000
00000010
00000100
00000000
00000010
00000000
00001000
00000001
00000100
00000000
00000010
00001000
00000010
00000000
00000100
00000000
,
00000010
00001000
00000100
00000000
00000010
00000000
00000001
00000100
00000010
00000000
00001000
00000100
00010000
00000000
00001000
00000000
,
00100000
01000000
10000000
00000000
00100000
00000000
01000000
00100000
10000000
00000000
01000000
00100000
00010000
00000000
00100000
00000000
,
01000000
10000000
00010000
00000000
01000000
00000000
00010000
00100000
00001000
00000000
00010000
00000100
00001000
00000000
00000010
00000000
,
00000100
00000001
00001000
00000000
00000100
00000000
00000010
00000100
00001000
00000000
00000001
00000100
00000010
00000000
00000100
00000000
,
00000001
00001000
00000100
00000000
00000010
00000000
00000100
00001000
00000010
00000000
00010000
00001000
00100000
00000000
01000000
00000000
,
10000000
00010000
01000000
00000000
00100000
00000000
10000000
00010000
00100000
00000000
01000000
10000000
00010000
00000000
01000000
00000000
,
00100000
10000000
01000000
00000000
00100000
00000000
00010000
01000000
00100000
00000000
01000000
00001000
00010000
00000000
00000100
00000000
,
00001000
00000010
00000100
00000000
00000010
00000000
00001000
00000100
00000010
00000000
00000100
00001000
00000001
00000000
00000100
00000000
,
00000010
00001000
00000100
00000000
00001000
00000000
00000001
00000100
00000010
00000000
00010000
00001000
00100000
00000000
01000000
00000000
,
10000000
00010000
01000000
00000000
00100000
00000000
10000000
01000000
00100000
00000000
01000000
10000000
00010000
00000000
01000000
00000000
,
00100000
01000000
00010000
00000000
00100000
00000000
00001000
00010000
00001000
00000000
00010000
00000100
00001000
00000000
00000010
00000000
,
00000100
00000001
00000010
00000000
00000001
00000000
00000100
00000010
00001000
00000000
00000100
00001000
00000010
00000000
00000100
00000000
,
00000001
00001000
00000100
00000000
00000010
00000000
00000100
00001000
00000010
00000000
00010000
00001000
00100000
00000000
00010000
00000000
,
00100000
01000000
10000000
00000000
00100000
00000000
01000000
00010000
00100000
00000000
00001000
00010000
00000100
00000000
00001000
00000000
,
00000010
00000100
00000001
00000000
00001000
00000000
00000100
00000010
00000002
00000000
00000203
00000000
00002300
00000000
02003000
00000000
,
23000000
32000000
03020000
20030000
30200000
00302000
00003020
00000032
,
00000023
00002030
00003200
00000320
00000230
00002300
00003200
00000302
,
00000203
00020300
02030000
03200000
00320000
20030000
30200000
02300000
,
03020000
00000000
20030000
00000000
30010000
00000000
00010000
00100000
01000000
00000000
10000000
00100000
01000000
00000000
00100000
00000000
,
10000000
01000000
00100000
00000000
00010000
00000000
00100000
01000000
10000000
00000000
00010000
01000000
00100000
00000000
10000000
00000000
,
01000000
00100000
00010000
00000000
00100000
00000000
01000000
10000000
00010000
00000000
01000000
00001000
00010000
00000000
00000100
00000000
,
00001000
00000010
00000100
00000000
00000010
00000000
00001000
00000100
00000010
00000000
00000100
00001000
00000001
00000000
00000100
00000000
,
00000010
00000100
00000001
00000000
00001000
00000000
00000100
00001000
00000010
00000000
00010000
00001000
00100000
00000000
01000000
00000000
,
10000000
00010000
01000000
00000000
00100000
00000000
10000000
01000000
00100000
00000000
01000000
10000000
00010000
00000000
01000000
00000000
,
00100000
10000000
01000000
00000000
00100000
00000000
00010000
00100000
01000000
00000000
00100000
00001000
00010000
00000000
00000100
00000000
,
00001000
00000010
00000100
00000000
00000010
00000000
00001000
00000001
00000010
00000000
00000100
00001000
00000001
00000000
00000100
00000000
,
00000010
00001000
00000100
00000000
00001000
00000000
00000010
00010000
00000010
00000000
00010000
00000100
00001000
00000000
01000000
00000000
,
00010000
01000000
10000000
00000000
01000000
00000000
00010000
00100000
00010000
00000000
10000000
00100000
10000000
00000000
00010000
00000000
,
00100000
10000000
00100000
00000000
00010000
00000000
01000000
10000000
01000000
00000000
00010000
00100000
00001000
00000000
00010000
00000000
,
00000100
00000010
00000001
00000000
00001000
00000000
00000010
00000001
00000010
00000000
00001000
00000001
00001000
00000000
00000001
00000000
,
00000010
00001000
00000010
00000000
00000001
00000000
00000100
00000010
00001000
00000000
00000010
00010000
00001000
00000000
00100000
00000000
,
00010000
01000000
00100000
00000000
01000000
00000000
00010000
00100000
01000000
00000000
10000000
01000000
00010000
00000000
01000000
00000000
,
10000000
00100000
01000000
00000000
00010000
00000000
01000000
00100000
10000000
00000000
00010000
00100000
00001000
00000000
00010000
00000000
,
00000100
00000010
00000001
00000000
00000100
00000000
00000010
00001000
00000010
00000000
00000001
00000010
00000001
00000000
00000010
00000000
,
00001000
00000100
00001000
00000000
00000100
00000000
00000001
00000100
00001000
00000000
00000001
00000010
00000001
00000000
00001000
00000000
,
00000010
00001000
00000010
00000000
00001000
00000000
00000001
00000100
00000001
00000000
00001000
00000100
00001000
00000000
00000001
00000000
,
00000100
00000010
00000100
00000000
00000001
00000000
00001000
00000001
00001000
00000000
00000100
00010000
00001000
00000000
00100000
00000000
,
00010000
01000000
00100000
00000000
10000000
00000000
00010000
00100000
00001000
00000000
00010000
00000100
00000010
00000000
00000001
00000000
,
00000100
00000010
00001000
00000000
00000100
00000000
00010000
00001000
00100000
00000000
00010000
10000000
00010000
00000000
00100000
00000000
,
01000000
00100000
01000000
00000000
10000000
00000000
01000000
10000000
01000000
00000000
10000000
00010000
10000000
00000000
00010000
00000000
,
00100000
00010000
00100000
00000000
01000000
00000000
10000000
01000000
10000000
00000000
00010000
00100000
00001000
00000000
00010000
00000000
,
00000100
00000010
00000001
00000000
00000100
00000000
00000010
00001000
00000100
00000000
00010000
00001000
00100000
00000000
00010000
00000000
,
01000000
00100000
10000000
00000000
00010000
00000000
00100000
00010000
01010000
00000000
00000000
00000000
00000100
00000000
00001100
00000000
,
00000000
00100000
00110000
00000000
00022000
00000000
00000000
00000000
,
00000000
00000000
00100010
00000000
,
00033000
00000000
00000000
00000000
;

//---------------dance-double - ----------------
#NOTES:
     dance-double:
     :
     Hard:
     8:
     0.514,0.495,0.035,0.044,0.013,402.000,4.000,5.000,0.000,0.000:
00000000
00000000
00000000
00000000
,
00000000
00000000
00000000
00000000
,
00000000
00000000
00000000
00000000
,
00000000
00000000
00000000
00000000
,
00000000
00000000
00000000
00000000
,
00000000
00000000
00000000
00000000
,
00000000
00000000
00000000
00000000
,
11000000
00000000
00000000
01010000
00000000
00000000
00001000
00010000
,
00000100
00001000
00000010
00000100
00000001
00001000
00000100
00000000
,
00001000
00000001
00000100
00000010
00001000
00000100
00010000
00000000
,
01000000
10000000
00010000
01000000
00100000
10000000
00010000
00000000
,
00100000
01000000
10000000
00100000
01000000
00001000
00010000
00000000
,
00000100
00001000
00000010
00000100
00000001
00001000
00000100
00000000
,
00001000
00000001
00000100
00000010
00001000
00000100
00010000
00000000
,
00100000
10000000
01000000
00100000
00010000
01000000
00100000
00000000
,
01000000
00010000
10000000
01000000
00100000
00010000
01000000
00001000
,
00010000
00000000
00000000
00000100
00000000
00000000
00010000
00000000
,
00000100
00000000
00000000
01000000
00000000
00000000
00000010
00000000
,
00010000
00000000
00000000
00000001
00000000
00000000
00000100
00000000
,
00010000
00000000
00000000
00100000
00000000
00000000
02000000
00000000
,
00000000
00000000
00000000
00000000
00000000
00000000
00000000
00000000
03000000
00000000
00000000
00000000
00100000
00000000
01000000
00100000
01000000
00000000
00000000
00000000
00010000
00000000
00000000
00000000
10000000
00000000
00000000
00000000
01000000
00000000
00000000
00000000
,
00100000
00010000
00100000
01000000
10000000
00010000
01000000
00100000
,
10000000
00010000
00100000
00000000
00001000
00000100
00000001
00001000
,
00000100
00000010
00000001
00001000
00000010
00000100
00000010
00001000
,
00000100
00000010
00000100
00000000
00010000
01000000
10000000
00010000
,
01000000
00100000
10000000
00100000
01000000
00010000
10000000
01000000
,
00010000
01000000
10000000
00000000
00001000
00010000
00000100
00001000
,
00000010
00000100
00000001
00001000
00000100
00000010
00000100
00001000
,
00000001
00000100
00000010
00000000
00100000
01000000
10000000
00010000
,
01000000
10000000
01000000
00010000
10000000
01000000
00010000
01000000
,
10000000
00100000
00010000
00000000
00100000
10000000
01000000
00100000
,
00001000
00010000
00000100
00001000
00000001
00000100
00001000
00000100
,
00000001
00001000
00000100
00000000
00000010
00000001
00000100
00001000
,
00000100
00000001
00001000
00000100
00010000
00001000
00100000
01000000
,
10000000
00010000
01000000
00000000
00100000
10000000
01000000
00100000
,
00010000
00100000
00001000
00010000
00000100
00001000
00000010
00000100
,
00000010
00010000
00000100
00010000
00022000
00000000
00000000
00000000
,
00000000
00000000
00000000
00000000
,
00000000
00000000
00000000
00000000
00000000
00000000
00000000
00000000
00000000
00000000
00000000
00000000
00000000
00000000
00000000
00000000
00000000
00000000
00000000
00000000
00000000
00000000
00000000
00000000
00000000
00000000
00000000
00000000
00000000
00000000
00000000
00000000
00030000
00003000
00000000
00000000
00000000
00000000
00000000
00000000
00000000
00000000
00000000
00000000
00000000
00000000
00000000
00000000
00000000
00000000
00000000
00000000
00000000
00000000
00000000
00000000
00000000
00000000
00000000
00000000
00000000
00000000
00000000
00000000
,
00000000
00000000
00000000
00000000
,
00000000
00000000
00000000
00000000
00001000
00000000
00010000
00001000
00010000
00000000
00001000
00000000
00100000
00000000
01000000
00000000
,
10000000
00100000
01000000
01000000
00100000
10000000
01000000
00100000
,
00010000
00100000
00001000
00001000
00010000
00000100
00001000
00000010
,
00000100
00000001
00000010
00000010
00000100
00010000
00001000
00100000
,
01000000
10000000
00100000
00100000
10000000
00010000
00100000
01000000
,
00100000
00010000
10000000
10000000
00010000
01000000
00001000
00010000
,
00000100
00000010
00000100
00000100
00000010
00000001
00001000
00000100
,
00010000
00001000
01000000
01000000
00100000
10000000
01000000
00100000
,
00010000
00100000
00001000
00010000
00001000
00010000
00000100
00000010
,
00000001
00000100
00000010
00000010
00000100
00000001
00000010
00000100
,
00001000
00000100
00010000
00010000
00001000
00100000
00010000
01000000
,
00100000
10000000
01000000
01000000
00100000
00001000
00010000
00000100
,
00000010
00000001
00000100
00000100
00000001
00001000
00000100
00000010
,
00000100
00001000
00000001
00000001
00001000
00000010
00010000
00001000
,
00100000
01000000
00100000
00100000
01000000
10000000
00010000
00100000
,
00001000
00010000
00000010
00000010
00000100
00000001
00000010
00000100
,
00001000
00000100
00010000
00001000
00010000
00010000
00000100
00010000
,
00010000
00001000
00100000
01000000
10000000
10000000
00100000
10000000
,
10000000
00100000
01000000
00010000
01000000
01000000
00100000
01000000
,
01000000
00010000
00100000
00010000
00100000
00100000
01000000
00100000
,
00100000
01000000
10000000
00010000
00000100
00000100
00000001
00000100
,
00000100
00000010
00001000
00000100
00000010
00000010
00000100
00000010
,
00000010
00000001
00000100
00000010
00001000
00001000
00000100
00001000
,
00001000
00000010
00000100
00000010
00000001
00000001
00000010
00000001
,
00000001
00000010
00001000
00000100
00000010
00000010
00000100
00000010
,
00000010
00000100
00000010
00000100
00000220
00000000
00000000
00000000
,
00000000
00000000
00000330
00000000
;

//---------------dance-double - ----------------
#NOTES:
     dance-double:
     :
     Medium:
     5:
     0.348,0.437,0.018,0.044,0.000,271.000,2.000,5.000,0.000,0.000:
00000000
00000000
00000000
00000000
,
00000000
00000000
00000000
00000000
,
00000000
00000000
00000000
00000000
,
00000000
00000000
00000000
00000000
,
00000000
00000000
00000000
00000000
,
00000000
00000000
00000000
00000000
,
00000000
00000000
00000000
00000000
,
00010000
00000000
00000000
00010000
00000000
00000000
00000100
00001000
,
00000100
00000010
00000001
00001000
,
00000010
00000000
00010000
00000000
00001000
00000000
00100000
01000000
,
10000000
00010000
01000000
10000000
,
01000000
00000000
00010000
00000000
00100000
00000000
00001000
00010000
,
00000100
00001000
00000010
00000100
,
00000001
00000000
00001000
00000000
00000100
00000000
00010000
00001000
,
00010000
00000100
00001000
00000010
,
00000100
00000000
00000010
00000000
00001000
00000000
00000100
00010000
,
00001000
00000000
00000000
00001000
00000000
00000000
00001000
00000000
,
00010000
00000000
00000000
00010000
00000000
00000000
00010000
00000000
,
00000010
00000000
00000000
00100000
00000000
00000000
00000100
00000000
,
01000000
00000000
00000000
00001000
00000000
00000000
00020000
00000000
,
00000000
00000000
00031000
00010000
,
00000100
00010000
00001000
00100000
,
01000000
00000000
10000000
00100000
01000000
00000000
00010000
00000000
,
00100000
00001000
00010000
00000100
,
00010000
00000000
00000100
00001000
00000010
00000000
00000100
00000000
,
00000001
00001000
00000100
00010000
,
00001000
00000000
00100000
01000000
10000000
00000000
00100000
00000000
,
00010000
00100000
10000000
01000000
,
00010000
00000000
01000000
10000000
00010000
00000000
01000000
00000000
,
00001000
00010000
00000100
00001000
,
00000010
00000000
00000100
00000001
00001000
00000000
00000100
00000000
,
00010000
00001000
00100000
01000000
,
10000000
00000000
00010000
01000000
00100000
00000000
10000000
00000000
,
00010000
00100000
00001000
00010000
,
00000100
00000000
00001000
00000010
00000100
00000000
00000010
00000000
,
00001000
00000001
00000010
00000100
,
00001000
00000000
00000100
00010000
00022000
00000000
00000000
00000000
,
00000000
00000000
00000000
00000000
,
00000000
00000000
00033000
00000000
,
00000000
00000000
00000000
00000000
,
00000000
00000000
00001000
00010000
00001000
00000000
00100000
00000000
,
01000000
00000000
10000000
00010000
10000000
00000000
00100000
00000000
,
01000000
00000000
00010000
00100000
00001000
00000000
00010000
00000000
,
00000100
00000000
00001000
00000010
00001000
00000000
00000010
00000000
,
00000100
00000000
00000001
00001000
00000100
00000000
00010000
00000000
,
00001000
00000000
00100000
01000000
00100000
00000000
00010000
00000000
,
10000000
00000000
00100000
01000000
00010000
00000000
00100000
00000000
,
00001000
00000000
00010000
00000100
00010000
00000000
00000010
00000000
,
00000100
00000000
00000001
00001000
00000100
00000000
00010000
00000000
,
00001000
00000000
00100000
01000000
00100000
00000000
01000000
00000000
,
10000000
00000000
00010000
01000000
00001000
00000000
00010000
00000000
,
00000100
00000000
00001000
00000010
00001000
00000000
00000010
00000000
,
00000100
00000000
00000001
00001000
00000100
00000000
00010000
00000000
,
00001000
00000000
00100000
00010000
00100000
00000000
01000000
00000000
,
10000000
00000000
00010000
01000000
00100000
00000000
01000000
00000000
,
00010000
00000000
00100000
00001000
00100000
00000000
00001000
00000000
,
00010000
00000000
00000100
00001000
00000010
00001000
00000010
00000100
,
00000010
00001000
00000010
00000000
00000100
00000001
00000100
00000010
,
00000100
00000001
00000100
00000000
00000010
00010000
00001000
00010000
,
00000100
00100000
00010000
00000000
01000000
10000000
00010000
00100000
,
00001000
00010000
00001000
00000000
00100000
01000000
10000000
01000000
,
00100000
00010000
00100000
00000000
01000000
00010000
01000000
00100000
,
10000000
01000000
10000000
00000000
00010000
01000000
00001000
00010000
,
00000100
00001000
00000010
00000000
00000100
00000001
00001000
00000100
,
00010000
00001000
00100000
00000000
00001000
00001000
00010000
00001000
,
00001000
00010000
00001000
00000000
00022000
00000000
00000000
00000000
,
00000000
00000000
00033000
00000000
;

//---------------dance-double - ----------------
#NOTES:
     dance-double:
     :
     Easy:
     3:
     0.234,0.262,0.131,0.044,0.000,167.000,15.000,5.000,0.000,0.000:
00000000
00000000
00000000
00000000
,
00000000
00000000
00000000
00000000
,
00000000
00000000
00000000
00000000
,
00000000
00000000
00000000
00000000
,
00000000
00000000
00000000
00000000
,
00000000
00000000
00000000
00000000
,
00000000
00000000
00000000
00000000
,
01000000
00000000
01000000
01000000
,
01000000
00000000
00010000
00100000
,
00001000
00000000
00010000
00000100
,
00001000
00000000
00000010
00000100
,
00000001
00000000
00001000
00000100
,
00010000
00000000
00001000
00010000
,
00000100
00000000
00010000
00001000
,
00100000
00000000
00010000
10000000
,
00100000
00000000
01000000
00010000
,
00100000
00000000
01000000
00000000
,
10000000
00000000
00010000
00000000
,
00000100
00000000
00000001
00000000
,
00001000
00000000
00000020
00000000
,
00000000
00000000
00001030
00000000
,
00000100
00010000
00001000
00000000
,
00100000
01000000
10000000
00000000
,
00010000
01000000
00001000
00000000
,
00010000
00000100
00001000
00000000
,
00000010
00000100
00000001
00000000
,
00001000
00000100
00010000
00000000
,
00100000
01000000
10000000
00000000
,
00100000
01000000
01010000
00000000
,
00100000
01000000
10000000
00000000
,
00100000
01000000
00010000
00000000
,
00100000
00001000
00010000
00000000
,
00000100
00001000
00001010
00000000
,
00000100
00000001
00001000
00000000
,
00000100
00010000
00011000
00000000
,
00100000
01000000
10000000
00000000
,
00100000
01000000
02020000
00000000
,
00000000
00000000
00000000
00000000
,
00000000
00000000
03030000
00000000
,
00000000
00000000
00000000
00000000
,
00000000
00000000
10000000
00010000
,
01000000
00100000
01000000
00000000
,
01010000
00000000
00100000
00001000
,
00010000
00000100
00001000
00000000
,
00001010
00000000
00000100
00000001
,
00001000
00000100
00000010
00000000
,
00001100
00000000
00000010
00000001
,
00001000
00000010
00010000
00000000
,
00011000
00000000
00001000
00100000
,
01000000
10000000
00100000
00000000
,
01010000
00000000
00100000
01000000
,
00010000
00100000
00001000
00000000
,
00010100
00000000
00001000
00000001
,
00000100
00000010
00001000
00000000
,
00000101
00000000
00001000
00000100
,
00000010
00000100
00001000
00000000
,
00011000
00000000
00010000
00010000
,
00001000
00100000
01000000
01000000
,
10000000
00100000
10000000
10000000
,
00010000
01000000
00100000
00100000
,
01000000
00001000
00000100
00000100
,
00000001
00001000
00000010
00000010
,
00000100
00000010
00001000
00001000
,
00000100
00000010
00000001
00000001
,
00001000
00000010
00000110
00000000
,
00001010
00000000
00002002
00000000
,
00000000
00000000
00003003
00000000
;
