#TITLE:Hand Maid May;
#SUBTITLE:- Jump Meippai Dakishimete! [Para Para Mix];
#ARTIST:Kumano/Ishida/Nakajima;
#TITLETRANSLIT:;
#SUBTITLETRANSLIT:;
#ARTISTTRANSLIT:;
#CREDIT:Anime Toshokan;
#BANNER:Hand Maid May - Jump Meippai Dakishimete! [Para Para Mix].png;
#BACKGROUND:Hand Maid May - Jump Meippai Dakishimete! [Para Para Mix] bg.png;
#LYRICSPATH:;
#CDTITLE:dejiko.png;
#MUSIC:Hand Maid May - Jump Meippai Dakishimete! [Para Para Mix].mp3;
#OFFSET:-0.210;
#SAMPLESTART:88.550;
#SAMPLELENGTH:12.700;
#SELECTABLE:YES;
#BPMS:0.000=152.010;
#STOPS:;
#BGCHANGES:20.000=Hand Maid May - Jump Meippai Dakishimete! [Para Para Mix].avi=1.000=0=0=1,
320.000=Hand Maid May - Jump Meippai Dakishimete! [Para Para Mix] bg.png=1.000=0=0=1,
99999=-nosongbg-=1.000=0=0=0 // don't automatically add -songbackground-
;
// cache tags:
#FIRSTBEAT:4.000;
#LASTBEAT:324.000;
#SONGFILENAME:Songs/DDR Anime 4th Mix/Hand Maid May - Jump Meippai Dakishimete! [Para Para Mix]/Hand Maid May - Jump Meippai Dakishimete! [Para Para Mix].sm;
#HASMUSIC:1;
#HASBANNER:1;
#MUSICLENGTH:134.559;
// end cache tags

//---------------dance-single - BASIC----------------
#NOTES:
     dance-single:
     BASIC:
     Easy:
     4:
     0.297,0.301,0.186,0.030,0.000,251.000,25.000,4.000,0.000,0.000:
0000
0000
0000
0000
,
0000
0000
0000
0000
,
0000
0000
0000
0000
,
0000
0000
0000
0000
,
0000
0000
1000
1000
,
1001
0010
0001
0010
,
0000
1000
0010
1000
,
0000
0001
0100
0001
,
0000
0001
1000
1001
,
0010
0010
0010
0001
,
1000
0000
0100
1000
,
0100
0100
0001
0000
,
0010
0100
0010
1000
,
1001
0000
0100
0000
,
0100
0000
1001
0000
,
1000
1000
1000
0001
,
0001
0001
0100
0100
,
1001
0001
0001
1000
,
1000
0001
0001
1000
,
1000
0001
0010
0000
,
1001
0000
1001
0000
,
0001
0001
1000
1000
,
0001
0001
1000
1000
,
0001
0001
0100
1000
,
0000
1001
0000
0000
,
1001
0100
0100
0100
,
1000
0001
1000
0000
,
0010
0010
0001
1000
,
0001
0000
0000
0010
0000
0010
0000
0000
,
0000
0001
1000
1000
,
0001
0100
0100
0000
,
0001
0000
0100
0000
0001
0000
0000
0100
,
0000
0100
0000
0000
0010
0000
0010
0000
,
0010
0000
1000
0000
1000
0000
0000
1001
,
0000
0000
0010
0010
,
0010
0000
0001
0000
0001
0000
0000
1001
,
0000
0001
0001
0010
,
0010
1000
1000
0010
,
0010
0001
0001
0100
,
1001
0000
0010
0000
,
1001
0100
0010
0001
,
0100
1000
0001
0000
,
0001
1000
0100
0100
,
0001
0000
0000
1000
0000
0001
0000
0000
,
0000
1000
0010
1000
,
1000
0010
1000
0000
,
1000
0001
0001
0010
,
0010
0001
1000
1000
,
0001
0000
0001
0000
0100
0000
0000
1001
,
0000
0000
0010
0010
,
0001
0000
0001
0000
1000
0000
0000
1001
,
0000
0000
1000
0100
,
1000
0100
1000
0100
,
1000
0100
1000
0100
,
2000
0000
0000
0000
,
0000
3000
0010
1001
,
0000
1000
0001
1000
,
0100
0010
0010
0100
,
0001
0100
0001
1000
,
0100
0000
0000
0110
0000
0000
0100
0000
,
1000
1000
0100
0100
,
0001
0001
1001
0000
,
0001
0010
0100
0001
,
1000
0000
0100
0000
0000
1001
0000
0000
,
0100
0010
0001
0100
,
0100
0001
0001
1000
,
1000
1000
0001
0100
,
0001
0100
1000
0010
,
0020
0000
0000
0000
,
0000
0000
0000
0000
0000
0030
0000
0000
,
0100
0100
0100
0001
,
1000
0001
0010
0100
,
1001
0100
0001
0100
,
1000
0100
1000
0001
,
1000
0001
1000
0001
,
1001
0000
0110
0000
,
1001
0010
0100
1000
,
0001
0010
0100
1000
,
0100
0010
0001
0100
,
1000
0100
1001
0000
,
2002
0000
0000
0000
,
3003
0000
0000
0000
;

//---------------dance-single - ANOTHER----------------
#NOTES:
     dance-single:
     ANOTHER:
     Medium:
     5:
     0.345,0.421,0.268,0.067,0.004,280.000,36.000,9.000,0.000,0.000:
0000
0000
0000
0000
,
2000
0000
0000
0000
,
0020
3000
0000
0000
0000
0000
0000
0000
0000
0000
0000
0000
0000
0000
0000
0000
,
0200
0030
0000
0000
0000
0000
0000
0000
0000
0000
0000
0000
0000
0000
0000
0000
,
0002
0300
0000
0000
0000
0000
0000
0000
1000
0000
0000
0000
1000
0000
0000
0000
,
1003
0010
0001
1000
,
0001
0001
1000
0001
,
1000
0001
0100
1000
,
1000
0001
1000
1001
,
1000
1000
1000
0001
,
0001
0010
0100
1000
,
0100
0100
0001
0010
,
0010
0100
0100
0001
,
1001
0010
0100
1000
,
0100
0001
1000
0000
,
0110
0110
1100
1100
,
0101
0101
2002
3003
,
1001
0001
0001
0001
,
1000
1000
1000
0001
,
0001
0001
0010
0100
,
1000
0100
1000
0100
,
0001
0001
0001
1000
,
1000
1000
0100
0100
,
0100
0001
0100
1000
,
0100
0001
1000
0001
,
1001
0100
0100
0010
,
1000
0001
0001
0100
,
0100
0010
0100
1000
,
0001
0000
0000
1001
0000
1001
0000
0000
,
0000
0001
0001
1000
,
0001
1000
1000
0100
,
0001
0000
0100
0000
0010
0000
0000
0101
,
0000
0101
0000
0000
0010
0000
0010
0000
,
0100
0000
1100
0000
0100
0000
0000
1001
,
0000
0000
0010
0010
,
0100
0000
0101
0000
0100
0000
0000
1001
,
0000
0001
0001
0100
,
0100
0010
0010
1000
,
1000
0010
0010
0100
,
0100
0001
1000
0100
,
1001
0100
0100
0001
,
0010
1000
1000
0001
,
0001
0100
0010
0001
,
1000
0000
0000
1001
0000
1001
0000
0000
,
0000
1000
0010
1000
,
0001
0010
0001
1000
,
1000
0001
1000
0010
,
0001
1000
1000
1000
,
1000
0000
0001
0000
0100
0000
0000
1001
,
0000
0000
0100
0010
,
0001
0000
1000
0000
1000
0000
0000
1001
,
0000
0000
0010
0010
,
0001
0001
1000
1000
,
1000
1000
1000
1000
,
2000
0000
0000
0000
,
0000
3000
0110
1001
,
0001
1000
0001
1000
,
0100
0010
0010
0100
,
0100
0100
0001
0100
,
1000
0000
0000
0011
0000
0000
0100
0000
,
0001
0001
0100
0010
,
0100
0010
1001
0000
,
0001
1000
0010
0001
,
1000
0000
0010
0000
0000
1001
0000
0000
,
0100
0010
0001
0010
,
0100
1000
0010
0001
,
1000
1000
0001
0010
,
1000
0100
0010
0100
,
0020
0000
0000
0000
,
0031
0001
0001
0000
,
0100
0100
1001
0001
,
1000
1010
0011
0010
,
1001
0010
0001
0100
,
0001
0010
1000
0100
,
1000
1000
0001
1000
,
0001
1001
1000
1001
,
1000
0010
0100
0010
,
0001
0100
0010
1000
,
0100
0001
1000
0001
,
0010
0000
0010
0020
0000
0000
0000
0000
,
0030
0000
0000
0000
0000
0000
0000
0000
0000
0000
0000
0000
0000
0000
0000
1001
;

//---------------dance-single - MANIAC----------------
#NOTES:
     dance-single:
     MANIAC:
     Hard:
     7:
     0.461,0.541,0.349,0.141,0.015,368.000,47.000,19.000,0.000,0.000:
0000
0000
0000
0000
,
2000
0000
0000
0000
,
0020
3000
0000
0000
0000
0000
0000
0000
0000
0000
0000
0000
0000
0000
0000
0000
,
0200
0030
0000
0000
0000
0000
0000
0000
0000
0000
0000
0000
0000
0000
0000
0000
,
0002
0300
0000
0000
0000
0000
0000
0000
1000
0000
1000
0000
1000
0000
1000
0000
,
1003
0010
0001
1000
,
0110
0001
1000
0100
,
0110
0001
0100
1000
,
1000
0100
0001
0100
1000
0100
0001
0000
,
1000
0100
1000
0000
0010
0000
0001
0001
,
0000
0100
0000
0010
0000
1000
1000
1000
,
0100
0010
0100
0001
1000
0000
0010
0100
,
0010
0100
0000
0100
0000
0001
0100
1000
,
0110
0000
0000
0001
0100
0000
1000
0000
,
0100
0010
1000
0100
0000
0000
0001
0000
,
0110
1001
0110
0110
,
1100
0101
0110
0110
,
1001
0200
0001
0301
,
0020
1000
1030
2000
,
0010
3001
0010
0010
,
1000
0100
1000
0000
1000
0100
1000
0000
,
0020
0001
0031
0020
,
1000
1030
0020
0100
,
0130
0001
0100
1000
,
0100
0010
0100
0001
0100
1000
0100
1000
,
0001
0000
0100
1000
0100
1000
0100
0100
,
0000
0100
0000
0001
0000
1000
0100
1000
,
0100
0000
0100
0000
0100
0001
0000
0100
,
0000
1000
0000
1001
0000
1001
0000
0000
,
0000
0000
0001
0010
0100
0001
0100
0100
,
0000
0001
0000
1001
0000
1000
0100
0010
,
0001
0000
1000
0000
0010
0010
0000
0001
,
0000
0101
0000
0000
0001
1000
0001
1000
,
0020
0000
1030
0000
0100
0001
0000
1001
,
0000
0000
0000
0000
0010
0100
0010
0001
,
2000
0000
3001
0000
0100
1000
0000
1001
,
0000
0001
0101
0100
,
1100
0010
0011
0010
,
1010
0011
1100
0101
,
0001
0010
0001
0010
1000
0010
1000
0000
,
1001
0000
0100
0001
0100
0001
1000
0100
,
0000
1000
0000
0110
0000
1000
0001
1000
,
0001
0000
0100
0000
0010
0100
0000
0001
,
0000
1000
0000
1001
0000
1001
0000
0000
,
0000
0000
1000
0100
0010
0001
1000
0001
,
0000
0010
0000
0010
0000
0001
1000
0001
,
1000
0000
0001
0000
1000
0100
0000
0001
,
0000
0001
0000
0000
1000
0001
1000
0001
,
0020
0000
0031
0000
1000
0100
0000
0110
,
0000
0000
0000
0000
0100
0010
0010
0100
,
0001
0000
1000
0000
0010
0100
0000
1001
,
0000
0000
0000
0000
0010
0100
0001
1000
,
0010
0000
0001
0000
1000
0000
0010
0001
,
0000
1000
0000
1000
0000
0010
1000
0010
,
2020
0000
0000
0000
,
0000
3030
0110
0110
,
0001
0001
1000
0000
0100
0000
0001
1000
,
0000
0100
0000
0001
0000
1000
0100
0010
,
0001
0010
0100
0010
0001
0000
1000
0100
,
0000
0010
0000
0011
0000
1000
0100
1000
,
0002
0000
0000
1003
0100
0000
0010
0000
,
0100
0001
1000
0001
0000
0000
0000
0010
,
0001
0000
1100
0000
0010
0001
0001
1000
,
0000
0100
0000
0010
0000
1001
0000
0000
,
0100
0100
0010
0001
0010
0000
0010
0010
,
0000
1000
0000
0010
0000
0001
0001
0001
,
1000
0000
1000
0000
0010
0000
0010
0001
,
0000
0001
0000
1000
0000
1000
0100
1000
,
0020
0000
0230
0000
,
0310
1000
0001
0100
0000
0000
0000
0000
,
1001
1001
0110
0011
,
1010
1100
0101
0110
,
1001
0010
0001
0010
,
0001
1000
0100
1000
,
0100
1000
0001
1000
,
1000
0001
1000
0000
0001
1000
0001
0000
,
1000
0100
0010
0001
,
0010
0100
1000
0100
,
0010
0001
1000
0001
,
1000
0000
0010
0000
1000
0000
0020
0000
0000
0000
0000
0000
0000
0000
0000
0100
,
0030
0000
0000
1000
0000
0000
0001
0000
0000
1000
0000
0000
0010
0000
0000
1001
;

//---------------dance-single - BEGINNER----------------
#NOTES:
     dance-single:
     BEGINNER:
     Beginner:
     2:
     0.170,0.241,0.126,0.030,0.000,139.000,17.000,4.000,0.000,0.000:
0000
0000
0000
0000
,
0000
0000
0000
0000
,
0000
0000
0000
0000
,
0000
0000
0000
0000
,
0000
0000
1000
0000
,
1001
0000
0001
0000
,
0000
1000
0010
0000
,
0000
0001
0100
0000
,
0000
0001
1000
0000
,
0010
0000
0010
0000
,
1000
0000
0100
0000
,
0100
0000
0001
0000
,
0010
0000
0010
0000
,
1001
0000
0100
0000
,
0100
0000
1001
0000
,
1000
0000
1000
0000
,
0001
0000
0100
0000
,
1001
0000
0001
0000
,
1000
0000
0001
0000
,
1000
0000
0010
0000
,
1001
0000
1001
0000
,
0001
0000
1000
0000
,
0001
0000
1000
0000
,
0001
0000
0100
0000
,
0000
1001
0000
0000
,
1001
0000
0100
0000
,
1000
0000
1000
0000
,
0010
0000
0001
0000
,
0001
0000
0000
0000
,
0000
0001
1000
0000
,
0001
0000
0100
0000
,
0001
0000
0001
0000
,
0000
0000
0010
0000
,
0010
0000
1000
0000
,
0000
0000
0010
0000
,
0010
0000
0001
0000
,
0000
0001
0001
0000
,
0010
0000
1000
0000
,
0010
0000
0001
0000
,
1001
0000
0010
0000
,
1001
0000
0010
0000
,
0100
0000
0001
0000
,
0001
0000
0100
0000
,
0001
0000
0000
0000
,
0000
1000
0010
0000
,
1000
0000
1000
0000
,
1000
0000
0001
0000
,
0010
0000
1000
0000
,
0001
0000
0100
0000
,
0000
0000
0010
0000
,
0001
0000
1000
0000
,
0000
0000
1000
0000
,
1000
0000
1000
0000
,
1000
0000
1000
0000
,
2000
0000
0000
0000
,
0000
3000
0010
0000
,
0000
1000
0001
0000
,
0100
0000
0010
0000
,
0001
0000
0001
0000
,
0100
0000
0000
0100
,
1000
0000
0100
0000
,
0001
0000
1001
0000
,
0001
0000
0100
0000
,
1000
0000
0000
0000
,
0100
0000
0001
0000
,
0100
0000
0001
0000
,
1000
0000
0001
0000
,
0001
0000
1000
0000
,
0020
0000
0000
0000
,
0000
0000
0000
0000
0000
0030
0000
0000
,
0100
0000
0100
0000
,
1000
0000
0010
0000
,
1001
0000
0001
0000
,
1000
0000
1000
0000
,
1000
0000
1000
0000
,
1001
0000
0110
0000
,
1001
0000
0100
0000
,
0001
0000
0100
0000
,
0100
0000
0001
0000
,
1000
0000
1001
0000
,
2002
0000
0000
0000
,
3003
0000
0000
0000
;
