#TITLE:Night Gliding;
#SUBTITLE:;
#ARTIST:Sanxion7;
#TITLETRANSLIT:;
#SUBTITLETRANSLIT:;
#ARTISTTRANSLIT:;
#CREDIT:;
#BANNER:NightGliding-bn.png;
#BACKGROUND:NightGliding-bg.png;
#LYRICSPATH:;
#CDTITLE:;
#MUSIC:NightGliding(Cut).mp3;
#OFFSET:-0.060;
#SAMPLESTART:59.940;
#SAMPLELENGTH:12.000;
#SELECTABLE:YES;
#BPMS:0.000=138.010;
#STOPS:;
#BGCHANGES:;
// cache tags:
#FIRSTBEAT:4.000;
#LASTBEAT:229.000;
#SONGFILENAME:Songs/StepMix 2/Night Gliding/NightGliding.sm;
#HASMUSIC:1;
#HASBANNER:1;
#MUSICLENGTH:99.761;
// end cache tags

//---------------dance-single - BlueChaos----------------
#NOTES:
     dance-single:
     BlueChaos:
     Hard:
     9:
     0.766,0.689,0.080,0.070,0.822,520.000,8.000,7.000,0.000,0.000:
0000
0000
0000
0000
,
1000
0000
0001
0000
1000
0000
0001
0000
1000
0000
0001
0000
1000
0001
0000
0100
,
0010
0000
0100
0000
0010
0000
0100
0000
0010
0000
0100
0000
0010
0100
0000
0010
,
1000
0000
0010
0000
1000
0000
0010
0000
1000
0000
0010
0000
1000
0010
0000
1000
,
0100
0000
1000
0000
0100
0000
1000
0000
0100
0000
1000
0000
0100
1000
0000
0100
,
0001
0000
0100
0000
0001
0000
0100
0000
0001
0000
0100
0000
0001
0100
0000
1000
,
0100
0000
1000
0000
0100
0000
0001
0000
0100
0000
1000
0000
0100
0010
0000
0001
,
0100
0000
0001
0000
0100
0000
1000
0000
0100
0000
0001
0000
0100
0010
0000
1000
,
0001
1000
0010
0001
0010
1000
0100
0010
,
1001
0000
1000
0000
0001
0000
0100
0000
0010
0000
0100
0000
0001
1000
0001
0010
,
0100
0000
0010
0000
0100
0000
1000
0000
0100
0000
0010
0000
0001
1000
0001
0100
,
0010
0000
0100
0000
0010
0000
1000
0000
0010
0000
0100
0000
0001
1000
0010
1000
,
0100
0000
1000
0000
0010
0000
0100
0000
0001
1000
0001
1000
0001
0100
0001
0100
,
0010
0000
1000
0000
0010
0000
0100
0000
0001
0000
1000
0000
0100
0010
0000
0010
,
0001
0000
0010
0000
0001
0000
1000
0000
0001
0000
0100
0000
0010
1000
0000
1000
,
0001
0000
1000
0000
0100
0000
1000
0000
0001
0000
0100
0000
0010
0100
0000
0100
,
0001
1000
0100
0010
0002
0000
2000
3003
,
1001
0000
0000
1000
0010
0000
0000
0010
0100
0000
0010
0000
0100
0001
0010
0000
,
0110
0000
0000
0100
1000
0000
0000
1000
0100
0000
0010
0000
0001
1000
0010
0000
,
1010
0000
0000
1000
0010
0000
0000
0010
0100
0000
0001
0000
1000
0100
0010
0000
,
0011
0000
0000
0001
1000
0000
0000
1000
0010
0100
0010
1000
0001
0010
0100
0010
,
0001
0000
0000
0001
0100
0000
0000
0100
0010
0000
1000
0000
0100
0010
0001
1000
,
0010
0000
0000
0010
0100
0000
0000
0100
0001
0000
1000
0000
0001
0010
0100
0010
,
0001
0000
0000
0001
1000
0000
0000
1000
0010
0000
0100
0000
0001
1000
0010
0100
,
0010
0000
0000
0010
1000
0000
0000
1000
0001
0010
0001
0010
0200
0000
0000
0000
,
1300
0001
0000
0100
0000
0001
0010
0000
0001
0100
0000
0010
0000
1000
0010
0000
,
1000
0001
0000
0100
0000
0001
0100
0000
0010
1000
0000
0001
0000
0010
0100
0000
,
1000
0100
0000
0010
0000
0100
0010
0000
0100
1000
0000
0001
0000
0100
0010
0000
,
0100
0001
0000
1000
0000
0100
0010
0000
0100
1000
0000
0100
0000
0001
0100
0000
,
0010
0100
0000
1000
0000
0001
0100
0000
0010
1000
0000
0010
0000
0100
0001
0000
,
1000
0100
0000
0001
0000
0100
0010
0000
0100
1000
0000
0010
0000
0100
0010
0000
,
0100
1000
0000
0100
0000
0010
0100
0000
0001
0100
0000
0010
0000
0100
1000
0000
,
0100
0001
0000
0100
0000
0001
0010
0000
0100
1000
0000
0100
0000
0010
0001
1000
,
0010
0000
1000
0000
0100
0000
0001
0000
0100
0000
1000
0000
0100
1000
0000
1000
,
0010
0000
0100
0000
0010
0000
0001
0000
0010
0000
1000
0000
0001
0100
0000
0001
,
1000
0000
0001
0000
0100
0000
1000
0000
0100
0000
0001
0000
1000
0001
0000
0010
,
0100
0000
0010
0000
0001
0000
1000
0000
0010
1000
0010
1000
0001
1000
0001
0010
,
0100
0000
0100
0000
1000
0000
1000
0000
0001
0000
0001
0000
0100
0010
0000
0100
,
0001
0000
0001
0000
0010
0000
0010
0000
0100
0000
0100
0000
1000
0100
0000
1000
,
0010
0000
0010
0000
0100
0000
0100
0000
0001
0000
0001
0000
1000
0001
0000
0010
,
0100
0000
0100
0000
1000
0000
1000
0000
0001
0100
0010
1000
0100
0010
0001
1000
,
0010
0000
0000
1000
0000
0000
0001
0000
0100
0000
0001
1000
0000
0001
0010
0100
,
1000
0000
0000
0100
0000
0000
1000
0000
0010
0000
0100
0001
0000
0100
0001
1000
,
0100
0000
0000
1000
0000
0000
0100
0000
0001
0000
0100
1000
0000
0100
0010
0001
,
1000
0000
0000
0001
0000
0000
0100
0000
1000
0000
0100
0001
0000
0100
0001
0010
,
0100
0000
0000
0010
0000
0000
0100
0000
1000
0000
0100
1000
0000
0100
0010
0001
,
0100
0000
0000
0010
0000
0000
1000
0000
0010
0000
0100
0001
0000
0010
0100
1000
,
0001
0000
0000
1001
0000
0000
0001
0000
0100
0000
0010
1000
0000
0010
0100
0001
,
0010
0000
0000
0110
0000
0000
1000
0000
0100
0000
0010
0001
0000
0010
0100
1000
,
0001
0100
0010
0100
0001
1000
0100
0010
,
0001
0010
0100
1000
0001
1000
0010
0100
,
0010
0100
0001
1000
0001
0010
0100
1000
,
0001
0010
0100
0010
0001
1000
0001
0100
,
0010
1000
0010
0200
0000
0301
0100
0010
,
1000
0001
0010
0001
1000
0100
0010
0001
,
0100
0010
1000
0002
0000
1003
0100
1000
,
0010
0000
0100
0000
0001
0000
1000
0000
0001
1000
0001
0000
0100
0010
0100
0000
,
2002
3003
0000
0000
;

//---------------dance-single - BlueChaos----------------
#NOTES:
     dance-single:
     BlueChaos:
     Challenge:
     10:
     0.965,0.947,0.351,0.381,0.942,601.000,35.000,38.000,0.000,1.000:
0000
0000
0000
0000
,
1001
0000
0100
0000
0010
0000
0100
0000
1001
0000
0001
0000
1000
0010
0000
0100
,
0001
0000
1000
0100
0010
0000
0100
0000
1100
0000
1000
0000
0001
0100
0000
0010
,
1000
0000
0001
0010
0100
0000
0010
0000
0110
0000
0100
0000
0010
0001
0000
1000
,
0100
0000
1000
0001
0100
0000
0010
0000
1000
0010
0100
0001
1000
0100
0010
0001
,
1000
0000
0001
0000
0101
0000
0100
0000
0110
0000
0010
0000
1000
0100
0000
0010
,
0100
0000
0010
0001
0100
0000
0001
0000
0101
0000
0100
0000
0001
1000
0000
0100
,
0010
0000
0100
1000
0010
0000
1000
0000
1010
0000
0010
0000
0100
0010
0000
0100
,
0001
0100
0010
1000
0100
0010
0001
1000
,
1001
0000
0001
0100
0001
0000
0100
0010
0100
0000
0010
1000
0010
0100
0001
0010
,
0100
0000
0010
0100
0010
0000
0100
1000
0100
0000
1000
0001
1000
0010
0100
0001
,
1000
0000
0001
0010
0100
0000
0010
0001
0100
0000
0001
1000
0010
0100
0001
0010
,
0100
0000
1000
0000
0001
0000
0100
0010
1000
0010
0100
0001
1000
0100
0010
0001
,
1000
0000
0010
1000
0001
0000
1000
0100
0010
0000
0100
0010
0001
0010
0100
1000
,
0010
0000
1000
0010
0100
0000
0001
0100
0010
0000
1000
0100
0010
0100
1000
0001
,
0100
0000
0010
0100
0001
0000
0100
0010
1000
0000
0001
0010
0100
1000
0010
0100
,
0001
0100
0010
0100
0002
1000
2000
0000
,
0110
3003
0000
0000
1001
0000
0100
0000
0010
0000
1000
0000
0100
1000
0001
0100
,
0020
0000
1000
0000
1030
0000
0100
0000
0010
0000
0001
0000
0010
0001
0100
0001
,
2000
0000
0100
0000
3100
0000
0010
0000
0001
0000
0010
0000
0100
0010
0001
1000
,
0020
0000
0100
0000
0130
0000
0010
0000
1000
0100
0010
0001
0010
0100
1000
0001
,
0200
0000
0010
0000
0310
0000
1000
0000
0100
0000
0010
0000
0100
1000
0000
1000
,
0002
0000
0100
0000
0103
0000
0010
0000
1000
0000
0100
0000
1000
0010
0000
0010
,
0200
0000
0001
0000
0301
0000
0010
0000
0100
0000
0010
0000
0001
1000
0000
1000
,
0020
0000
0100
0000
0130
0000
0001
0000
1000
0001
1000
0001
0200
0000
0000
0000
,
0301
1000
0001
1000
0010
1000
0010
0100
0001
0100
0001
1000
0100
0010
0100
1000
,
0100
0010
0001
1000
0010
0100
0010
1000
0001
1000
0100
0010
0001
0010
0100
1000
,
0001
0100
0010
1000
0010
0100
0010
1000
0100
0010
0001
0100
0010
0100
0001
0010
,
0100
0010
0001
1000
0001
0100
0010
0100
0001
0010
0001
1000
0100
1000
0001
0100
,
0001
1000
0010
0100
0001
1000
0100
0010
0001
1000
0100
1000
0010
0100
0001
0100
,
0010
1000
0100
0010
0001
0100
0010
1000
0010
0100
0001
1000
0001
0010
0100
0010
,
0001
1000
0100
0010
0100
1000
0100
0010
0001
1000
0010
0100
0010
1000
0001
0100
,
0010
1000
0001
1000
0100
1000
0001
0100
0010
0100
0001
1000
0001
0010
0100
0000
,
2001
0010
0100
3001
0102
0010
0100
1003
,
1200
0010
0001
1300
0120
0001
0100
1030
,
1020
0100
0001
0130
0012
1000
0010
0103
,
0210
0001
0010
1300
1200
0010
1000
0301
,
1002
0010
1000
0103
0021
0100
1000
0031
,
2001
0100
0001
3010
1020
0100
0001
1030
,
0210
1000
0010
0301
0102
0010
1000
0103
,
2001
0000
0010
0000
0100
0000
3001
0000
1000
0001
1000
0001
0200
0000
0000
0000
,
0310
0000
0100
0001
0000
0100
0010
0000
1000
0000
0100
0010
0000
0100
0010
0001
,
1000
0000
0001
0100
0000
0010
1000
0000
0010
0000
1000
0100
0000
1000
0010
1000
,
0001
0000
0100
0010
0000
1000
0010
0000
0100
0000
0001
1000
0000
0001
0010
0100
,
1000
0000
0100
0010
0000
0100
1000
0000
0001
0000
1000
0001
0000
0100
0010
1000
,
0100
0000
1000
0100
0000
0010
0001
0000
1000
0000
0010
1000
0000
0001
1000
0100
,
0010
0000
0000
0011
0000
0000
1001
0000
0101
0000
0100
0010
0000
1000
0001
1000
,
0100
0000
0000
1100
0000
0000
0110
0000
0011
0000
0001
1000
0000
0001
0100
0010
,
1000
0000
0000
1010
0000
0000
0110
0000
0010
0100
0010
0100
0002
0000
0000
0000
,
1003
0000
0001
0000
1000
0000
0001
0000
1000
0000
0001
0000
1000
0001
0100
0010
,
0100
0000
0010
0000
0100
0000
0010
0000
0100
0000
0010
0000
0100
0001
0010
0100
,
1000
0000
0100
0000
1000
0000
0100
0000
1000
0000
0100
0000
1000
0100
0010
0001
,
0100
0000
0001
0000
0100
0000
0001
0000
0100
0000
0001
0000
0100
0001
1000
0001
,
0010
0000
0001
0000
0010
0000
0001
0000
0010
0000
0001
0000
0010
0001
0100
0010
,
1000
0020
1030
0200
0310
0002
1003
0020
,
0130
0002
1003
0200
0000
2300
3010
0200
,
0320
0000
0000
0000
0000
0000
0000
0000
1030
0100
0010
0001
0010
0100
1000
0000
,
2002
3003
0000
0000
;

//---------------dance-single - BlueChaos----------------
#NOTES:
     dance-single:
     BlueChaos:
     Medium:
     6:
     0.415,0.400,0.050,0.261,0.000,259.000,5.000,26.000,0.000,0.000:
0000
0000
0000
0000
,
1000
0000
1000
0000
0001
0000
0001
0010
,
0100
0000
0100
0000
0010
0000
0010
0001
,
0100
0000
0100
0000
0010
0000
0010
1000
,
0001
0000
1000
0000
0001
0000
1000
0001
,
0010
0000
0001
0000
1000
0000
0010
0100
,
0001
0000
1000
0000
0001
0000
1000
0100
,
0010
0000
0100
0000
1000
0000
0001
0100
,
0020
0000
0100
0130
,
1010
1000
0100
0000
1000
0000
0100
0010
,
0001
0000
0010
0000
0001
0000
0100
0001
,
1000
0000
0010
0000
0100
0000
0010
1000
,
0100
0000
0010
0000
0001
1000
0001
1000
,
0020
0000
0100
0000
0100
0000
0130
0001
,
2000
0000
0010
0000
0010
0000
3010
0100
,
0002
0000
0010
0000
0010
0000
0013
0100
,
1000
0000
0100
0000
2100
0000
0002
3003
,
1001
0000
0001
0000
1000
0001
1000
0000
,
0010
0000
0100
0000
0010
0100
0010
0000
,
0100
0000
0001
0000
0010
0001
0010
0000
,
0001
0000
1000
0000
0001
0100
0001
0100
,
0010
0000
1000
0000
0001
0010
0000
0001
,
0010
0000
0100
0000
1000
0100
0000
1000
,
0100
0000
0010
0000
0001
1000
0000
0001
,
2000
0000
0000
0000
3001
0100
0010
0000
,
0200
0301
1000
0001
,
0020
0130
1000
0001
,
0200
0301
0010
0100
,
2000
3100
0010
0001
,
0200
0310
0100
0001
,
0020
0130
0010
0001
,
0200
0310
1000
0001
,
0020
0130
1000
0001
,
1001
0000
1000
0000
0010
0000
0100
0010
,
0200
0000
0310
0000
1000
0000
0001
0010
,
0002
0000
0013
0000
0100
0000
0010
0001
,
0020
0000
0031
0000
0100
0000
0010
1000
,
0020
0000
0130
0000
0001
0000
1000
0100
,
0020
0000
0031
0000
0010
0000
0001
1000
,
0020
0000
0130
0000
0001
0000
1000
0001
,
2000
0000
3100
0000
0010
0000
0001
1000
,
0001
0000
1000
0100
0000
1000
0010
1000
,
0010
0000
0100
0010
0000
0100
0010
0100
,
0010
0000
1000
0001
0000
1000
0001
1000
,
0001
0000
0010
0001
0000
0010
0001
0010
,
0001
0000
1000
0000
0001
0000
1000
0100
,
0001
0000
0100
0000
1000
0000
0001
0100
,
1000
0000
0100
0000
0001
0000
1000
0100
,
0001
0100
0020
0000
,
0031
1000
0001
1000
,
0100
0010
0100
0010
,
0001
1000
0001
1000
,
0010
0100
0010
0100
,
0001
1000
0001
1000
,
0002
0000
0000
0000
,
0203
0000
0000
0000
,
0320
0000
1030
0001
,
1001
0000
0000
0000
;

//---------------dance-single - BlueChaos----------------
#NOTES:
     dance-single:
     BlueChaos:
     Easy:
     4:
     0.325,0.344,0.160,0.281,0.000,183.000,16.000,28.000,0.000,0.000:
0000
0000
0000
0000
,
1000
0000
0001
0000
,
0100
0000
0010
1000
,
0002
0003
1000
0000
,
0001
0000
0010
0010
,
0200
0300
1000
1000
,
0001
0000
1000
0001
,
2000
3000
0010
0100
,
0002
0000
0000
0003
,
1001
1000
0100
0000
,
0010
0001
0100
0000
,
0001
0100
0010
0000
,
0100
0010
0100
0100
,
0002
0003
1000
0100
,
0010
0001
1000
0001
,
2000
3000
0001
0100
,
0010
0000
1000
0001
,
1001
0001
1000
0001
,
1000
0010
0100
0010
,
0100
0001
0100
0001
,
1000
0001
1000
0001
,
1000
0100
1000
0100
,
1000
0001
0100
0001
,
0100
0010
1000
0001
,
1000
0001
0020
0230
,
2300
0000
0001
3001
,
0002
0000
0100
0103
,
0200
0000
0010
0310
,
0020
0000
1000
1030
,
2000
0000
0001
3001
,
0002
0000
0010
0013
,
0020
0000
0100
0130
,
0200
0000
1000
1300
,
1001
0000
0001
0100
,
0020
1030
0001
1000
,
0200
0310
0001
1000
,
0002
0103
0010
0010
,
1000
1001
0000
0001
,
0100
0110
0000
0010
,
1000
1100
0000
0001
,
0100
0110
0020
2030
,
3001
0001
1000
1000
,
0010
0100
0001
0001
,
1000
0100
0010
0010
,
0001
1000
0100
0100
,
0010
0001
1000
1000
,
0010
0100
0010
0010
,
1000
0001
0010
0010
,
0001
1000
0020
2030
,
3001
0000
0101
0000
,
1001
0000
1100
0000
,
0110
0000
0011
0000
,
1001
0000
0101
0000
,
0110
0000
1000
0100
,
0020
0000
0031
0100
,
0020
0000
1030
0001
,
0200
0000
0301
1000
,
2002
3003
0000
0000
;

//---------------dance-single - BlueChaos----------------
#NOTES:
     dance-single:
     BlueChaos:
     Beginner:
     1:
     0.182,0.201,0.070,0.200,0.000,100.000,7.000,20.000,0.000,0.000:
0000
0000
0000
0000
,
1000
0000
0000
0000
,
0001
0000
0000
0000
,
0100
0000
0000
0000
,
0010
0000
1000
0001
,
1000
0000
0000
0000
,
0001
0000
0000
0000
,
0010
0000
0000
0000
,
0100
0000
1000
0000
,
0001
0000
0000
0000
,
1000
0000
0000
0000
,
0010
0000
0000
0000
,
0100
0000
0001
0100
,
0001
0000
0000
0000
,
1000
0000
0000
0000
,
0200
0300
0000
0000
,
1000
0000
0001
0100
,
0010
0000
0100
0000
,
0001
0000
1000
0000
,
0002
0003
1000
0000
,
0100
0000
1000
1000
,
0001
0000
0100
0010
,
0100
0000
0001
1000
,
0002
0000
1003
0000
,
1000
0000
0001
0010
,
0002
0000
0000
0000
,
0203
0000
0000
0000
,
0320
0000
0000
0000
,
2030
0000
0000
0000
,
3002
0000
0000
0000
,
0023
0000
0000
0000
,
0230
0000
0000
0000
,
2300
0000
0000
0000
,
3002
0000
0103
0000
,
0020
0000
1030
0000
,
2000
0000
3100
0000
,
0020
0000
0031
0000
,
1000
0000
0001
0000
,
1000
0000
0100
0000
,
0010
0000
0001
0000
,
1000
0000
0001
0001
,
0100
0000
0110
0000
,
0001
0000
1001
0000
,
1000
0000
1100
0000
,
1000
0000
1010
0000
,
0010
0000
0101
0000
,
0001
0000
0011
0000
,
1000
0000
1001
0000
,
0001
0000
0100
0100
,
0010
0000
1000
0000
,
0001
0000
0010
0000
,
0100
0000
1000
0000
,
0001
0000
0100
0000
,
0020
0000
0000
0000
,
2030
0000
0000
0000
,
3002
0000
0000
0000
,
0023
0000
0130
1000
,
0002
0003
0000
0000
;
