#TITLE:Iketeru Futari;
#SUBTITLE:- Fall In You;
#ARTIST:木村由姫;
#TITLETRANSLIT:;
#SUBTITLETRANSLIT:;
#ARTISTTRANSLIT:Kimura Yuki;
#CREDIT:Anime Toshokan;
#BANNER:Iketeru Futari - Fall In You.png;
#BACKGROUND:Iketeru Futari - Fall In You bg.png;
#LYRICSPATH:;
#CDTITLE:dejiko.png;
#MUSIC:Iketeru Futari - Fall In You.mp3;
#OFFSET:1.572;
#SAMPLESTART:64.780;
#SAMPLELENGTH:12.940;
#SELECTABLE:YES;
#BPMS:0.000=148.230;
#STOPS:;
#BGCHANGES:;
// cache tags:
#FIRSTBEAT:20.000;
#LASTBEAT:280.000;
#SONGFILENAME:Songs/DDR Anime 2nd Mix/Iketeru Futari - Fall In You/Iketeru Futari - Fall In You.sm;
#HASMUSIC:1;
#HASBANNER:1;
#MUSICLENGTH:113.196;
// end cache tags

//---------------dance-single - BASIC----------------
#NOTES:
     dance-single:
     BASIC:
     Easy:
     4:
     0.265,0.308,0.009,0.177,0.049,189.000,1.000,20.000,0.000,0.000:
0000
0000
0000
0000
,
0000
0000
0000
0000
,
0000
0000
0000
0000
,
0000
0000
0000
0000
,
0000
0000
0000
0000
,
1000
0000
0000
0010
0000
0000
0100
0000
,
0000
0000
0000
0000
,
1000
0000
0000
0010
0000
0000
0100
0000
,
0000
1000
0000
0000
0000
0000
0000
0000
,
0010
0000
0000
0000
0100
0000
0000
0000
1000
0000
0000
1000
0000
0000
0000
0000
,
1000
0000
0000
0000
0100
0000
0000
0000
0100
0000
0000
1000
0000
0000
0000
0000
,
0010
0000
0000
0000
0100
0000
0000
0000
1000
0000
0000
1000
0000
0000
0000
0000
,
1000
0000
0000
0000
0100
0000
0000
0000
0001
0000
0000
0100
0000
0000
0000
0000
,
0010
0000
0000
0000
0100
0000
0000
0000
1000
0000
0000
1000
0000
0000
0000
0000
,
1000
0000
0000
0000
0100
0000
0000
0000
0100
0000
0000
1000
0000
0000
0000
0000
,
0010
0000
0000
0000
0100
0000
0000
0000
1000
0000
0000
1000
0000
0000
0000
0000
,
1000
0000
0000
0000
0100
0000
0000
0000
0001
0000
0000
0001
0000
0000
0000
0000
,
0010
0000
0000
0010
0000
0100
0000
1000
,
0000
1000
0000
0000
0100
0000
0010
0000
,
0001
0000
0000
0001
0000
0010
0000
0100
,
0000
0100
0000
0000
0010
0000
0001
0000
,
0010
0000
0000
0010
0000
0100
0000
1000
,
0000
1000
0000
0000
0100
0000
0010
0000
,
0100
0000
0000
0100
0000
0010
0000
0001
,
0000
0000
0000
0000
,
0001
0000
0000
0001
0000
0010
0000
0100
,
0000
1000
0000
0000
0100
0000
0000
0000
,
0100
0000
0000
0100
0000
0010
0000
0001
,
0000
0100
0000
0000
1000
0000
0000
0000
,
0001
0000
0000
0001
0000
0010
0000
0100
,
0000
1000
0000
0000
0100
0000
0000
0000
,
0100
0000
0000
0100
0000
0010
0000
0100
,
0000
0000
0000
0000
,
1000
0010
0010
0100
,
1000
0010
0010
0010
,
0010
0100
0010
0100
,
0010
0000
0000
1000
0000
0000
0000
0000
0010
0000
0000
0000
0000
0000
0000
0000
,
1000
0010
0010
0100
,
1000
0010
0010
0010
,
0010
0000
0100
0000
0010
0000
0000
1000
,
0000
0000
0000
0000
,
0002
0000
0000
0023
,
0230
0000
0000
0000
0000
0300
0100
0000
,
1000
0100
0010
0100
,
2000
0000
0000
3000
,
1000
0100
0010
0010
,
0001
0010
1000
0100
,
0020
0000
0000
0000
0000
0030
0010
0000
,
0200
0000
0000
0000
0000
0300
0000
0000
,
0002
0000
0000
0023
,
0230
0000
0000
0000
0000
0300
0100
0000
,
1000
0100
0010
0100
,
0010
0000
0000
0100
0000
0000
1000
0000
0001
0000
0000
0000
0000
0000
0000
0000
,
1000
0000
0100
0000
0010
0000
0010
0010
,
0001
0000
0000
0010
0000
0000
0100
0000
1000
0000
0000
0000
1000
0000
0100
0000
,
0000
0000
0000
0010
,
0200
0000
0000
0000
0000
0300
0100
0000
,
2000
0000
0000
0000
,
3001
0010
0100
1001
,
1000
0000
0000
0100
0000
0000
1000
0000
,
0000
0000
0000
0000
,
0100
0000
0000
1000
0000
0000
0001
0000
,
0000
0100
0000
0000
0000
0000
0000
0000
,
2000
0000
3000
0002
0000
0003
0020
0000
,
0000
0000
0030
0000
,
0002
0000
0003
0020
0000
0030
0200
0000
,
0300
2000
0000
0000
0000
0000
3000
0000
,
1000
0000
0010
0000
0100
0010
1000
0000
,
1000
0000
0001
0000
1000
0100
0002
0000
,
2000
0000
0000
3003
;

//---------------dance-single - ANOTHER----------------
#NOTES:
     dance-single:
     ANOTHER:
     Medium:
     6:
     0.363,0.401,0.203,0.239,0.049,238.000,23.000,27.000,0.000,0.000:
0000
0000
0000
0000
,
0000
0000
0000
0000
,
0000
0000
0000
0000
,
0000
0000
0000
0000
,
0000
0000
0000
0000
,
1000
0000
0000
0010
0000
0000
0100
0000
,
0000
0000
0000
0000
,
1000
0000
0000
0010
0000
0000
0100
0000
,
0000
1000
0000
0000
0000
0000
0000
0000
,
0010
0000
0000
0000
0100
0000
0000
0000
1000
0000
0000
1000
0000
0000
0000
0000
,
1000
0000
1000
0000
0100
0000
0000
0000
0100
0000
0000
1000
0000
0000
0000
0000
,
0010
0000
0000
0000
0100
0000
0000
0000
1000
0000
0000
1000
0000
0000
0000
0000
,
1000
0000
1000
0000
0100
0000
0000
0000
0001
0000
0000
0100
0000
0000
0000
0000
,
0010
0000
0000
0000
0100
0000
0000
0000
1000
0000
0000
1000
0000
0000
0000
0000
,
1000
0000
1000
0000
0100
0000
0000
0000
0100
0000
0000
1000
0000
0000
0000
0000
,
0010
0000
0000
0000
0100
0000
0000
0000
1000
0000
0000
1000
0000
0000
0000
0000
,
1000
1000
0100
0000
0001
0000
1001
0000
,
0010
0000
0100
0010
0000
0100
0000
1000
,
0000
1000
0000
0100
0100
0000
0010
0000
,
0001
0000
0010
0001
0000
0010
0000
0100
,
0000
0100
0000
0010
0010
0000
0001
0000
,
0010
0000
0100
0010
0000
0100
0000
1000
,
0000
1000
0000
0100
0100
0000
0010
0000
,
0100
0000
1000
0100
0000
0010
0000
0001
,
0000
0000
0000
0110
,
0001
0000
0010
0001
0000
0010
0000
0100
,
0000
1000
0000
1000
0100
0100
1001
0000
,
0100
0000
1000
0100
0000
0010
0000
0001
,
0000
0100
0000
0010
1000
1000
0110
0000
,
0001
0000
0010
0001
0000
0010
0000
0100
,
0000
1000
0000
1000
0100
0100
1001
0000
,
0100
0000
1000
0100
0000
0010
0000
0100
,
0000
0010
0000
0100
1000
1000
0110
0000
,
1000
0100
0010
0000
0010
0001
0100
0000
,
1000
0100
0010
0000
0010
0001
0010
0000
,
0010
0000
0100
0000
0010
0000
0100
1000
,
0010
0000
0000
1000
0000
0000
0100
0000
0010
0000
0000
0000
1001
0000
0000
0000
,
1000
0100
0010
0000
0010
0001
0100
0000
,
1000
0100
0010
0000
0010
0001
0010
0000
,
0010
0000
0100
0000
0010
0000
0100
1000
,
0000
0000
0000
1001
,
0002
0000
0000
0023
,
0230
0000
0000
0000
0000
0300
0100
0000
,
1000
0100
0010
0100
,
2000
0000
0000
3000
,
1000
0100
0010
0010
,
0001
0000
0000
0010
0000
0000
0100
0000
1000
0000
0000
0000
1000
0000
0100
0000
,
0020
0000
0000
0000
0000
0030
0010
0000
,
0200
0000
0000
0000
0000
0300
0000
0000
,
0002
0000
0000
0023
,
0230
0000
0000
0000
0000
0300
0100
0000
,
1000
0100
0010
0100
,
0010
0000
0000
0100
0000
0000
1000
0000
0001
0000
0000
0000
0000
0000
0000
0000
,
1000
0000
0100
0000
0010
0000
0010
0010
,
0001
0000
0000
0010
0000
0000
0100
0000
1000
0000
0000
0000
1000
0000
0100
0000
,
0000
0000
0000
0010
,
0200
0000
0000
0000
0000
0300
0100
0000
,
2000
0000
0000
0000
,
3001
0010
0100
1001
,
1001
0000
0000
0110
0000
0000
1001
0000
,
0000
0000
0000
0000
,
0110
0000
0000
1001
0000
0000
0110
0000
,
0000
1100
0000
0000
0000
0000
0000
0000
,
2200
0000
3300
0202
0000
0303
0220
0000
,
0000
0000
0330
0000
,
0202
0000
0303
0022
0000
0033
2200
0000
,
3300
2002
0000
0000
0000
0000
3003
0000
,
1000
0100
0010
0001
0100
0010
1000
0000
,
1000
0010
0001
0010
1000
0100
0002
0000
,
2000
0000
0000
3003
;

//---------------dance-single - MANIAC----------------
#NOTES:
     dance-single:
     MANIAC:
     Hard:
     8:
     0.445,0.495,0.309,0.247,0.128,290.000,35.000,28.000,0.000,0.000:
0000
0000
0000
0000
,
0000
0000
0000
0000
,
0000
0000
0000
0000
,
0000
0000
0000
0000
,
0000
0000
0000
0000
,
1001
0000
0000
0110
0000
0000
1001
0000
,
0000
0000
0000
0000
,
0110
0000
0000
1001
0000
0000
0110
0000
,
0000
1100
0000
0000
0000
0000
0000
0000
,
0010
0000
0000
0000
0100
0000
0000
0000
1000
0100
0000
1000
0000
0000
0001
0000
,
1000
0000
1000
0000
0100
0000
0010
0000
0100
0000
0000
1001
0000
0000
0000
0000
,
0010
0000
0000
0000
0100
0000
0000
0000
1000
0100
0000
1000
0000
0000
0001
0000
,
1000
0000
1000
0000
0100
0000
0010
0000
0001
0000
0000
0110
0000
0000
0000
0000
,
0010
0000
0000
0000
0100
0000
0000
0000
1000
0100
0000
1000
0000
0000
0001
0000
,
1000
0000
1000
0000
0100
0000
0010
0000
0100
0000
0000
1001
0000
0000
0000
0000
,
0010
0000
0000
0000
0100
0000
0000
0000
1000
0100
0000
1000
0000
0000
0001
0000
,
1000
1000
0100
0010
0001
0100
1001
0000
,
0010
0000
0100
0010
0000
0100
0000
1000
,
0000
1000
0000
0100
0100
0000
0010
0000
,
0001
0000
0010
0001
0000
0010
0000
0100
,
0000
0100
0000
0010
0010
0000
0001
0000
,
0010
0000
0100
0010
0000
0100
0000
1000
,
0000
1000
0000
0100
0100
0000
0010
0000
,
0100
0000
1000
0100
0000
0010
0000
0001
,
0000
0010
0000
0100
0000
1000
0110
0000
,
0001
0000
0010
0001
0000
0010
0000
0100
,
0000
0000
1000
0000
0000
0000
1000
0000
0100
0010
0100
0000
1001
0000
0000
0000
,
0100
0000
1000
0100
0000
0010
0000
0001
,
0000
0000
0100
0000
0000
0000
0010
0000
1000
0001
1000
0000
0110
0000
0000
0000
,
0001
0000
0010
0001
0000
0010
0000
0100
,
0000
0000
1000
0000
0000
0000
1000
0000
0100
0010
0100
0000
1001
0000
0000
0000
,
0100
0000
1000
0100
0000
0010
0000
0100
,
0000
0000
0010
0000
0000
0000
0100
0000
1000
0001
1000
0000
0110
0000
0000
0000
,
1000
0100
0010
0100
0010
0001
0100
0010
,
1000
0100
0010
0100
0010
0001
0010
0001
,
0010
0000
0100
0000
0010
0000
0100
1000
,
0010
0000
0000
1000
0000
0000
0100
0000
0010
0000
0000
0000
1001
0000
0000
0000
,
1000
0100
0010
0100
0010
0001
0100
0010
,
1000
0100
0010
0100
0010
0001
0010
0001
,
0010
0000
0100
0000
0010
0000
0100
1000
,
0001
0000
0000
0000
1000
0000
0000
0000
0010
0100
0010
0000
1001
0000
0000
0000
,
0002
0000
0000
0023
,
0230
0000
0000
0000
0000
0300
0100
0000
,
1000
0100
0010
0100
,
2000
0000
0000
3000
,
1000
0100
0010
0010
,
0001
0000
0000
0010
0000
0000
0100
0000
1000
0000
0000
0000
1000
0000
0100
0000
,
0020
0000
0000
0000
0000
0030
0010
0000
,
0200
0000
0000
0000
0000
0300
1010
0000
,
0002
0000
0000
0023
,
0230
0000
0000
0000
0000
0300
0100
0000
,
1000
0100
0010
0100
,
0010
0000
0000
0100
0000
0000
1000
0000
0001
0000
0000
0000
0000
0000
0000
0000
,
1000
0000
0100
0000
0010
0000
0010
0010
,
0001
0000
0000
0010
0000
0000
0100
0000
1000
0000
0000
0000
1000
0000
0100
0000
,
1001
0000
0000
0010
,
0200
0000
0000
0000
0000
0300
0100
0000
,
2000
0100
0001
0100
,
3020
0001
1030
1001
,
1001
0000
0000
0110
0000
0000
1001
0000
,
0000
0000
0000
0000
0000
0000
0000
0000
0000
0000
0000
0000
0001
1000
0001
0000
,
0110
0000
0000
1001
0000
0000
0110
0000
,
0000
0000
1100
0000
0000
0000
0000
0000
0000
0000
0000
0000
0001
0010
0001
0000
,
2200
0000
3300
0202
0000
0303
0220
0000
,
0000
0000
0000
0000
0000
0000
0000
0000
0330
0000
0000
0000
1000
0010
1000
0000
,
0202
0000
0303
0022
0000
0033
2200
0000
,
3300
0000
2002
0000
0000
0000
0000
0000
0000
0000
0000
0000
3003
0000
0000
0010
,
0100
0000
0010
0000
1000
0000
0001
0000
0100
0010
0100
0010
0000
0000
0100
0010
,
1000
0000
0010
0000
0001
0000
0010
0000
1000
0001
1000
0002
0000
0000
0000
0000
,
2000
0000
0000
0000
,
3003
0000
0000
0000
;

//---------------dance-single - BEGINNER----------------
#NOTES:
     dance-single:
     BEGINNER:
     Beginner:
     2:
     0.124,0.154,0.009,0.106,0.000,85.000,1.000,12.000,0.000,0.000:
0000
0000
0000
0000
,
0000
0000
0000
0000
,
0000
0000
0000
0000
,
0000
0000
0000
0000
,
0000
0000
0000
0000
,
1000
0000
0000
0100
,
0000
0000
0000
0000
,
1000
0000
0000
0100
,
0000
0000
0000
0000
,
0010
0000
1000
0000
,
1000
0000
0100
0000
,
0010
0000
1000
0000
,
1000
0000
0001
0000
,
0010
0000
1000
0000
,
1000
0000
0100
0000
,
0010
0000
1000
0000
,
1000
0000
0001
0000
,
0010
0000
0000
0000
,
0000
0000
0100
0000
,
0001
0000
0000
0000
,
0000
0000
0010
0000
,
0010
0000
0000
0000
,
0000
0000
0100
0000
,
0100
0000
0000
0000
,
0000
0000
0000
0000
,
0001
0000
0000
0000
,
0000
0000
0100
0000
,
0100
0000
0000
0000
,
0000
0000
1000
0000
,
0001
0000
0000
0000
,
0000
0000
0100
0000
,
0100
0000
0000
0000
,
0000
0000
0000
0000
,
1000
0000
0010
0000
,
1000
0000
0010
0000
,
0010
0000
0010
0000
,
0010
0000
0010
0000
,
1000
0000
0010
0000
,
1000
0000
0010
0000
,
0010
0000
0010
0000
,
0000
0000
0000
0000
,
0002
0000
0000
0003
,
0200
0000
0000
0000
0000
0300
0000
0000
,
1000
0000
0010
0000
,
2000
0000
0000
3000
,
1000
0000
0010
0000
,
0001
0000
1000
0000
,
0020
0000
0000
0000
0000
0030
0000
0000
,
0200
0000
0000
0000
0000
0300
0000
0000
,
0002
0000
0000
0003
,
0200
0000
0000
0000
0000
0300
0000
0000
,
1000
0000
0010
0000
,
0010
0000
0001
0000
,
1000
0000
0010
0000
,
0001
0000
1000
0000
,
1001
0000
0000
0000
,
0200
0000
0000
0000
0000
0300
0000
0000
,
2000
0000
3000
0000
,
0001
0000
0100
0000
,
1000
0000
0000
1000
,
0000
0000
0000
0000
,
0100
0000
0000
0001
,
0000
0000
0000
0000
,
2000
3000
0000
0000
,
0000
0000
0000
0000
,
0002
0003
0000
0000
,
0000
0000
0000
0000
,
1000
0000
0100
0000
,
1000
0000
1000
0000
,
2000
0000
0000
3000
;
