#TITLE:Indulgence;
#SUBTITLE:;
#ARTIST:KaW;
#TITLETRANSLIT:;
#SUBTITLETRANSLIT:;
#ARTISTTRANSLIT:;
#CREDIT:;
#BANNER:Indulgence.png;
#BACKGROUND:Indulgence-bg.png;
#LYRICSPATH:;
#CDTITLE:;
#MUSIC:Indulgence.mp3;
#OFFSET:-0.031;
#SAMPLESTART:24.600;
#SAMPLELENGTH:12.000;
#SELECTABLE:YES;
#BPMS:0.000=156.000;
#STOPS:;
#BGCHANGES:;
// cache tags:
#FIRSTBEAT:3.500;
#LASTBEAT:306.500;
#SONGFILENAME:Songs/StepMix 1.0/Indulgence/Indulgence.sm;
#HASMUSIC:1;
#HASBANNER:1;
#MUSICLENGTH:119.907;
// end cache tags

//---------------dance-single - E. Holniker----------------
#NOTES:
     dance-single:
     E. Holniker:
     Hard:
     11:
     0.896,1.000,0.275,0.792,0.646,624.000,33.000,95.000,257.000,0.000:

0000
0000
0000
0000
,
0000
0000
0000
0000
,
0000
0000
0000
0000
,
0000
0000
0000
0000
,
100M
0100
0010
0001
M010
0000
0000
0000
010M
0000
1000
0000
0010
0000
0100
0000
,
0M10
0000
1000
0000
01M0
0000
1000
0000
110M
0000
0000
0100
0000
0000
0010
0000
,
M001
0000
0M11
0000
001M
0100
1000
0010
,
M100
0000
0010
0000
010M
0000
0100
0000
10M0
0100
0000
0100
0010
0000
0001
0000
,
M011
0000
011M
0000
1M00
0010
0100
0010
,
100M
0000
0100
0000
10M0
0000
0100
0000
100M
0100
0000
0100
0010
0000
0010
0000
,
M011
0000
011M
0000
1M00
0010
0100
0010
,
100M
0100
0010
0000
M001
0010
0100
0000
100M
0010
0100
0010
0001
0010
0001
0000
,
0M10
0000
1000
0000
010M
0000
0010
0002
0M00
0000
0000
0003
0010
0000
0100
2000
,
00M0
0000
0000
3000
000M
0010
0100
0000
00M1
0000
1000
0000
0100
0010
0001
0000
,
M020
0000
0000
0000
013M
0000
1000
0020
0M00
0000
0000
0030
0100
0000
0010
2000
,
0M00
0000
0000
3000
010M
0000
0010
0000
0M01
0000
0000
0010
0000
0100
1000
0000
,
002M
0000
0000
0000
M130
0000
0010
2000
000M
0000
0000
3000
0100
0000
0010
0002
,
0M00
0000
0000
0003
M010
0000
0100
2000
000M
0000
3010
0000
0100
0000
0010
0000
,
200M
0000
0000
0000
31M0
0000
1000
0200
000M
0000
0000
0300
0010
0000
0001
0020
,
M000
0030
001M
0100
10M0
0010
00M0
0100
,
001M
0000
1000
0000
M100
0010
0001
0010
010M
0000
1000
0000
0010
0000
0100
0000
,
M010
0000
0001
0000
001M
0100
0010
1000
0M10
0000
0010
0000
0100
0000
0010
0000
,
00M1
1000
0100
0010
M001
0000
0010
0000
010M
1000
0010
0100
0010
0000
0001
0000
,
001M
1000
0100
0000
0M10
0001
0010
0000
M100
0010
0100
1000
0010
0100
0010
0000
,
010M
0010
1000
0010
M100
0000
0010
0000
0M01
0000
0010
0000
1000
0000
0100
0000
,
M010
0001
0010
0100
100M
0000
0100
0000
0M10
0000
0001
0000
1000
0000
0100
0000
,
10M0
0100
1000
0000
0M01
0010
0001
0000
M010
0100
0010
0000
0100
1000
0100
0000
,
100M
0100
0010
0001
M010
0100
0010
0100
100M
0010
0100
0010
0001
0010
0001
0000
,
M020
0230
230M
3002
M023
0230
0320
0032
,
2M03
0000
3020
0000
M230
0000
0320
0000
203M
0000
3200
0000
2300
0000
3100
0001
,
M200
0320
0M32
0023
M230
0320
0230
2300
,
302M
0000
0230
0000
M320
0000
0032
0000
0M23
0000
0032
0000
0103
1000
0100
1000
,
020M
0320
M032
0023
023M
2300
3020
0230
,
M320
0000
0032
0000
0M23
0000
2030
0000
320M
0000
2300
0000
3100
1000
0200
0000
,
M310
0001
0010
0000
010M
1000
0010
0000
M100
0010
0001
0000
0010
0100
1000
0000
,
100M
0100
0010
0000
M001
0010
0100
0000
100M
0010
0100
0000
0010
0000
0000
0000
,
100M
0100
0010
0001
M010
0100
1000
0100
001M
0100
0001
0100
0010
0000
0000
0000
,
M010
0100
0010
0100
001M
0100
0001
0100
00M1
0100
1000
0100
1000
0000
0000
0000
,
100M
0010
0100
0001
10M0
0100
0010
0001
M010
0100
0010
0100
1000
0000
0000
0000
,
M010
0100
0010
0001
0M10
0001
0010
0100
001M
0100
1000
0100
0010
0000
0000
0000
,
M010
0001
1000
0100
001M
0100
0010
0100
M001
0100
1000
0100
0010
0000
0000
0000
,
0M01
1000
0010
0100
M010
0001
0010
0001
0M10
0100
0010
1000
0010
0000
0000
0000
,
100M
0100
0010
0000
M001
0010
0100
0000
100M
0010
0100
0000
0010
0001
0010
0000
,
100M
0100
0010
0000
M100
0010
0100
0000
100M
0100
0010
0001
0010
0100
1000
0000
,
M100
0010
0000
0010
0M01
0000
1000
0000
10M1
0000
0000
0000
1010
0000
0000
0000
,
0M10
1000
0000
1000
001M
0000
0100
0000
M110
0000
0010
0000
0011
0000
0000
0000
,
1M00
0010
0000
0010
100M
0000
0100
0000
M110
0000
0000
0000
0011
0000
0000
0000
,
001M
0100
0010
0000
01M0
1000
0100
0000
100M
0100
0010
0001
0010
0100
1000
0000
,
001M
0100
0010
1000
01M0
0000
0000
0000
M100
0000
0001
0000
1000
0000
0010
0000
,
010M
0000
0010
0000
1M00
0000
0010
0000
101M
0000
0000
0110
0000
0000
0011
0000
,
M110
0000
11M0
0000
M010
0001
0010
0100
,
100M
0000
0010
0000
M100
0000
0010
0000
100M
0010
0000
0010
0100
0000
0001
0000
,
M101
0000
1M10
0000
001M
0100
0010
0001
,
001M
0000
0100
0000
1M00
0000
0010
0000
1M1M
0000
000M
0110
M000
0000
0MM1
0000
,
M010
0000
01MM
0000
1M0M
0000
001M
0000
M1M0
0000
MM1M
0000
1MM0
0000
M1MM
M00M
,
MM1M
0M00
M1MM
M0M0
MMM1
0000
M1MM
0000
10MM
0000
M1M0
0000
0M10
0000
0100
0000
,
M001
0000
0001
0000
1M00
0000
0010
0200
000M
0000
0000
0300
0010
0000
1000
0200
,
00M0
0000
0000
0300
M010
0000
0001
0020
0M00
0000
0130
0000
1000
0010
1000
0000
,
000M
0020
0000
0030
M100
0000
0001
0200
00M0
0000
0000
0300
0010
0000
1000
0200
,
00M0
0000
0000
0300
M010
0000
0001
0000
0M10
0000
0100
0000
0000
0100
1000
0000
,
002M
0000
0000
0030
M100
0000
0010
2000
0M00
0000
0000
3000
0100
0000
0001
0200
,
00M0
0000
1300
0000
001M
0000
0100
0000
0M10
0000
1000
0000
0100
0010
0100
0000
,
M010
0000
0000
0000
0M01
0000
0010
0200
M000
0000
0300
0000
0100
0000
0010
2000
,
000M
0000
0000
3000
01M0
0000
0010
0002
0M00
0000
1003
0000
0000
0000
0110
0000
,
M010
0000
0000
0000
100M
0000
0100
0020
M000
0000
0000
0030
0010
0000
0100
2000
,
0M00
0000
0010
3000
010M
0000
0010
0000
M010
0100
0000
0100
0010
0000
0001
0000
,
M011
0000
011M
0000
10M0
0100
0010
0001
,
M010
0000
0100
0000
100M
0000
0100
0000
10M0
0100
0000
0100
1000
0000
0100
0000
,
M110
0000
0M11
0000
M010
0100
1000
0010
,
010M
0000
0010
0000
M001
0000
0110
0000
011M
0000
0000
1010
0000
0000
0011
0000
,
M110
0000
11M0
0000
0M10
0001
0010
0100
,
100M
0100
1000
0000
M001
0010
0001
0010
0M01
0000
1000
0100
1000
0100
1000
0000
,
002M
M230
03M2
2003
,
3M20
023M
M320
2030
,
32M0
2300
320M
0320
M032
0023
0230
0320
,
023M
2300
3M20
0230
M320
0032
0023
0130
,
202M
0000
0M00
3030
000M
0000
0000
0000
;

//---------------dance-single - E. Holniker----------------
#NOTES:
     dance-single:
     E. Holniker:
     Challenge:
     13:
     0.984,1.000,0.342,0.133,1.000,769.000,41.000,16.000,666.000,4.000:

0000
0000
0000
0000
0000
0000
0000
0000
0000
0000
0000
0000
0000
0000
0000
0000
0000
0000
0000
0000
0000
0000
0000
0000
0000
0000
0000
0000
M00M
MMMM
0MM0
0000
,
M00M
0000
0000
MMMM
MMMM
M00M
M00M
M00M
M00M
0MM0
0MM0
0000
0000
0000
0000
0000
0000
0000
0000
0000
0000
0000
0000
0000
0000
0000
0000
0000
0000
0000
0000
0000
,
0000
0000
0000
0000
,
0000
0000
0000
0000
,
100M
0100
M010
0000
010M
0010
0M01
0000
10M0
0100
001M
0000
M010
0100
00M1
0000
,
M010
0001
01M0
0000
1M00
0010
010M
0000
10M0
0100
M010
0000
0M01
0010
M100
0000
,
100M
0100
M010
0000
010M
0001
M010
0000
10M0
0100
001M
0000
M001
0010
010M
0000
,
1M00
0010
M100
0000
001M
0100
M010
0000
100M
0100
M010
0001
M010
0100
001M
0000
,
01M0
1000
0M10
0000
M100
0010
0M01
0000
001M
1000
01M0
0000
M010
0001
0M10
0000
,
010M
1000
0M10
0000
M100
0010
0M01
0000
001M
1000
01M0
0010
M001
0010
010M
0000
,
10M0
0100
M010
0000
01M0
0001
M100
0000
001M
0100
10M0
0000
M001
0100
001M
0000
,
M100
0010
1M00
0000
010M
0010
M001
0000
001M
0100
10M0
0100
M010
0100
00M1
0000
,
010M
1000
01M0
1000
010M
0000
M000
0000
0M01
0010
M001
0010
0M01
0000
000M
0000
,
M010
0100
001M
0100
M010
0000
000M
0000
01M0
1000
010M
1000
01M0
0000
000M
0000
,
M010
0100
001M
0100
M010
0000
0M00
0000
M001
0010
0M01
0010
M001
0000
0M00
0000
,
001M
1000
0M10
1000
001M
0000
1M00
0000
010M
0010
M100
0010
010M
0010
M001
0000
,
0M10
010M
1M00
M010
010M
0M10
10M0
0M01
,
M010
0000
01M0
0000
001M
0000
M100
0000
11M0
0000
M100
0000
0M10
0000
000M
0010
,
M001
0M10
010M
M010
010M
1M00
M010
010M
,
0M10
0000
M100
0000
001M
0000
1M00
0000
001M
0000
M000
0000
1M00
0010
000M
0010
,
M100
00M1
100M
M100
0M10
00M1
0M10
M100
,
1M00
0000
01M0
0000
0M10
0000
01M0
0000
0M10
0000
0M10
0000
010M
0000
M000
0100
,
100M
0000
00M1
0000
M010
0100
001M
0100
10M0
0000
M010
0000
010M
0010
M001
0010
,
0M01
0000
M010
0000
010M
0010
M000
0000
001M
0000
10M0
0100
M000
0010
0M01
0000
,
001M
0100
10M0
0100
M010
0000
0M01
0000
M010
0000
010M
0000
1M00
0000
M010
0000
,
010M
0010
M001
0010
010M
0000
0M10
0000
100M
0000
M100
0000
0M10
0000
M100
0000
,
10M0
0100
M010
0100
00M1
0000
M100
0000
1M00
0000
M001
0000
010M
0000
0M10
0000
,
010M
10M0
0M10
M100
00M1
1M00
010M
1M00
,
11M0
M1M0
01M1
0MM1
M110
01MM
11M0
0M1M
,
01M1
0000
M1M0
0000
M101
0000
01MM
0000
0M11
0000
0M1M
0000
0M10
1000
010M
0000
,
M110
0MM1
0M11
01MM
110M
M1M0
M101
M1M0
,
1M01
0000
0M1M
0000
M110
0000
0M1M
0000
1M10
0000
010M
0000
10M0
0100
100M
0100
,
001M
0MM1
0M11
M1M0
0M11
M1M0
1M10
0M1M
,
M110
MM10
0M11
0M1M
11M0
M1M0
011M
M001
,
100M
0100
M010
0000
0M01
0010
010M
0000
1M00
0010
010M
0000
M010
0000
0M00
0000
,
10M0
0100
001M
0000
M001
0010
010M
0000
1M00
0010
010M
0000
M010
0001
0M10
0000
,
110M
0000
0M10
0001
M010
0001
0M10
0001
M100
0010
010M
0010
M100
0010
0M01
0010
,
M001
0010
0M01
0010
100M
0100
001M
0100
M010
0001
M010
0100
001M
0100
10M0
0000
,
M100
0010
M100
0001
01M0
1000
010M
0010
M100
0010
M100
0001
01M0
1000
00M1
0100
,
M010
0100
M010
0001
0M10
1000
001M
0010
M100
0010
M100
0001
01M0
1000
010M
0000
,
10M0
0001
M100
0010
010M
0010
M001
0010
100M
0100
M010
0001
00M1
0100
001M
0100
,
10M0
0010
M100
0010
0M01
0010
M100
0010
100M
0010
M010
0100
M010
0001
1M00
0000
,
001M
0100
M010
0001
0M10
1000
001M
0010
M100
0010
M100
0001
01M0
1000
010M
0010
,
M001
0100
001M
0100
001M
1000
001M
0100
M010
0001
0M10
0001
M010
0100
M010
0100
,
001M
1000
0M00
1000
001M
0000
010M
0000
M220
0000
000M
0330
2MM2
0000
3M03
0000
,
0M10
1000
000M
1000
0M10
0000
M100
0000
011M
0000
M010
0000
0M22
0000
M000
0033
,
100M
0100
M000
0100
100M
0000
01M0
0000
220M
0000
00M0
3300
0M22
0000
M033
0000
,
001M
0100
0M10
0000
010M
1000
01M0
0000
0M10
0001
M010
0100
100M
0100
00M0
0000
,
1M00
0100
M010
0001
M010
0100
100M
0000
01M0
0000
0M10
0000
M001
0000
0M10
0000
,
010M
0000
10M0
0000
0M10
0000
1M10
0000
011M
0000
0M00
0011
M000
0000
011M
0000
,
10M0
0100
M010
0100
M010
0001
01M0
0000
1M00
0000
001M
0000
M001
0000
01M0
0000
,
0M01
0000
10M0
0000
010M
0000
M010
0000
0M01
0010
M000
0010
010M
0000
10M0
0000
,
10M0
0100
M010
0001
M010
0100
100M
0000
0M10
0000
M100
0000
0M10
0000
M001
0000
,
0M10
0000
100M
0000
01M0
0000
11M0
0000
011M
0000
M000
0011
0M00
0000
M110
0000
,
100M
0000
0M10
0000
M100
0000
0M10
0000
10M0
0100
001M
0001
M010
0100
100M
0010
,
M100
0010
0M01
0010
M100
0010
100M
0010
M010
0100
001M
0100
M001
0100
10M0
0100
,
001M
0000
M001
0000
1M00
0000
001M
0100
M000
0000
01M0
0000
0M10
0000
100M
0100
,
00M0
0000
M100
0000
1M00
0000
M001
0010
000M
0000
01M0
0000
M010
0100
100M
0010
,
M100
0000
0M10
0000
M001
0010
100M
0100
M010
0000
0M01
0000
001M
0100
10M0
0010
,
M100
0000
0M10
0000
M001
0010
0M00
0000
001M
0000
1M00
0000
10M0
0100
001M
0000
,
M001
0000
0M10
0000
010M
1000
001M
0100
M010
0000
0M01
0000
M010
1000
010M
0010
,
M001
0010
010M
0000
10M0
0100
100M
0100
M010
0000
0M01
0010
M100
0010
010M
0000
,
1M00
0010
100M
0010
1M00
0010
100M
0000
M001
0100
00M1
0100
M001
0100
00M1
0000
,
M100
0010
000M
0100
M010
1000
0M10
0000
001M
0100
M010
0001
M010
0100
100M
0000
,
M010
0100
001M
1000
010M
0010
M100
0001
01M0
0010
010M
1000
01M0
1000
010M
2000
,
00M0
0000
0M0M
0000
00MM
0M00
000M
0000
0M11
0000
00M0
0M00
000M
00M0
0M0M
3000
,
010M
0010
100M
0100
M010
0100
M001
0100
M010
0100
10M0
0001
M100
0010
M100
0020
,
000M
0M00
M00M
M000
0M0M
M00M
0M00
0000
M101
M000
0M00
000M
MM00
M000
0M0M
0030
,
10M0
0100
M010
0100
00M1
0100
M010
0100
100M
0001
1M00
0001
M100
0010
010M
0020
,
M00M
0M00
000M
M000
0M0M
0M00
000M
0000
110M
0000
M00M
0000
MM0M
0000
0M3M
0000
,
M100
0010
100M
0100
M010
0001
M010
0100
100M
0100
001M
0100
M001
0100
00M1
0200
,
M000
M0M0
00M0
000M
00MM
M00M
00M0
000M
101M
0000
M0M0
00M0
M0M0
0000
030M
0000
,
10M0
0100
M010
0001
0M10
0000
M100
0000
100M
0010
M100
0010
0M01
0010
M000
0000
,
010M
0000
M010
0000
1M00
0000
01M0
0000
001M
0000
00M1
0000
0M10
0000
00M0
0001
,
0M10
0000
M100
0000
10M0
0100
M010
0001
M010
0100
100M
0000
0M10
0000
M100
0000
,
001M
0100
M000
0100
M010
0001
0M00
0001
M010
1000
001M
1000
0M10
1000
0M01
2000
,
00M2
0000
0M00
0000
00M0
3003
0000
0000
0000
0000
0000
0000
0000
0000
0000
0000
;

//---------------dance-single - E. Holniker----------------
#NOTES:
     dance-single:
     E. Holniker:
     Medium:
     9:
     0.612,0.575,0.142,0.050,0.000,491.000,17.000,6.000,0.000,0.000:

0000
0000
0000
0000
,
0000
0000
0000
0000
,
0000
0000
0000
0000
,
0000
0000
0000
0000
,
1000
0010
1000
0010
0100
0001
0100
0001
,
0010
0001
0010
0001
0010
0100
0010
0100
,
1000
0100
1000
0100
0010
0001
0010
0001
,
0100
0010
0100
0010
1000
0100
1000
0000
,
0001
1000
0001
1000
0001
0100
0001
0100
,
0001
0010
0001
0010
0100
0010
0100
0010
,
0100
1000
0100
1000
0100
0010
0100
0001
,
0100
1000
0100
0010
0100
0010
0001
1000
,
0001
1000
0001
0000
0100
0001
0100
0000
,
0010
1000
0010
1000
0100
0010
0001
0000
,
0010
0100
0010
0000
0100
1000
0100
0000
,
1000
0100
0010
0001
0010
0010
0100
0000
,
0010
1000
0100
0010
0001
0010
0100
1000
,
0010
0100
0010
0001
0010
0100
0010
0000
,
1000
0100
0010
0001
0010
0100
1000
0010
,
0100
0010
0001
0010
0100
0010
1000
0000
,
0100
1000
0100
0010
0100
0001
0100
0010
,
0100
1000
0001
0100
0010
0100
0010
0000
,
1000
0100
0010
0100
0001
0100
1000
0001
,
0100
0010
0001
0010
1000
0010
0100
0000
,
0010
1000
0010
0000
0001
0100
0001
0100
,
0100
0010
1000
0000
0100
0010
0001
0010
,
0010
0100
1000
0000
0010
0100
0010
0100
,
0100
0010
1000
0000
0100
0010
0001
0010
,
0100
1000
0100
0000
0010
0001
0010
0100
,
1000
0010
0100
0000
0010
0001
0010
1000
,
0100
0010
0001
0000
0010
0100
1000
0010
,
0100
0010
0001
0010
1000
0100
0010
0000
,
0001
0010
0100
0010
0100
1000
0010
0000
,
0100
0010
1000
0010
0001
0010
0100
0000
,
0100
0000
1000
0100
0010
0001
0010
0000
,
0100
1000
0100
0010
0001
0010
0100
0000
,
1000
0100
1000
0100
1000
0100
1000
0100
,
0001
0010
0001
0010
0001
0010
0001
0010
,
0010
0100
0010
0100
0010
0100
0010
0100
,
0100
1000
0100
1000
0100
1000
0100
1000
,
1000
0001
1000
0001
1000
0001
1000
0001
,
0001
0010
0001
0010
0001
0010
0001
0010
,
0010
0100
0010
0000
0100
1000
0100
0000
,
1000
0001
1000
0001
0100
0001
0100
0001
,
0100
0100
0010
0010
1010
0000
1010
0000
,
0001
0001
0100
0100
1100
0100
0110
0000
,
0001
0001
0100
0100
0101
0000
0110
0000
,
1000
1000
0010
0010
1010
0010
1010
0000
,
0100
0001
0100
0000
0001
1000
0001
0000
,
0100
0010
0100
0000
0010
1000
0010
0000
,
1000
0100
1000
0000
0001
0010
0001
0000
,
0010
0100
0010
0000
0100
0010
0100
0000
,
1000
0100
1000
0000
0001
0010
0001
0000
,
1000
0010
0100
0000
0010
1000
0100
0000
,
0010
0001
1000
0010
,
0100
0010
1000
0100
,
1100
0001
0011
0010
,
0110
0000
0100
0000
1000
0100
1000
0100
,
1001
0001
0110
0010
,
1010
0010
0110
0001
,
1000
0100
0010
0001
0010
0100
1000
0010
,
0100
0010
0001
0010
1000
0100
1100
0000
,
0001
0010
0100
0010
0100
1000
0010
0100
,
0010
0001
0010
0100
0010
0001
0011
0000
,
0100
0010
1000
0100
0010
0001
0010
0100
,
2000
0000
0001
0000
0001
0000
0001
3000
,
0100
0010
1000
0100
0010
0001
0010
0001
,
0200
0000
0010
0000
0010
0000
0010
0300
,
1000
0100
0010
0001
0010
0100
1000
0010
,
2000
0000
0010
0000
0010
0000
0010
3000
,
0100
0001
0100
0000
0010
0100
0010
0000
,
0200
0000
0010
0000
0010
0000
0010
0300
,
0010
0001
0010
0100
0010
0100
1000
0010
,
0100
0010
0001
0010
1000
0100
0010
0100
,
0001
0100
1000
0001
0100
0010
0001
0010
,
1000
0010
0100
0010
0001
0010
1000
0200
,
2000
0000
0000
0000
0000
3300
0000
0000
;

//---------------dance-single - E. Holniker----------------
#NOTES:
     dance-single:
     E. Holniker:
     Easy:
     5:
     0.363,0.351,0.033,0.017,0.000,299.000,4.000,2.000,0.000,0.000:

0000
0000
0000
0000
,
0000
0000
0000
0000
,
0000
0000
0000
0000
,
0000
0000
0000
0000
,
1000
0010
0100
0001
,
1000
0100
0010
0001
,
0010
0100
1000
0010
,
0100
0000
0010
0000
1000
0000
0010
1000
,
0010
0100
0001
1000
,
0100
0010
0100
0001
,
0100
1000
0001
0100
,
0010
0000
1000
0000
0100
0000
1000
0100
,
1000
0001
0100
0010
,
1000
0000
0100
0000
0010
0000
0100
0010
,
0100
0010
0001
1000
,
0010
0000
0100
0000
0010
0000
1000
0100
,
1000
0000
0100
0000
0010
0000
0000
0001
,
0010
0000
0100
0000
0010
0000
0100
0010
,
0100
1000
0001
0100
,
0010
1000
0100
1000
,
0100
1000
0001
0010
,
0001
0000
0010
0000
0100
0000
0010
0100
,
0010
0001
1000
0010
,
0100
0010
1000
0010
,
1000
0100
1000
0000
0001
0000
0010
0000
,
0100
0010
0100
0000
1000
0000
0001
0000
,
0100
0001
0100
0000
0010
0000
1000
0000
,
0010
1000
0010
0000
0100
0000
0001
0000
,
1000
0100
0010
0001
,
0010
0000
0100
0000
1000
0000
0100
1000
,
0100
0010
0001
0010
,
0100
0000
1000
0000
0010
0000
1000
0010
,
1000
1010
0001
0100
,
0010
0100
0010
1000
,
0100
0010
0100
0000
0010
0000
0001
0000
,
1000
0010
0100
0010
,
1000
0010
1000
0000
0001
0000
0100
0000
,
0010
0100
0010
1000
,
0010
0100
0010
0000
0100
0000
0001
0000
,
1000
0100
0010
0100
,
0001
0100
0001
0000
0100
0000
1000
0000
,
0010
0100
0010
1000
,
0010
1000
0010
0000
0100
0000
0001
0000
,
0100
0001
0100
0000
0010
0000
1000
0000
,
0100
0010
0001
0010
,
0100
1000
0010
0000
,
0100
0001
1000
0100
,
0010
0001
0010
0000
,
0100
0000
1000
0000
,
0010
0000
1000
0000
,
0001
0000
0100
0000
,
0010
0000
1000
0000
,
0100
0010
0001
0010
,
0100
1000
0010
0000
,
0100
0010
1000
0100
,
1000
0100
0010
0000
0001
0000
0010
0000
,
0100
1000
0100
0000
0010
0000
0001
0000
,
0010
0100
1000
0010
,
0100
0010
1000
0100
,
0010
0001
0010
0100
,
0010
0100
0010
0000
0100
0000
1000
0000
,
0001
0100
0010
1000
,
0010
0001
0010
0000
1000
0000
0010
0000
,
1000
0100
1000
0000
0100
0000
0010
0000
,
0001
0010
0100
0010
,
0100
1000
0100
1000
,
0100
0010
0001
0010
,
0100
0010
0100
1000
,
1010
0010
0100
0010
,
0001
0010
1000
0100
,
1100
0001
0010
0100
,
0010
0100
1000
0010
,
1000
0010
1000
0000
,
0001
0100
0001
0000
,
0100
0010
0100
0010
,
1000
0100
0001
0010
,
2002
0000
0000
0000
0000
3003
0000
0000
;

//---------------dance-single - E. Holniker----------------
#NOTES:
     dance-single:
     E. Holniker:
     Beginner:
     1:
     0.137,0.158,0.008,0.000,0.000,114.000,1.000,0.000,0.000,0.000:

0000
0000
0000
0000
,
0000
0000
0000
0000
,
0000
0000
0000
0000
,
0000
0000
0000
0000
,
1000
0000
0000
0000
,
0001
0000
0000
0000
,
0100
0000
0000
0000
,
0010
0000
0000
0000
,
1000
0000
0000
0000
,
0100
0000
0000
0000
,
1000
0000
0000
0000
,
0001
0000
0000
0000
,
1000
0000
1000
0000
,
1000
0000
0000
0000
,
0010
0000
0010
0000
,
0010
0000
0000
0000
,
0100
0000
0100
0000
,
0100
0000
0000
0000
,
0010
0000
0010
0000
,
0010
0000
0000
0000
,
1000
0000
0000
0000
,
0001
0000
0000
0000
,
0100
0000
0000
0000
,
1000
0000
0000
0000
,
0010
0000
1000
0000
,
0010
0000
0000
0000
,
0100
0000
1000
0000
,
0100
0000
0000
0000
,
1000
0000
0001
0000
,
0010
0000
0000
0000
,
0100
0000
1000
0000
,
0010
0000
0000
0000
,
0100
0000
0001
0000
,
1000
0000
0000
0000
,
0010
0000
1000
0000
,
0100
0000
0000
0000
,
0010
0000
0001
0000
,
0010
0000
0001
0000
,
1000
0000
0100
0000
,
1000
0000
0100
0000
,
0010
0000
0100
0000
,
1000
0000
0000
0000
,
0001
0000
0100
0000
,
0010
0000
0000
0000
,
1000
0000
1000
0000
,
1000
0000
0000
0000
,
0001
0000
0001
0000
,
0001
0000
0000
0000
,
0100
0000
0010
0000
,
1000
0000
0100
0000
,
0010
0000
0001
0000
,
0010
0000
0100
0000
,
1000
0000
0010
0000
,
0100
0000
0010
0000
,
1000
0000
0100
0000
,
0010
0000
0001
0000
,
0010
0000
0100
0000
,
1000
0000
0100
0000
,
1000
0000
0100
0000
,
0010
0000
0001
0000
,
0010
0000
0100
0000
,
1000
0000
0010
0000
,
0100
0000
0001
0000
,
1000
0000
0010
0000
,
1000
0000
0010
0000
,
1000
0000
0001
0000
,
0100
0000
0010
0000
,
0100
0000
0000
0000
,
1000
0000
0100
0000
,
0010
0000
0000
0000
,
0001
0000
0010
0000
,
0100
0000
0000
0000
,
1000
0000
0010
0000
,
1000
0000
0000
0000
,
0001
0000
0100
0000
,
0001
0000
0000
0000
,
0110
0000
0000
0000
;
