#TITLE:Korobeiniki;
#SUBTITLE:(Tetris Theme);
#ARTIST:Ozma;
#TITLETRANSLIT:;
#SUBTITLETRANSLIT:;
#ARTISTTRANSLIT:;
#CREDIT:;
#BANNER:banner.PNG;
#BACKGROUND:background.PNG;
#LYRICSPATH:;
#CDTITLE:MrZombie.PNG;
#MUSIC:Korobeiniki.mp3;
#OFFSET:-5.940;
#SAMPLESTART:34.073;
#SAMPLELENGTH:9.820;
#SELECTABLE:YES;
#BPMS:0.000=170.000,252.000=85.000,267.500=170.000,323.000=225.000,325.000=350.000,326.500=450.000,328.000=550.000,334.000=680.000,338.000=600.000,341.000=500.000,345.000=450.000,347.000=400.000,348.000=350.000,349.500=270.000,350.000=255.000,350.500=240.000,351.000=225.000,352.000=177.924,352.500=176.504,353.500=176.000,369.000=120.000,369.250=100.000,369.500=60.000,369.750=20.000,370.000=10.000;
#STOPS:46.000=0.353
,141.000=0.353
,252.000=0.353
,267.500=0.353
;
#BGCHANGES:87.667=windwaker1024.jpg=1.000=0=0=1,
324.500=backgroundflash.PNG=1.000=0=0=1,
326.500=background.PNG=1.000=0=0=1,
328.500=backgroundflash.PNG=1.000=0=0=1,
330.500=background.PNG=1.000=0=0=1,
332.500=backgroundflash.PNG=1.000=0=0=1,
334.500=background.PNG=1.000=0=0=1,
337.333=background.PNG=1.000=0=0=1,
339.500=backgroundflash.PNG=1.000=0=0=1,
341.500=background.PNG=1.000=0=0=1,
343.500=backgroundflash.PNG=1.000=0=0=1,
345.500=background.PNG=1.000=0=0=1,
347.500=backgroundflash.PNG=1.000=0=0=1,
349.500=background.PNG=1.000=0=0=1,
350.000=backgroundflash.PNG=1.000=0=0=1,
350.500=background.PNG=1.000=0=0=1,
351.000=backgroundflash.PNG=1.000=0=0=1,
351.500=background.PNG=1.000=0=0=1,
352.000=backgroundflash.PNG=1.000=0=0=1,
352.500=background.PNG=1.000=0=0=1,
99999=-nosongbg-=1.000=0=0=0 // don't automatically add -songbackground-
;
// cache tags:
#FIRSTBEAT:0.000;
#LASTBEAT:369.833;
#SONGFILENAME:Songs/StepMix 2/Korobeiniki/tetris.sm;
#HASMUSIC:1;
#HASBANNER:1;
#MUSICLENGTH:138.274;
// end cache tags

//---------------dance-single - ----------------
#NOTES:
     dance-single:
     :
     Medium:
     8:
     0.461,0.869,0.535,0.448,0.058,310.000,74.000,62.000,0.000,0.000:
1000
0010
0000
0100
0000
0000
0000
0000
,
0001
0010
0000
0100
0000
0000
0000
0000
,
0100
0001
0000
1000
0000
0000
0001
0000
,
0001
0001
0001
0001
,
0100
0100
0010
0010
,
0001
0001
1000
1000
,
0022
0033
2200
3300
,
2002
0000
3003
0000
,
0110
0000
1001
0000
,
1100
0000
0101
0000
,
1010
0011
0220
0330
,
2002
0000
3003
0110
,
1000
0001
1000
0100
,
0010
1000
0001
0010
,
1000
0001
0100
1000
,
0001
0000
0000
0000
0000
0000
2002
0000
0000
0000
0000
0000
0000
0000
3003
0000
0000
0000
0000
0000
0000
0100
0000
0000
,
0000
0001
1000
0000
0010
1000
0001
0000
,
0000
0100
0010
0000
1000
0000
0010
0000
,
0001
0010
1000
1100
,
0011
2002
3003
1001
,
0100
0001
0010
0100
,
0001
0010
1000
0001
,
1000
0010
0001
1010
,
0101
0000
0202
0000
0303
0000
0000
1000
,
0000
0100
0010
0000
1000
0001
0100
0000
,
0000
0001
0100
0000
0100
0001
1000
0000
,
0010
0100
0010
0000
0001
0000
1000
0000
,
0100
0220
0330
0020
,
1030
2000
3100
0002
,
0013
0200
0301
0020
,
1030
0200
0310
2200
,
0000
0000
3300
0002
,
0003
0200
0300
0020
,
0030
0200
0300
1000
,
0100
0020
0000
0200
,
0000
0330
0000
0000
0001
0000
1000
0000
,
0010
0100
0001
1000
,
0100
1000
0010
0001
,
1000
0100
0001
1000
,
2002
3003
0001
1000
,
0010
0100
0100
0010
,
0001
1000
0100
0010
,
1000
0001
0010
0100
,
2002
3003
1000
1000
,
1000
1000
0100
0100
,
0100
0100
0010
0010
,
0010
0010
0001
0001
,
0001
0001
0010
0100
,
0001
1000
1000
0010
,
0100
0000
2001
0000
,
0010
0000
0200
0000
,
0000
3300
1000
1000
,
0100
0001
0010
0100
,
0001
0000
1002
0000
,
0100
0000
0020
0000
,
0000
0033
1100
1100
,
0011
0011
0110
0110
,
1001
1001
1100
0011
,
0101
1010
2002
0000
,
0000
3003
1100
1100
,
0110
0110
0011
0011
,
0101
0101
1100
0110
,
0022
0033
1001
1001
,
0110
0000
1000
0000
0100
0010
0001
0000
0010
0100
1000
0000
1000
0100
0010
0000
,
0001
0010
0100
0000
1000
0100
0010
0000
0011
0000
0110
0000
1100
0000
2200
0000
,
3300
0000
0000
1000
0100
0010
0001
0000
0001
0100
0010
0000
0000
0100
0001
0000
,
0001
0010
0100
0000
0100
0010
0001
0000
0001
0000
0011
0000
0110
0000
1100
0000
,
0000
1000
0000
0100
0001
0100
0000
1000
,
0010
0100
0000
0100
0010
0001
0000
1000
,
0010
0001
0000
0100
1000
0010
0000
0001
,
0000
1100
0000
1010
0000
2020
0000
3030
,
0000
0000
1000
0000
1000
0001
0000
0100
,
0010
1000
0000
0000
0010
0100
0000
0010
,
0100
0001
0000
0010
0001
0100
0000
1000
,
0000
1010
0000
0110
0000
0220
0000
0330
,
0000
2001
0000
0001
0000
0010
0000
0001
,
0000
3002
0000
0000
0000
0000
0000
0000
,
0000
0010
0000
0000
0000
0100
0000
0003
,
0000
2002
0000
0000
0000
0000
0000
0000
,
0000
0000
0000
0000
0000
3003
0000
0000
,
0000
0220
0000
0000
0000
0000
0000
0000
,
0000
0000
0000
0000
,
0000
0000
0000
0000
,
0000
0000
0000
0000
,
0000
0000
0000
0000
,
0000
0000
0000
0000
,
0000
0000
0000
0000
,
0000
0000
0000
0000
,
0000
0330
1000
0001
,
1001
0000
0000
0000
0000
0000
0000
0000
0000
0000
0000
0000
0100
0000
0000
0000
0000
0000
0000
0010
0000
0000
0000
0000
,
0000
0110
0000
0000
0000
0000
0000
0000
0000
0000
0000
0000
0000
0000
0100
0000
0000
0000
0000
0000
0010
0000
0000
0000
,
0000
0000
0000
0001
0000
0000
0000
0000
0000
0010
0000
0000
0000
0000
0000
2002
0000
0000
3003
0000
0000
0000
2002
0000
,
0000
0000
3003
0000
0000
0000
2002
0000
0000
0000
0000
3003
0000
0000
0000
0000
0000
0000
0000
0000
0000
0000
0000
0000
;

//---------------dance-double - Copied from----------------
#NOTES:
     dance-double:
     Copied from:
     Easy:
     1:
     0.000,0.000,0.000,0.000,0.000,0.000,0.000,0.000,0.000,0.000:












































00000000
00000000
00000000
00000000
;

//---------------dance-single - Blank----------------
#NOTES:
     dance-single:
     Blank:
     Beginner:
     2:
     0.157,0.267,0.181,0.137,0.004,108.000,25.000,19.000,0.000,0.000:
1000
0000
0000
0000
,
0001
0000
0000
0000
,
0100
0000
0000
0000
,
0000
0000
0000
0000
,
0100
0000
0000
0000
,
0010
0000
0000
0000
,
0001
0000
0000
0000
,
1001
0000
0000
0000
,
0100
0000
0000
0000
,
0010
0000
0000
0000
,
1000
0000
0000
0000
,
2002
0000
3003
0100
,
0000
0000
0000
0001
,
0000
0000
0000
0001
,
0000
0000
0000
1000
,
0000
1001
0000
0100
,
0000
0000
0000
1000
,
0000
0000
0000
0100
,
0000
0000
0000
0010
,
0000
1001
0000
1001
,
0000
0000
0000
0100
,
0000
0000
0000
0100
,
0000
0000
0000
1000
,
0000
0101
0000
0100
,
0000
0000
0000
0100
,
0000
0000
0000
1000
,
0000
0000
0000
0100
,
0000
0110
0000
0010
,
0000
0000
0000
1000
,
0000
0000
0000
0010
,
0000
0000
0000
1000
,
0000
0000
0000
0001
,
0000
0000
0000
0010
,
0000
0000
0000
0010
,
0000
1000
0000
0220
,
0000
0330
0100
0000
,
0000
0000
0001
0000
,
0000
0000
0010
0000
,
0000
0000
0100
0000
,
1001
0000
0001
0000
,
0000
0000
0100
0000
,
0000
0000
0100
0000
,
0000
0000
0100
0000
,
2002
3003
1000
0000
,
0000
0000
0100
0000
,
0000
0000
0010
0000
,
0000
0000
0001
0000
,
0000
0000
0010
0000
,
0001
0000
1000
0000
,
0100
0000
1000
0000
,
0010
0000
0001
0000
,
0000
0000
1000
0000
,
0100
0000
0010
0000
,
0001
0000
0001
0000
,
0010
0000
0010
0000
,
0000
0000
1000
0000
,
0000
0000
0100
0000
,
0000
0000
0001
0000
,
0000
0000
2002
0000
,
0000
3003
0100
0000
,
0110
0000
0010
0000
,
0110
0000
0100
0000
,
0110
0000
0220
0000
,
0330
1000
0000
0000
0000
0100
0000
0000
,
0000
0010
0000
0000
0000
1000
0000
1100
,
0000
0100
0000
0000
0000
0010
0000
0000
,
0000
1000
0000
0000
0000
0010
0000
0110
,
0000
1000
0000
0000
0000
0000
0000
0000
,
0000
0100
0000
0000
0000
0000
0000
0000
,
0000
1000
0000
0000
0000
0000
0000
0000
,
0000
0001
0000
0000
0000
1010
0000
0000
,
0000
0001
0000
0000
0000
0000
0000
0000
,
0000
0010
0000
0000
0000
0000
0000
0000
,
0000
0001
0000
0000
0000
0000
0000
0000
,
0000
0010
0000
0000
0000
0220
0000
0330
,
0000
0200
0000
0000
0000
0000
0000
0000
,
0300
0002
0000
0000
0000
0000
0000
0000
,
0000
0000
0000
0000
,
0000
2000
0000
0000
0000
0000
0000
0000
,
0000
0000
0000
0000
0000
3003
0000
0000
,
0000
0220
0000
0000
0000
0000
0000
0000
,
0000
0000
0000
0000
,
0000
0000
0000
0000
,
0000
0000
0000
0000
,
0000
0000
0000
0000
,
0000
0000
0000
0000
,
0000
0000
0000
0000
,
0000
0000
0000
0000
,
0000
0330
1001
0000
,
0000
0000
0110
0000
,
0000
0000
0000
0000
0000
0000
0000
0101
0000
0000
0000
0000
,
0000
0000
0000
0000
0000
1001
0000
0000
,
0000
0000
0000
0000
0000
0000
2002
0000
0000
0000
0000
3003
0000
0000
0000
0000
0000
0000
0000
0000
0000
0000
0000
0000
;

//---------------dance-single - Blank----------------
#NOTES:
     dance-single:
     Blank:
     Hard:
     10:
     0.606,1.000,0.796,0.593,0.112,395.000,110.000,82.000,0.000,0.000:
1000
0010
0000
0101
0000
0000
0000
0000
,
0001
0010
0000
1100
0000
0000
0000
0000
,
0100
0001
0000
1001
0000
0000
0001
0000
,
0100
0001
0100
0001
,
0120
0130
0012
0013
,
0201
0301
1020
1030
,
0202
0000
0000
0303
0220
0000
0000
0330
,
2002
0000
3003
0000
,
0110
0110
1001
1001
,
1100
0110
0101
0110
,
1100
0011
0220
0330
,
2002
0000
3003
0110
,
1000
0100
0001
0000
1000
0001
0100
0000
,
0010
0100
1000
0000
0001
1000
0010
0000
,
1000
0010
0001
0000
0100
0000
0101
0000
,
1001
0000
0000
0000
0000
0000
2002
0000
0000
0000
0000
0000
0000
0000
3003
0000
0000
0000
0000
0000
0000
1000
0000
0000
,
0000
0010
0001
0000
0010
0001
0100
0000
,
0000
1000
0100
0000
1000
0100
0010
0000
,
0001
0010
0100
0000
0010
0000
0011
0000
,
1001
2002
3003
0001
,
0100
1000
0001
0000
0010
1000
0100
0000
,
0001
0100
0010
0000
1000
0100
0001
0000
,
1000
0001
0010
0000
0001
0000
0110
0000
,
1100
0000
2200
0000
3300
0000
0000
1000
,
0000
0100
0010
0000
1000
0001
0100
0000
,
0000
0001
0100
0000
0100
0001
1000
0000
,
0010
0100
0010
0000
0001
0000
1000
0000
,
0100
0220
0330
0120
,
1030
2001
3100
0102
,
0013
0210
0301
0021
,
1030
0201
0310
2200
,
0000
0000
3300
0022
,
0033
0220
0330
2020
,
3030
2200
3300
1100
,
0101
0120
0000
0200
,
0000
0330
0000
0000
0001
0100
1000
0100
,
0010
0001
0100
0010
0001
0001
1000
0010
,
0100
0001
1000
0100
0010
1000
0001
0010
,
1000
0001
0100
0000
0011
0000
1001
0000
,
2002
0000
3003
0000
0001
0100
1000
0001
,
0010
1000
0100
0010
0100
0001
0010
1000
,
0001
0100
1000
0001
0100
0010
0100
0001
,
1000
0100
0001
0000
0110
0000
1001
0000
,
2002
0000
3003
0000
1000
0100
1000
0100
,
1000
0100
1000
0100
0100
0010
0100
0010
,
0100
0010
0100
0010
0010
1000
0010
1000
,
0010
1000
0010
1000
1000
0001
1000
0001
,
1000
0001
1000
0001
0100
0000
0010
0000
,
0001
0000
0000
0000
0010
0000
0000
0000
1000
0000
0000
1000
0010
0000
0110
0000
,
0220
0000
0330
0000
2002
0000
0000
0003
,
0020
0000
0000
0030
0200
0000
0000
0000
,
0000
3300
1000
0100
,
0001
0000
0000
0000
0100
0000
0000
0000
0010
0000
0000
0001
0100
0000
0101
0000
,
2002
0000
3003
0000
2002
0000
0000
3000
,
0200
0000
0000
0300
0020
0000
0000
0000
,
0000
0000
0033
0000
1000
0100
1100
0000
,
0010
0001
0011
0000
0010
0100
0110
0000
,
1000
0100
1001
0000
1100
0100
0011
0000
,
0101
0010
1010
0000
2002
0000
0000
0000
,
0000
0000
3003
0000
1010
1010
1010
0000
,
0011
0011
0011
0000
1100
1100
1100
0000
,
0101
0101
0101
0000
0110
0110
0110
0000
,
0220
0330
2002
0000
,
3003
0000
1000
1000
0100
0010
0001
0001
0010
0100
1000
1000
0100
0010
0001
0001
,
0010
0100
1000
1000
0100
0010
0001
0001
0010
0100
1100
0000
0101
0000
0202
0000
,
0303
0000
0010
1000
0100
0010
0001
0010
0001
0100
0010
1000
0100
0010
0001
0100
,
1000
0010
0100
0001
1000
0100
0001
1000
0010
0000
0101
0000
1100
0000
1100
0000
,
0000
0001
0000
1000
0010
0001
0000
0100
,
1000
0010
0000
0001
0010
0100
0000
0100
,
0001
1000
0000
0001
0100
0010
0000
0001
,
0000
1100
0000
1010
0000
2020
0000
3030
,
0000
0000
1000
0000
0010
0001
0000
0100
,
0001
0010
0000
0000
1000
0001
0000
0010
,
1000
0010
0000
0100
0001
0010
0000
0001
,
0000
1010
0000
0110
0000
0220
0000
0330
,
0000
2001
0000
0001
0010
0100
0000
0100
,
0010
3002
0000
0000
0000
0000
0000
0000
,
0000
0020
0000
0030
0000
0200
0000
0303
,
0000
2020
0000
0000
0000
0000
0000
0000
,
0000
0000
0000
0000
0000
3030
0000
0000
,
0000
0220
0000
0000
0000
0000
0000
0000
,
0000
0000
0000
0000
,
0000
0000
0000
0000
,
0000
0000
0000
0000
,
0000
0000
0000
0000
,
0000
0000
0000
0000
,
0000
0000
0000
0000
,
0000
0000
0000
0000
,
0000
0330
1100
1001
,
1001
0000
0000
0000
0000
0000
0010
0000
0000
0000
0000
0000
0100
0000
0000
0000
0000
0000
0000
0110
0000
0000
0000
0000
,
0000
0110
0000
0000
0000
0000
0000
0010
0000
0000
0000
0000
0000
0000
1100
0000
0000
0000
0000
0000
0001
0000
0000
0000
,
0000
0000
0000
1001
0000
0000
0000
0000
0000
0010
0000
0000
0000
0000
0000
2002
0000
0000
3003
0000
0000
0000
2002
0000
,
0000
0000
0000
0000
3003
0000
0000
0000
0000
0000
0000
0000
2002
0000
0000
0000
0000
0000
0000
0000
0000
3003
0000
0000
0000
0000
0000
0000
0000
0000
0000
0000
0000
0000
0000
0000
0000
0000
0000
0000
0000
0000
0000
0000
0000
0000
0000
0000
;

//---------------dance-single - Blank----------------
#NOTES:
     dance-single:
     Blank:
     Easy:
     5:
     0.264,0.334,0.246,0.297,0.007,181.000,34.000,41.000,0.000,0.000:
1000
0000
0000
0100
0000
0000
0000
0000
,
0001
0000
0000
0100
0000
0000
0000
0000
,
0100
0000
0000
1000
0000
0000
0000
0000
,
0000
0000
0000
0000
,
0100
0000
0100
0000
,
0010
0000
0010
0000
,
0020
0030
0200
0300
,
1001
0000
0000
0000
,
0100
0000
1001
0000
,
0010
0000
1001
0000
,
1000
0100
0010
0000
,
1000
0000
1001
0100
,
0000
0010
0000
0001
,
0000
0100
0000
0001
,
0000
1000
0000
1000
,
0001
1001
0000
0100
,
0000
1000
0000
0001
,
0000
1000
0000
0001
,
0000
0010
0000
0010
,
1000
1001
0000
1001
,
0000
0001
0000
0100
,
0000
0010
0000
0001
,
0000
0010
0000
1000
,
0100
0101
0000
0100
,
0000
0010
0000
0100
,
0000
0001
0000
1000
,
0000
0001
0000
0100
,
0000
0110
0000
0020
,
0030
2000
3000
0002
,
0003
0200
0300
0020
,
0030
0200
0300
0220
,
0000
0000
0330
0002
,
0003
0200
0300
0020
,
0030
0200
0300
0010
,
0000
2000
0000
0200
,
0000
3300
0001
1000
,
0010
0000
0001
1000
,
0100
0000
0010
0001
,
1000
0000
0001
1000
,
2002
3003
0001
1000
,
0010
0000
0100
0010
,
0001
0000
0100
0010
,
1000
0000
0100
0001
,
2002
3003
1000
0000
,
1000
0000
0100
0000
,
0100
0000
0010
0000
,
0010
0000
0001
0000
,
0001
0000
0010
0100
,
0001
1000
1000
0010
,
0100
0000
2000
3000
,
0020
0030
0002
0000
,
0003
0000
1000
0000
,
0100
0000
0010
0000
,
0001
0000
0002
0003
,
0200
0300
0020
0000
,
0030
0000
1000
0000
,
0001
0000
0100
0000
,
1000
0000
1000
0000
,
0100
0000
2002
0000
,
0000
3003
1100
0000
,
0110
0000
0011
0000
,
0101
0000
1100
0000
,
0011
0000
2002
0000
,
3003
1000
0000
0001
0000
0100
0000
1000
,
0000
0010
0000
0010
0000
1000
0100
1100
,
0000
1000
0000
0100
0000
0010
0000
0010
,
0000
1000
0000
0001
0000
0011
0000
0110
,
0000
1000
0000
0000
0000
0100
0000
0000
,
0000
0100
0000
0000
0000
0010
0000
0000
,
0000
1000
0000
0000
0000
0100
0000
0000
,
0000
0001
0000
0000
0000
2020
0000
3030
,
0000
0000
0000
0000
0000
0001
0000
0100
,
0000
1000
0000
0000
0000
0100
0000
0000
,
0000
0001
0000
0000
0000
0100
0000
0000
,
0000
0001
0000
0000
0000
0220
0000
0330
,
0000
2000
0000
0000
0000
0000
0000
0000
,
0000
3002
0000
0000
0000
0000
0000
0000
,
0000
1000
0000
0000
0000
1000
0000
0000
,
0000
2000
0000
0000
0000
0000
0000
0000
,
0000
0000
0000
0000
0000
3003
0000
0000
,
0000
0220
0000
0000
0000
0000
0000
0000
,
0000
0000
0000
0000
,
0000
0000
0000
0000
,
0000
0000
0000
0000
,
0000
0000
0000
0000
,
0000
0000
0000
0000
,
0000
0000
0000
0000
,
0000
0000
0000
0000
,
0000
0330
1001
0000
,
1001
0000
0110
0000
,
0000
0110
0000
0000
0000
0000
0000
0000
0000
0000
0000
0000
0000
0000
0101
0000
0000
0000
0000
0000
0000
0000
0000
0000
,
0000
1010
0000
0000
0000
1001
0000
0000
,
0000
0000
0000
0000
0000
0000
2002
0000
0000
0000
0000
3003
0000
0000
0000
0000
0000
0000
0000
0000
0000
0000
0000
0000
;
