#TITLE:Gundam Seed;
#SUBTITLE:- Invoke [Extended];
#ARTIST:TM Revolution;
#TITLETRANSLIT:;
#SUBTITLETRANSLIT:;
#ARTISTTRANSLIT:;
#CREDIT:Anime Toshokan;
#BANNER:Gundam Seed - Invoke [Extended].png;
#BACKGROUND:Gundam Seed - Invoke [Extended] bg.png;
#LYRICSPATH:;
#CDTITLE:dejiko.png;
#MUSIC:Gundam Seed - Invoke [Extended].mp3;
#OFFSET:4.355;
#SAMPLESTART:50.160;
#SAMPLELENGTH:15.800;
#SELECTABLE:YES;
#BPMS:0.000=48.750,11.000=19.200,12.000=152.000,347.500=131.000,348.000=152.010;
#STOPS:255.500=0.395
;
#BGCHANGES:12.000=Gundam Seed - Invoke [Extended].avi=1.000=0=0=1,
352.000=Gundam Seed - Invoke [Extended] bg.png=1.000=0=0=1,
99999=-nosongbg-=1.000=0=0=0 // don't automatically add -songbackground-
;
// cache tags:
#FIRSTBEAT:4.000;
#LASTBEAT:356.000;
#SONGFILENAME:Songs/Anime Mix 2/Gundam Seed - Invoke [Extended]/Gundam Seed - Invoke [Extended].sm;
#HASMUSIC:1;
#HASBANNER:1;
#MUSICLENGTH:150.290;
// end cache tags

//---------------dance-single - BASIC----------------
#NOTES:
     dance-single:
     BASIC:
     Easy:
     4:
     0.369,0.533,0.432,0.299,0.000,278.000,65.000,45.000,0.000,0.000:
0000
0000
0000
0000
,
2000
0000
0000
0000
,
3002
0000
0000
0003
,
1000
1000
1000
0000
,
0001
0001
0001
0000
,
0010
0010
0010
0010
,
0020
0000
0000
0030
,
1000
0100
0001
0100
,
1100
0100
0101
0000
,
1000
0010
0001
0010
,
1010
0010
0011
0000
,
0010
1000
0010
0000
,
0100
0001
0100
0000
,
0010
1000
0100
0000
,
0010
0001
0100
0000
,
1000
0001
1000
0001
,
1000
0001
1000
0001
,
0100
0010
0100
0010
,
0100
0010
0100
0010
,
1000
0010
0100
0001
,
0100
0010
1000
0010
,
0100
0001
1000
0100
,
1000
0001
0100
0001
,
1100
0101
1100
0000
,
0011
1010
0011
0000
,
1001
0110
1001
0110
,
2002
0000
0000
3003
,
1000
0001
1000
1001
,
1100
0101
1001
0000
,
0220
0330
2002
3003
,
0220
0330
2002
3003
,
1000
0010
0100
0001
,
0101
1010
0101
0000
,
0010
0010
0010
0010
,
0100
0100
0100
0100
,
0001
0001
0001
0001
,
1000
1000
1000
1000
,
1000
0010
0100
0001
,
0001
0100
0010
1000
,
2002
0000
0000
3003
,
0000
0000
0000
0000
,
0002
0003
0020
0030
,
0200
0300
2000
3000
,
0020
0030
0200
0300
,
0002
0003
0200
0300
,
1000
0100
0010
0001
,
1000
0100
0010
0001
,
1000
0100
0010
0001
,
1000
0100
0010
0001
,
2000
3000
0020
0030
,
0200
0300
0002
0003
,
1000
0100
0010
0001
,
1000
0100
0010
0100
,
1000
0100
0001
0010
,
0010
0001
0100
1000
,
1000
0100
0001
0010
,
0010
0001
0100
1000
,
1000
0100
0001
0010
,
0010
0001
0100
1000
,
0010
0010
0010
0010
,
0100
0100
0100
0100
,
0220
0000
0000
0330
,
0000
0000
0000
0000
,
2000
0000
0000
0000
3002
0000
0000
0003
,
1000
0001
1000
1001
,
1100
0101
1001
0000
,
0220
0330
2002
3003
,
0220
0330
2002
3003
,
1000
0010
0100
0001
,
0101
1010
0101
0000
,
0010
0010
0010
0010
,
0100
0100
0100
0100
,
0002
0000
0000
0003
,
2000
0000
0000
3000
,
1000
0100
0001
0100
,
1100
0101
1100
0101
,
0001
0010
1000
0010
,
0011
1010
0011
1010
,
0010
1000
0100
1000
,
1010
1100
1010
1100
,
0010
0001
0100
0001
,
0011
0101
0011
0101
,
0001
1000
0001
1000
,
2002
0000
0000
3003
,
1000
0010
0100
0001
,
1000
0010
0100
0001
,
0101
1100
0101
1100
,
1010
0011
1001
0110
,
2002
0000
0000
0000
,
3003
0000
0000
0000
;

//---------------dance-single - ANOTHER----------------
#NOTES:
     dance-single:
     ANOTHER:
     Medium:
     7:
     0.495,0.533,0.479,0.246,0.096,412.000,72.000,37.000,0.000,0.000:
0000
0000
0000
0000
,
2000
0000
3020
0230
,
0301
1000
0010
1001
,
1000
0100
0001
0100
1000
0000
0000
0000
,
0001
0100
1000
0100
0001
0000
0000
0000
,
1000
0010
1000
0000
0100
0001
0100
0000
,
2002
3003
0220
0330
,
1000
0010
0100
0001
0000
0001
0000
1000
,
0000
0001
0010
0100
1000
0000
0000
1000
,
0100
0000
0010
0001
0000
0001
0000
1000
,
0100
0010
0001
0010
0000
0000
0000
0100
,
1000
0000
0100
1000
0000
0100
0000
1000
,
0000
0100
1000
0100
0010
0000
0001
0000
,
0010
0000
0100
0010
0000
0010
0000
0100
,
0000
1001
0000
0110
0000
1001
0000
0010
,
0100
0000
0100
0010
0000
0010
0000
1000
,
0000
0001
0000
0010
0010
0000
1001
0000
,
1100
0000
0010
0001
0000
0010
0000
0100
,
0000
1000
0000
0001
0000
0100
0000
0010
,
0010
0000
1000
1000
0000
0101
0000
1001
,
0000
1010
0000
0010
0100
0000
0110
0000
,
1001
0000
0010
1000
0000
0001
0000
1001
,
0000
0001
0000
0100
0000
0010
0000
1000
,
0100
0001
0100
1000
0100
0001
0000
0001
,
0100
1000
0100
0001
0100
1000
0000
0001
,
0100
0010
1001
0110
,
1000
0000
0100
0000
0010
0000
0001
0000
0100
0000
0010
0000
,
1000
0000
0000
0000
0100
0000
0000
0000
0000
0010
0000
0000
0001
0000
0000
0000
0000
0000
0011
0000
0000
0000
0000
0000
,
1100
0000
0000
0000
0101
0000
0000
0000
1001
0000
0000
0000
0000
0000
1000
0010
,
1000
0000
0000
0000
0000
0000
0001
0100
0001
0000
0000
0000
1000
0000
0000
0000
,
2000
3002
0103
0000
,
1000
0000
0000
0000
0010
0000
0000
0000
0000
0100
0000
0000
0001
0000
0000
0000
0000
0000
1001
0000
0000
0000
0000
0000
,
0110
1010
0101
0000
,
1000
0000
0100
0100
0000
0010
0000
0001
,
0001
0000
0100
0100
0000
0010
0000
1000
,
1000
0000
0100
0100
0000
0000
0010
0000
,
0001
2000
0002
0000
0000
0000
3003
0000
,
1000
0010
0100
0000
0001
0010
0100
0000
,
0010
0100
0010
0000
0001
1000
0001
1000
,
0002
0000
0000
0000
,
0003
0000
0000
0000
,
1000
0000
0000
1000
0000
0000
0000
0000
0010
0000
0000
0000
0001
0000
0000
0001
0000
0000
0000
0000
0010
0000
0000
0000
,
0100
0000
0000
0100
0000
0000
0000
0000
0010
0000
0000
0000
1000
0000
0000
1000
0000
0000
0000
0000
0010
0000
0000
0000
,
1000
0000
0000
1000
0000
0000
0000
0000
0100
0000
0000
0000
0010
0000
0000
0010
0000
0000
0000
0000
0001
0000
0000
0000
,
0100
0000
0000
0100
0000
0000
0000
0000
0010
0000
0000
0000
1000
0000
0000
1000
0000
0000
0000
0000
0100
0000
0000
0000
,
1000
0100
0010
0001
1000
0000
1000
0000
,
0001
0100
0010
1000
0001
0000
0001
0000
,
1000
0100
0010
0001
1000
0000
1001
0000
,
0001
0100
0010
1000
0010
0000
0110
0000
,
2000
0000
0000
0000
3010
0000
0200
0000
0000
0000
0301
0000
,
2000
0000
0000
0000
3100
0000
0020
0000
0000
0000
0031
0000
,
1000
0100
0010
0001
1000
0000
1100
0000
,
0001
0100
0010
1000
0001
0000
0101
0000
,
2000
3100
0101
1100
,
0002
0103
1100
0101
,
2000
3010
0011
1010
,
0002
0013
1010
0011
,
2000
3001
0110
1001
,
0020
0130
1001
0110
,
2000
3020
0230
0302
,
0023
2030
3020
0032
,
0203
0000
0000
0000
,
0300
0000
0000
0000
,
1000
0000
0100
0000
0010
0000
0001
0000
0010
0000
0100
0000
,
1000
0000
0000
0000
0100
0000
0000
0000
0000
0010
0000
0000
0001
0000
0000
0000
0000
0000
0011
0000
0000
0000
0000
0000
,
1100
0000
0000
0000
0101
0000
0000
0000
1001
0000
0000
0000
0000
0000
1000
0010
,
1000
0000
0000
0000
0000
0000
0001
0100
0001
0000
0000
0000
1000
0000
0000
0000
,
2000
3002
0103
0000
,
1000
0000
0000
0000
0010
0000
0000
0000
0000
0100
0000
0000
0001
0000
0000
0000
0000
0000
1001
0000
0000
0000
0000
0000
,
0110
1010
0101
0000
,
1000
0000
0100
0100
0000
0010
0000
0001
,
0001
0000
0100
0100
0000
0010
0000
1000
,
1000
0000
0100
0100
0000
0000
0010
0000
,
0001
2000
0002
0000
0000
0000
3003
0000
,
1000
0010
1000
0010
1000
0010
1000
0000
,
0001
0100
0001
0100
0001
0100
0001
0000
,
1000
0001
1000
0001
1000
0001
1000
0000
,
0010
0100
0010
0100
0010
0100
0010
0000
,
1000
0010
0100
0001
0101
0000
1100
0000
,
1000
0000
0000
0000
0010
0000
0000
0000
0000
0100
0000
0000
0001
0000
0000
0000
0000
0000
1001
0000
0000
0000
0000
0000
,
1000
0010
1000
0010
1000
0000
1010
0000
,
1000
0100
1000
0100
1000
0000
1100
0000
,
0001
0010
0001
0010
0001
0000
0011
0000
,
0100
0001
0100
0001
0100
0000
0101
0000
,
1100
1001
0101
1001
,
0110
1001
0110
1001
,
1010
1001
0011
1001
,
0110
1001
0110
1001
,
0220
0000
0000
0000
,
0330
0000
0000
0000
;

//---------------dance-single - MANIAC----------------
#NOTES:
     dance-single:
     MANIAC:
     Hard:
     9:
     0.663,0.651,0.539,0.146,0.203,594.000,81.000,22.000,0.000,0.000:
0000
0000
0000
0000
,
1000
0000
0000
0100
0000
0000
0010
0000
0001
0000
0000
0000
0010
0000
0000
0000
0100
0000
0000
0000
1000
0000
0000
0000
0001
0000
0000
0000
0000
0000
0100
0000
,
0010
0000
2000
0000
3200
0000
0320
0000
0031
0100
0001
0000
1100
0000
0000
0000
,
0101
0001
1001
1000
1010
0000
0000
0000
,
0011
0010
0110
0100
1100
0000
0000
0000
,
1000
0010
0100
0000
0101
1100
0101
0000
,
2000
0000
3020
0000
0230
0000
0302
0000
0023
0000
0230
0000
,
1300
0100
0010
0001
0010
0100
1000
0100
,
0010
0001
0100
0010
1000
0100
0010
0000
,
0001
0100
1000
0100
0001
0010
0001
0100
,
1000
0100
0001
0010
0001
0100
0010
0000
,
1000
0010
1000
0010
0001
0010
0001
0010
,
1000
0100
1000
0100
0001
0100
0001
0000
,
1001
1100
0101
1001
,
0110
0001
0000
1000
0000
0100
0000
0100
,
1000
0100
0001
0100
1000
0100
0001
0100
,
1000
0010
0001
0010
1000
0010
0001
0010
,
1000
0001
0100
1000
0100
0001
0100
1000
,
0100
0001
1000
0010
0001
1000
0100
0000
,
0001
0010
0100
1000
0100
0000
1001
0000
,
1000
0010
0100
0001
0100
0000
1001
0000
,
0010
1000
0100
0000
0010
0001
0100
0000
,
1001
0010
0000
0100
0000
0001
0000
0000
,
0101
1000
0110
0001
1010
0000
0000
0000
,
1001
0010
1100
0010
0101
0000
0000
0001
,
2000
3200
0320
0032
,
1003
0000
0100
0000
0010
0000
0100
0000
1000
0000
0010
0000
,
1001
0010
0100
0001
0010
0100
1000
0010
,
0101
0000
1000
0000
0011
0000
0000
0000
0110
0000
0000
0000
0000
0000
1000
0010
,
1000
0000
0000
0000
0101
0000
0001
0010
0001
0000
0000
0000
1100
0000
0001
0100
,
0001
0000
0000
0000
1010
0000
1000
0100
1000
0000
0000
0000
0011
0000
0000
0000
,
1000
0100
0001
0100
1000
0000
0101
0000
,
1100
0000
0000
1001
0000
0000
0101
0000
0101
0000
0000
0000
0000
0000
0010
0000
,
1000
0100
1000
0100
0001
0100
0001
0100
,
1000
0010
1000
0010
0100
0001
0100
0001
,
0100
1000
0100
1000
0100
0010
0100
0010
,
1000
0010
1000
0010
0001
0010
0001
0000
,
0100
0010
1001
0000
0001
1000
0110
0000
,
1001
0000
1100
0000
0001
0000
0101
0000
0110
0000
1000
0000
,
0202
0000
0000
0000
,
0303
0000
0000
0000
,
1000
0000
0010
0000
0100
0001
0000
0001
0100
0000
0010
0000
1000
0010
0000
0010
,
1000
0000
0100
0000
0010
0001
0000
0001
0010
0000
0100
0000
1000
0010
0000
0010
,
1000
0000
0001
0000
0100
0010
0000
0010
0100
0000
0010
0000
1000
0001
0000
0001
,
1000
0000
0100
0000
0010
0001
0000
0001
0010
0000
0100
0000
1000
0100
0000
0100
,
1000
0100
0010
0001
1000
0100
0010
0001
,
1000
0100
0010
0001
1000
0100
0010
0001
,
1000
0010
0100
0001
1000
0010
0100
0001
,
1000
0010
0100
0001
1000
0010
1000
0000
,
0100
0000
0010
0000
0001
0100
0000
0010
1000
0000
0100
0000
0010
0001
0000
0100
,
0010
0000
1000
0000
0100
0010
0000
0001
0100
0000
0010
0000
1000
0100
0000
0010
,
0001
0100
0010
1000
0001
0100
0010
1000
,
0001
0100
0010
1000
0010
0100
0010
1000
,
0010
0100
1000
0100
0010
0100
0001
0100
,
0010
1000
0010
0100
0010
0001
0010
0100
,
0001
0010
0001
1000
0001
0100
0001
0010
,
0001
1000
0001
1000
0010
1000
0001
1000
,
0100
0010
0001
1000
0100
0010
0001
1000
,
0100
0010
0100
1000
0001
0010
0100
1000
,
0010
0010
1000
1000
0001
0001
0100
0100
,
0010
0010
0100
0100
0001
0001
1000
1000
,
0202
0000
0000
0000
,
0303
0000
0000
0000
,
1001
0000
0101
0000
0110
0000
1010
0000
0101
0000
1010
0000
,
1001
0010
0100
0001
0010
0100
1000
0010
,
0101
0000
1000
0000
0011
0000
0000
0000
0110
0000
0000
0000
0000
0000
1000
0010
,
1000
0000
0000
0000
0101
0000
0001
0010
0001
0000
0000
0000
1100
0000
0001
0100
,
0001
0000
0000
0000
1010
0000
1000
0100
1000
0000
0000
0000
0011
0000
0000
0000
,
1000
0100
0001
0100
1000
0000
0101
0000
,
1100
0000
0000
1001
0000
0000
0101
0000
0101
0000
0000
0000
0000
0000
0010
0000
,
1000
0100
1000
0100
0001
0100
0001
0100
,
1000
0010
1000
0010
0100
0001
0100
0001
,
0100
1000
0100
1000
0100
0010
0100
0010
,
1000
0010
1000
0010
0001
0010
0001
0000
,
1010
0000
0000
0010
0100
0000
0001
0000
0100
0000
0000
0000
1010
0000
0000
0000
,
0011
0000
0000
0010
0100
0000
0100
0000
1000
0000
0100
0000
0010
0000
0000
0000
,
1100
0000
0000
0100
0010
0000
0000
0000
0101
0000
0000
0100
0010
0000
0000
0000
,
1001
0000
0000
1000
0010
0000
0100
0000
0001
0000
0000
0000
1010
0000
0000
0000
,
1100
0000
0000
0010
0001
0000
0100
0000
0010
0000
1000
0000
0100
0000
0000
0000
,
0011
0000
0000
0010
0100
0000
1000
0000
0100
0000
0010
0000
0001
0000
0000
0000
,
0010
0100
1000
0100
0001
0100
1000
0100
,
0010
0001
0010
0100
0010
0001
0010
1000
,
0010
0001
0100
1000
0100
0001
0010
1000
,
0010
0001
0100
0010
1000
0100
0010
0000
,
0001
0001
0010
0010
0100
0100
1000
1000
,
2000
3200
0320
0031
,
0101
1000
0101
0000
1010
0001
1010
0000
,
1000
0001
0100
0000
1001
0100
1001
0110
,
2002
0000
0000
0000
,
3003
0000
0000
0000
;

//---------------dance-single - BEGINNER----------------
#NOTES:
     dance-single:
     BEGINNER:
     Beginner:
     2:
     0.203,0.296,0.286,0.086,0.000,158.000,43.000,13.000,0.000,0.000:
0000
0000
0000
0000
,
0000
0000
0000
0000
,
0000
0000
0000
0000
,
0000
0000
1000
0000
,
0001
0000
0001
0000
,
0010
0000
0010
0000
,
0020
0000
0000
0030
,
1000
0000
0001
0000
,
1100
0000
0101
0000
,
1000
0000
0001
0000
,
1010
0000
0011
0000
,
0010
0000
0010
0000
,
0100
0000
0100
0000
,
0010
0000
0100
0000
,
0010
0000
0100
0000
,
1000
0000
1000
0000
,
1000
0000
1000
0000
,
0100
0000
0100
0000
,
0100
0000
0100
0000
,
1000
0000
0100
0000
,
0100
0000
1000
0000
,
0100
0000
1000
0000
,
1000
0000
0100
0000
,
1100
0000
1100
0000
,
0011
0000
0011
0000
,
1001
0000
1001
0000
,
2002
0000
0000
3003
,
1000
0000
1000
0000
,
1100
0000
1001
0000
,
0110
0000
1001
0000
,
0110
0000
1001
0000
,
1000
0000
0100
0000
,
0101
0000
0101
0000
,
0010
0000
0010
0000
,
0100
0000
0100
0000
,
0001
0000
0001
0000
,
1000
0000
1000
0000
,
1000
0000
0100
0000
,
0001
0000
0010
0000
,
2002
0000
0000
3003
,
0000
0000
0000
0000
,
0001
0000
0010
0000
,
0100
0000
1000
0000
,
0010
0000
0100
0000
,
0001
0000
0100
0000
,
1000
0000
0010
0000
,
1000
0000
0010
0000
,
1000
0000
0010
0000
,
1000
0000
0010
0000
,
1000
0000
0010
0000
,
0100
0000
0001
0000
,
1000
0000
0010
0000
,
1000
0000
0010
0000
,
1000
0000
0001
0000
,
0010
0000
0100
0000
,
1000
0000
0001
0000
,
0010
0000
0100
0000
,
1000
0000
0001
0000
,
0010
0000
0100
0000
,
0010
0000
0010
0000
,
0100
0000
0100
0000
,
0220
0000
0000
0330
,
0000
0000
0000
0000
,
1000
0000
0001
0000
,
0000
0000
1000
0000
,
1100
0000
1001
0000
,
0110
0000
1001
0000
,
0110
0000
1001
0000
,
1000
0000
0100
0000
,
0101
0000
0101
0000
,
0010
0000
0010
0000
,
0100
0000
0100
0000
,
0002
0000
0000
0003
,
2000
0000
0000
3000
,
1000
0000
0001
0000
,
1100
0000
1100
0000
,
0001
0000
1000
0000
,
0011
0000
0011
0000
,
0010
0000
0100
0000
,
1010
0000
1010
0000
,
0010
0000
0100
0000
,
0011
0000
0011
0000
,
0001
0000
0001
0000
,
2002
0000
0000
3003
,
1000
0000
0100
0000
,
1000
0000
0100
0000
,
0101
0000
0101
0000
,
1010
0000
1001
0000
,
2002
0000
0000
0000
,
3003
0000
0000
0000
;
