#TITLE:Snowbound;
#SUBTITLE:;
#ARTIST:bLiNd;
#TITLETRANSLIT:;
#SUBTITLETRANSLIT:;
#ARTISTTRANSLIT:;
#CREDIT:;
#BANNER:snowbound-banner.png;
#BACKGROUND:snowbound-bg.png;
#LYRICSPATH:;
#CDTITLE:;
#MUSIC:bLiNd - Snowbound.mp3;
#OFFSET:-1.399;
#SAMPLESTART:75.680;
#SAMPLELENGTH:12.140;
#SELECTABLE:YES;
#BPMS:0.000=140.000;
#STOPS:;
#BGCHANGES:;
// cache tags:
#FIRSTBEAT:15.500;
#LASTBEAT:228.000;
#SONGFILENAME:Songs/StepMix 1.0/Snowbound/Snowbound.sm;
#HASMUSIC:1;
#HASBANNER:1;
#MUSICLENGTH:94.084;
// end cache tags

//---------------dance-single - ----------------
#NOTES:
     dance-single:
     :
     Hard:
     8:
     0.556,0.545,0.117,0.106,0.239,345.000,11.000,10.000,20.000,0.000:
0000
0000
0000
0000
,
0000
0000
0000
0000
,
0000
0000
0000
0000
,
0000
0000
0000
0000
,
1000
0000
0000
0100
0000
0000
0010
0000
0000
0000
0100
0000
1000
0000
0000
0000
,
0100
0000
0000
0010
0000
0000
0001
0000
0000
0000
1000
0000
0100
0000
1000
0000
,
0010
0000
0000
0100
0000
0000
0001
0000
0000
0000
0010
0000
0100
0000
0000
0000
,
0010
0000
0000
0001
0000
0000
0100
0000
0010
0000
1000
0000
0010
0000
0100
0000
,
0110
0000
0000
0100
0000
0000
0001
0000
0000
0000
1000
0000
1000
0000
0100
0000
,
0010
0000
0000
0100
0000
0000
1000
0000
0000
0000
0010
0000
0010
0000
0100
0000
,
0001
0000
0000
0001
0000
0000
1000
0000
0000
0000
0100
0000
0010
0000
0100
0000
,
1000
0000
0000
0010
0000
0000
0100
0000
0001
0000
1000
0000
0100
0000
0000
0000
,
0012
0000
1000
0000
0100
0000
0013
0100
,
2000
0000
0010
0000
0001
0000
3100
0010
,
0200
0000
0001
0000
1300
0100
0010
0200
,
1000
0001
0301
0110
,
1000
0000
0000
1100
0000
0000
0010
0000
0001
0000
0010
0000
0001
0000
0100
0000
,
0010
0000
0000
0110
0000
0000
0100
0000
0001
0000
1000
0000
0100
0000
1000
0000
,
0001
0000
0000
0101
0000
0000
0010
0000
0100
0000
0001
0000
0010
0000
0100
0000
,
1000
0000
0000
1010
0000
0000
0101
0000
0000
0000
1000
0000
0100
0000
0010
0000
,
0002
M000
1000
M0M0
0010
0M00
0103
001M
,
2000
000M
0001
000M
0001
000M
3001
100M
,
0200
000M
0001
M00M
1000
M0M0
0310
0001
,
0020
M000
1000
000M
0M31
0000
M1MM
0000
,
1000
0100
1000
0100
0001
0100
0001
0100
,
0010
0100
1000
0100
0010
0100
0001
0100
,
1000
0010
1000
0010
0100
0001
0100
0001
,
0010
1000
0001
0100
1000
0010
0100
0001
,
0010
0100
0010
0000
1000
0100
1000
0000
,
0001
0100
0001
0010
0100
1000
0100
0000
,
0001
0100
0001
0000
1000
0100
1000
0000
,
0010
0100
0001
0010
0100
1000
0010
0100
,
0001
0000
0000
1000
0000
0000
0100
0000
0000
1000
0000
0000
0010
0000
0000
0000
,
0100
0000
0000
0001
0000
0000
0010
0000
0000
0100
0000
0000
0010
0000
0000
0000
,
1000
0000
0000
0100
0000
0000
0001
0000
0000
0100
0000
0000
1000
0000
0000
0000
,
0010
0000
0000
0001
0000
0000
0010
0000
0000
1000
0000
0000
0010
0000
0000
0000
,
0010
0000
0000
0010
0100
0000
0001
0000
0100
0000
0001
0000
1000
0000
0100
0000
,
0010
0000
0000
0001
0000
0000
0100
0000
0000
0000
0010
0000
0010
0000
0000
0000
,
1000
0000
0000
1100
0000
0000
0100
0000
0000
0000
0010
0000
0001
0000
0010
0000
,
0100
0000
0000
0011
0000
0000
0100
0000
0000
0000
1000
0000
0100
0000
0000
0000
,
1000
0000
0010
1000
0000
0010
1000
0000
0100
0000
1000
0000
0100
0000
0000
0000
,
0010
0000
0001
0010
0000
0001
0010
0000
0100
0000
1000
0000
0100
0000
0010
0000
,
0100
0000
1000
0100
0000
1000
0100
0000
0010
0000
0001
0000
0010
0000
0000
0000
,
0001
0000
1000
0100
0000
0010
0100
0000
1000
0000
0001
0000
0100
0000
0010
0000
,
0100
0000
0001
1000
0000
0100
0010
0000
0001
0000
0010
0000
0100
0000
0000
0000
,
1000
0000
0001
0100
0000
0100
0001
0000
1000
0000
0100
0000
1000
0000
0010
0000
,
1000
0000
0100
0010
0000
0010
0100
0000
1000
0000
0001
0000
0100
0000
0000
0000
,
0010
0000
0100
0001
0000
0001
0100
0000
0010
0000
1000
0000
0010
0000
0100
0000
,
0001
0000
0000
0001
0000
0000
0001
0000
0100
0000
0010
0000
1000
0000
0100
0000
,
0010
0000
0000
0001
0000
0000
0100
0000
0010
0000
1000
0000
0010
0000
1000
0000
,
0100
0000
0000
0100
0000
0000
0100
0000
0001
0000
0100
0000
1000
0000
0010
0000
,
0100
0000
0001
0100
0000
0000
0010
0000
1000
0000
0010
0000
1000
0000
0100
0000
,
0010
0000
0000
0010
0000
0000
0001
0000
0100
0000
0010
0000
0100
0000
0001
0000
,
1000
0100
1000
0100
0001
0100
0001
0100
,
0010
0001
0100
1000
0001
1000
0100
0001
,
0010
0100
1000
0100
0010
0001
0100
1000
,
2200
0000
0000
0000
,
3300
0000
0000
0000
;

//---------------dance-single - ----------------
#NOTES:
     dance-single:
     :
     Medium:
     6:
     0.472,0.515,0.149,0.170,0.074,281.000,14.000,16.000,9.000,0.000:
0000
0000
0000
0000
,
0000
0000
0000
0000
,
0000
0000
0000
0000
,
0000
0000
0000
0000
,
1000
0000
0000
0100
0000
0000
0100
0000
0000
0000
0010
0000
0100
0000
0000
0000
,
1000
0000
0000
0001
0000
0000
0001
0000
0000
0000
0001
0000
0100
0000
0000
0000
,
0010
0000
0000
0100
0000
0000
0001
0000
0000
0000
1000
0000
0100
0000
0000
0000
,
0010
0000
0000
0001
0000
0000
0100
0000
0000
0000
0001
0000
0010
0000
0000
0000
,
1100
0000
0010
0000
0001
0000
0100
0001
,
0100
0000
0101
0000
0010
0000
1000
0100
,
1000
0000
0011
0000
0101
0000
1000
0100
,
0010
0000
0000
0100
0000
0000
1000
0000
0001
0000
0000
0000
0010
0000
0100
0000
,
0020
0001
1030
1000
,
0200
0001
0310
1000
,
0002
0010
0013
1000
,
0200
0001
1300
0110
,
1001
0000
0100
0000
0010
0001
0010
0001
,
0100
0000
0010
0000
1000
0100
1000
0100
,
0010
0000
0001
0000
0100
0010
0100
0010
,
0100
0000
0000
0001
0000
0000
1000
0000
0000
0000
0100
0000
0010
0000
0100
0000
,
2000
0001
3001
M001
,
0200
0010
0310
0M10
,
2000
0100
3010
M001
,
0020
1000
0031
0101
,
1000
0100
1000
0000
0010
0001
0010
0000
,
0100
0001
1000
0000
0100
1000
0001
1000
,
0100
0000
0100
0000
0010
0001
0010
0000
,
0100
1000
0100
1000
0100
0010
0001
0010
,
0002
0103
0200
0310
,
0020
1030
2000
3100
,
0100
0010
0001
0010
0000
0100
0001
0100
,
0000
1000
0100
1000
0000
0010
1000
0010
,
0100
0000
0000
0001
0000
0000
1000
0000
0000
0100
0000
0000
1000
0000
0000
0000
,
0100
0010
0001
0100
,
0010
0000
0000
0100
0000
0000
0001
0000
0000
1000
0000
0000
0100
0000
0000
0000
,
0010
0001
0010
0000
0100
0000
1000
0000
,
0010
0000
0000
0100
0000
0000
0100
0000
0000
0000
0010
0000
1000
0000
0000
0000
,
0100
0000
0000
0010
0000
0000
0010
0000
0000
0000
1000
0000
0100
0000
0000
0000
,
0001
0000
0000
0100
0000
0000
0100
0000
0000
0000
0010
0000
1000
0000
0000
0000
,
0001
0000
0000
0100
0000
0000
1000
0000
0000
0000
0100
0000
0001
0000
0000
0000
,
1000
0100
1000
0100
0010
0001
0010
0000
,
0001
0100
0001
0100
0010
1000
0010
0000
,
0010
1000
0100
1000
0010
1000
0100
0000
,
0010
0001
0100
0001
0010
0001
0100
0000
,
1000
0100
0001
0100
1000
0100
0001
0000
,
1000
0100
0010
0100
1000
0100
0010
0000
,
0010
0001
0100
0001
0010
0001
0100
0010
,
1000
0100
0010
0001
0100
0010
0100
0000
,
1001
0000
0100
0000
0010
0100
0001
0000
,
1100
0000
0010
0000
0001
0010
0100
0000
,
0110
0000
0100
0000
0001
1000
0100
0000
,
0011
0000
0001
0000
1000
0100
1000
0100
,
0020
0001
1030
1MM1
,
0200
0010
1300
MM11
,
2000
0010
3001
11MM
,
0010
0001
0010
0000
0010
0001
0100
0010
,
0020
0000
0000
0000
,
0030
0000
0000
0000
;

//---------------dance-single - ----------------
#NOTES:
     dance-single:
     :
     Easy:
     4:
     0.399,0.515,0.308,0.319,0.053,204.000,29.000,30.000,0.000,0.000:
0000
0000
0000
0000
,
0000
0000
0000
0000
,
0000
0000
0000
0000
,
0000
0000
0000
0000
,
0010
0000
0000
0010
0000
0000
0010
0000
0000
0000
0000
0000
1000
0000
0000
0000
,
0100
0000
0000
0100
0000
0000
0100
0000
0000
0000
0000
0000
0100
0000
0000
0000
,
0010
0000
0000
0010
0000
0000
0010
0000
0000
0000
0000
0000
0001
0000
0000
0000
,
0100
0000
0000
0100
0000
0000
0100
0000
0000
0000
0000
0000
0010
0000
0000
0000
,
0110
0100
0001
0001
,
0010
0010
0100
0100
,
1000
0100
0010
0100
,
1000
0001
0100
0010
,
0100
0101
0000
1100
,
0100
0110
0000
0011
,
0001
0101
0000
0110
,
0100
0100
0100
0010
,
0100
0001
0010
0010
,
0100
1000
0100
0100
,
0010
0001
0100
0010
,
1000
0100
0010
0100
,
0001
0101
0100
0110
,
0100
1100
1000
1010
,
0100
0101
0001
0011
,
0100
1100
0100
0110
,
2000
3100
0002
0103
,
0020
0130
0200
0310
,
0002
0000
2003
0000
,
3100
0100
0010
0010
,
0001
0101
1000
1100
,
0100
0110
0010
0100
,
0210
0310
1200
0310
,
0201
0310
1001
0110
,
1000
0000
0000
0100
0000
0000
1000
0000
0000
0000
0000
0000
0001
0000
0000
0000
,
0001
0000
0000
0100
0000
0000
0001
0000
0000
0000
0000
0000
0100
0000
0000
0000
,
0010
0000
0000
0100
0000
0000
0010
0000
0000
0000
0000
0000
0010
0000
0000
0000
,
1000
0000
0000
0001
0000
0000
1000
0000
0000
0000
0000
0000
0001
0000
0000
0000
,
0110
0000
0000
0100
0000
0000
0100
0000
0000
0000
0000
0000
0001
0000
0000
0000
,
1010
0000
0000
0010
0000
0000
0010
0000
0000
0000
0000
0000
0100
0000
0000
0000
,
0001
0010
0100
1000
,
0100
0001
1000
0010
,
0002
0203
0320
2030
,
3100
0100
0010
0010
,
0002
0023
0230
2300
,
3001
0001
0100
0100
,
0200
0320
2030
3200
,
0310
0001
0100
0010
,
2001
3100
1002
0103
,
0100
0010
1000
0110
,
0100
0100
0001
0001
,
0010
0010
0100
1000
,
0100
0100
0010
0010
,
0001
0100
1000
0010
,
0002
0103
2000
3100
,
0020
0130
0200
0310
,
0001
0100
0010
1000
,
0200
0010
0010
0310
,
2002
0000
0000
0000
,
3003
0000
0000
0000
;

//---------------dance-single - ----------------
#NOTES:
     dance-single:
     :
     Challenge:
     9:
     0.705,0.909,0.276,0.096,0.399,429.000,26.000,9.000,19.000,0.000:
0000
0000
0000
0000
,
0000
0000
0000
0000
,
0000
0000
0000
0000
,
0000
0000
0000
0000
0000
0000
0000
0000
0000
0000
0000
0000
0000
0000
0100
1000
,
0100
0000
1000
0100
0000
0000
1000
0000
0000
0000
0100
0000
0110
0000
0010
0001
,
0010
0000
0100
0010
0000
0100
0010
0000
0000
0000
1000
0000
1100
0000
1000
0000
,
0100
0000
0010
0001
0000
0001
1000
0000
0000
0000
0100
0000
0110
0000
0010
0000
,
0001
0000
0001
0100
0000
0100
0010
0000
0000
0000
1000
0000
1001
0000
0001
0000
,
0100
0000
0000
0100
0010
0000
0000
0010
1000
0000
0000
1000
0100
0000
0100
0000
,
0100
0000
0000
0100
0010
0000
0000
0010
0001
0000
0000
0001
0100
0000
0010
0000
,
1000
0000
0000
1000
0100
0000
0000
0100
0001
0000
0000
0001
0100
0000
1000
0000
,
0010
0000
0000
0010
0001
0000
0000
0001
0010
0000
0000
0010
1000
0000
0100
0000
,
0010
0001
0010
0001
0100
1000
0100
1000
,
0001
0010
0001
0010
0100
1000
0100
1000
,
0100
0001
0010
0100
1000
0100
0001
0100
,
1000
0100
0010
0100
1000
0001
0110
0000
,
1000
0000
0000
1000
0100
0000
0010
0000
0001
0000
0100
0000
0010
0000
0100
0000
,
0010
0000
0000
0010
1000
0000
0100
0000
0010
0000
0100
1000
0100
0000
1000
0000
,
0100
0000
0000
0100
0010
0000
0001
0000
0100
0000
0010
0000
0100
0000
0001
0000
,
0010
0000
0000
0100
0001
0000
0100
0000
1000
0000
0100
0000
0010
0000
0001
0000
,
0100
0010
1010
0100
0001
0000
0100
0010
,
1000
0100
0011
0100
1000
0001
0101
0000
,
1000
0100
0110
0100
1000
0001
0110
0100
,
0001
0010
0100
1000
0100
0010
1100
0000
,
0002
0010
1003
0000
2000
0010
3001
0000
,
0200
0001
1300
0000
0200
1000
0301
0100
,
0020
0000
0030
MMMM
0200
0000
0300
MMMM
,
1000
M1M0
0M1M
M0M1
0M1M
M1M0
1M00
0001
,
0100
0010
0100
0010
0100
0001
0100
0001
,
0010
0001
0010
0001
0010
1000
0010
1000
,
0001
1000
0001
1000
0100
1000
0100
1000
,
0100
0010
0100
0010
0100
0001
0100
0001
,
0101
0000
0000
0100
0010
0000
0100
0000
0001
0000
0010
0000
0100
0000
0100
0000
,
0001
0000
0000
0001
0100
0000
1000
0000
0100
0000
0010
0000
0100
0000
0100
0000
,
1000
0000
0000
1000
0100
0000
0010
0000
0001
0000
0100
0000
0010
0100
0010
0000
,
1000
0000
0000
1000
0100
0000
0010
0000
0100
0000
1000
0000
0010
0000
0001
0000
,
0010
0000
0000
0100
0010
0000
1000
0000
0100
0000
0010
0000
0001
0000
0020
0000
,
0100
0000
0130
1000
0100
0010
0001
0100
,
0010
0000
0000
1000
0001
0000
0100
0000
0001
0100
0001
0000
1000
0100
1000
0000
,
0001
0000
0000
0100
0001
0000
1000
0000
0100
0010
0100
0000
1000
0001
1000
0000
,
1100
0000
0000
1000
0100
0000
1000
0000
0100
1000
0100
1000
0100
1000
0100
0000
,
0110
0000
0000
0100
0010
0000
0100
0000
0010
0100
0010
0100
0010
0100
0010
0000
,
0011
0000
0000
0001
0100
0001
0100
0001
0100
0001
0100
0001
0100
0001
0100
0000
,
0110
0000
0000
0010
1000
0010
1000
0010
1000
0010
1000
0010
1000
0010
1000
0000
,
1010
0000
0000
0100
0001
0000
0010
0000
0100
0000
1000
0000
0100
1000
0100
0000
,
0011
0000
0000
0001
0100
0000
0010
0000
1000
0000
0100
0000
0010
0001
0010
0000
,
1100
0000
0000
0100
0010
0000
0001
0000
0100
0000
0010
0000
0100
0010
0100
0000
,
0001
0000
0000
0001
0010
0000
0100
0000
0100
1000
0001
0000
0100
1000
0001
0000
,
1100
0000
0000
0100
0000
0000
0110
0000
0010
0000
0000
0000
0001
0000
0100
0000
,
0110
0000
0000
0010
0000
0000
1100
0000
0100
0000
0000
0000
0010
0000
0001
0000
,
0110
0000
0000
1000
0000
0000
0100
0000
0001
0000
0000
0000
0001
0000
0100
0000
,
1000
0000
0100
0010
0000
0000
0010
0000
0001
0000
0000
0000
0100
0000
0010
0000
,
0110
0100
0001
0100
0010
0100
1000
0100
,
0010
0001
0010
1000
0010
0001
0010
1000
,
0100
0001
1000
0001
0100
1000
0001
0010
,
0100
1000
0100
0000
0010
0001
0010
0000
0100
0010
0100
0000
0010
0100
0010
0000
,
2002
0000
0000
0000
,
3003
0000
0000
0000
;

//---------------dance-single - ----------------
#NOTES:
     dance-single:
     :
     Beginner:
     1:
     0.173,0.238,0.074,0.000,0.000,107.000,7.000,0.000,0.000,0.000:
0000
0000
0000
0000
,
0000
0000
0000
0000
,
0000
0000
0000
0000
,
0000
0000
0000
0000
,
1000
0000
0000
0000
,
0001
0000
0000
0000
,
0100
0000
0000
0000
,
0010
0000
0000
0000
,
1001
0000
0100
0000
,
0010
0000
1000
0000
,
1000
0000
0100
0000
,
0010
0000
0001
0000
,
0110
0000
0000
0100
,
0100
0000
0000
0010
,
0010
0000
0000
1000
,
1000
0000
0000
0001
,
0100
0000
0010
0000
,
1000
0000
0100
0000
,
0100
0000
0010
0000
,
0010
0000
0001
0000
,
1000
1000
0000
0000
,
0001
0001
0000
0000
,
0100
0100
0000
0000
,
0010
0010
0000
0100
,
0100
0000
1000
0000
,
0100
0000
0010
0000
,
0001
0000
0100
0000
,
0010
0000
1000
0000
,
0100
0000
0100
0000
,
0010
0000
0010
0000
,
0001
0000
0001
0000
,
0100
0000
0100
0010
,
0010
0000
1000
0000
,
0100
0000
0100
0000
,
0010
0000
0100
0000
,
1000
1000
1000
0000
,
0100
0000
0100
0000
,
0001
0000
0001
0000
,
0010
0000
0010
0000
,
0001
0001
0001
0000
,
0100
0000
1000
0000
,
0100
0000
0010
0000
,
0001
0000
0010
0000
,
1000
0000
1000
0000
,
0100
0000
0100
0000
,
0010
0000
0010
0000
,
0001
0000
0100
0000
,
0010
0010
0010
0000
,
1001
0000
0100
0000
,
0110
0000
0100
0000
,
0001
0000
1000
0000
,
0100
0000
0010
0000
,
0110
0000
1000
0000
,
0110
0000
0001
0000
,
0110
0000
0100
0000
,
0010
0000
0010
0010
,
0010
0000
0000
0000
;

//---------------dance-double - ----------------
#NOTES:
     dance-double:
     :
     Easy:
     2:
     0.301,0.394,0.149,0.340,0.000,152.000,14.000,32.000,0.000,0.000:
00000000
00000000
00000000
00000000
,
00000000
00000000
00000000
00000000
,
00000000
00000000
00000000
00000000
,
00000000
00000000
00000000
00000000
,
10000000
00000000
00010000
01000000
,
00001000
00000000
00010000
00000100
,
00000010
00000000
00000010
00000001
,
00001000
00000000
10000000
01000000
,
01100000
00100000
00100000
00000000
,
00110000
00010000
00001000
00001000
,
00000100
00000010
00000001
00000010
,
00000100
00001000
00010000
00010000
,
02000000
00000000
00000000
00000000
,
23000000
00000000
00000000
00000000
,
32000000
00000000
00000000
00000000
,
03200000
00000000
00000000
00310000
,
00010000
01000000
00001000
00010000
,
00001000
00000100
00000010
00000100
,
00000001
00000100
00000010
00001000
,
00010000
00100000
10000000
01000000
,
02100000
00000000
00000000
00000000
,
03020000
00000000
00000000
00000000
,
00032000
00000000
00000000
00000000
,
00003200
00000000
00000000
00000000
,
00000301
00000000
00000100
00000000
,
00001000
00000000
00010000
01000000
,
20000000
00000000
32000000
00000000
,
03100000
00100000
00010000
00010000
,
00001000
00000000
00000100
00000000
,
00000001
00000000
00000010
00000000
,
00001000
00001000
00010000
00010000
,
01000000
01000000
10000000
10000000
,
12000000
00000000
03100000
00000000
,
02010000
00000000
03100000
00000000
,
00021000
00000000
00031000
00000000
,
00001200
00000000
00000310
00000000
,
00000010
00000001
00000100
00000000
,
00010000
10000000
01000000
00000000
,
00001000
00000100
00000001
00000000
,
00010000
01000000
10000000
00000000
,
20000000
31000000
02000000
03100000
,
00200000
00301000
00002000
00013000
,
00020000
00030100
00000200
00000310
,
00000020
00000031
00000002
00000103
,
00001000
00010000
01000000
10000000
,
02000000
03100000
00200000
01300000
,
00100000
00010000
00001000
00000100
,
00000002
00000103
00002000
00003100
,
00011000
00000000
01010000
00000000
,
10000000
01000000
01100000
00000000
,
00110000
00000000
00011000
00000000
,
00001000
00000100
00000110
00000000
,
00000002
00001000
00001003
00000000
,
00020000
00001000
00031000
00000000
,
02000000
00100000
03100000
00100000
,
20000000
01000000
31000000
01000000
,
20020000
00000000
00000000
00000000
,
30030000
00000000
00000000
00000000
;

//---------------dance-double - ----------------
#NOTES:
     dance-double:
     :
     Medium:
     5:
     0.452,0.485,0.255,0.213,0.085,254.000,24.000,20.000,0.000,0.000:
00000000
00000000
00000000
00000000
,
00000000
00000000
00000000
00000000
,
00000000
00000000
00000000
00000000
,
00000000
00000000
00000000
00000000
,
10000000
00000000
00000000
00010000
00000000
00000000
01000000
00000000
00000000
00000000
00000000
00000000
00100000
00000000
00000000
00000000
,
01000000
00000000
00000000
00001000
00000000
00000000
00010000
00000000
00000000
00000000
00000000
00000000
00000100
00000000
00000000
00000000
,
00000010
00000000
00000000
00000001
00000000
00000000
00000100
00000000
00000000
00000000
00000000
00000000
00001000
00000000
00000000
00000000
,
00010000
00000000
00000000
01000000
00000000
00000000
10000000
00000000
00000000
00000000
00000000
00000000
01000000
00000000
00000000
00000000
,
01100000
00000000
00100000
00000000
00001000
00000000
00010000
00000100
,
00001000
00000000
00000100
00000000
00000010
00000000
00000001
00000010
,
00000001
00000000
00000100
00000000
00001000
00000000
00010000
00001000
,
00010000
01000000
10000000
00100000
,
01020000
00100000
00100000
00130000
,
00021000
00000100
00000100
00030100
,
00001200
00000001
00001000
00000301
,
00012000
01000000
00013000
10010000
,
10000000
00000000
00000000
01000000
00000000
00000000
00100000
00000000
00000000
00000000
00000000
00000000
00100000
00000000
01000000
00000000
,
00100000
00000000
00000000
00010000
00000000
00000000
01000000
00000000
00000000
00000000
00000000
00000000
00001000
00000000
00010000
00000000
,
00000100
00000000
00000000
00001000
00000000
00000000
00000010
00000000
00000000
00000000
00000000
00000000
00000100
00000000
00000001
00000000
,
00000100
00000000
00000000
00001000
00000000
00000000
00010000
00000000
00000000
00000000
00010000
00000000
01000000
00000000
00000000
00000000
,
10000000
01000000
00100000
00000000
10000000
01000000
00100000
00000000
,
00100000
00010000
01000000
00000000
00100000
00010000
01000000
00000000
,
00001000
00010000
00000100
00000000
00001000
00010000
00000100
00000000
,
00010000
00001000
01000000
00010000
10000000
01000000
10000000
00000000
,
00200000
00310000
00020000
00031000
,
00002000
00000000
00003100
00000000
00000200
00000000
00000310
00000100
,
00000020
00000000
00000032
00000000
,
00001003
00000100
00001000
00000000
00010000
00001000
00010000
00001000
,
00020000
00000000
02030000
00000000
,
23000000
00000000
30200000
00000000
,
02300000
00000000
03020000
00000000
,
00230000
00000000
02300000
03000000
,
11000000
00000000
01000000
00000000
00100000
00010000
00100000
00000000
,
00010000
00000000
00000000
01000000
00000000
00000000
00010000
00000000
00000000
10000000
00000000
00000000
01000000
00000000
00000000
00000000
,
00110000
00000000
00001000
00000000
00010000
00000010
00000100
00000000
,
00000010
00000000
00000000
00000100
00000000
00000000
00000001
00000000
00000000
00000010
00000000
00000000
00000100
00000000
00000000
00000000
,
00011000
00000000
00000000
00001000
00010000
00000000
00000000
00000000
01000000
00000000
00000000
00000000
10000000
00000000
01000000
00000000
,
10000000
00000000
00000000
01000000
00000000
00000000
00100000
00000000
00000000
00000000
00010000
00000000
00100000
00000000
00000000
00000000
,
00001000
00000000
00000000
00010000
00000000
00000000
00000100
00000000
00000000
00000000
00001000
00000000
00000100
00000000
00000000
00000000
,
00000010
00000000
00000000
00000001
00000000
00000000
00000100
00000000
00000000
00000000
00000010
00000000
00000100
00000000
00000000
00000000
,
00001001
00000000
00001000
00000100
00001000
00000100
00001000
00000000
,
00011000
00000000
00010000
00001000
00010000
00001000
00010000
00000000
,
01010000
00000000
00100000
01000000
00100000
01000000
00100000
00000000
,
11000000
00000000
00100000
00010000
00100000
00010000
00100000
00000000
,
01001000
00000000
00100000
00001000
00100000
00001000
00100000
00000000
,
00010010
00000000
00010000
00000100
00010000
00000100
00010000
00000000
,
00001100
00000000
00010000
00000100
00001000
00000100
00010000
00000000
,
00011000
00000000
01000000
00001000
00010000
00001000
01000000
00000000
,
10010000
00000000
00010000
00000000
01000000
00000000
00001000
00010000
,
00000100
00000100
00000010
00000010
,
00000011
00000000
00000100
00000000
00001000
00000000
00000100
00010000
,
00000100
00010000
00010000
01000000
,
11000000
00000000
01000000
10000000
00010000
01000000
00100000
00000000
,
01010000
00000000
01000000
00001000
00010000
00000100
00000010
00000000
,
00000110
00000000
00000010
00000001
00000100
00000010
00001000
00000000
,
00011000
00000000
00010000
00001000
01000000
00010000
10000000
00000000
,
02200000
00000000
00000000
00000000
,
03300000
00000000
00000000
00000000
;

//---------------dance-double - ----------------
#NOTES:
     dance-double:
     :
     Hard:
     8:
     0.536,0.636,0.138,0.096,0.266,331.000,13.000,9.000,0.000,0.000:
00000000
00000000
00000000
00000000
,
00000000
00000000
00000000
00000000
,
00000000
00000000
00000000
00000000
,
00000000
00000000
00000000
00000000
,
10000000
00000000
00000000
00010000
00000000
00000000
01000000
00000000
00000000
00000000
00000001
00000000
00000100
00000000
00000000
00000000
,
00000001
00000000
00000000
00001000
00000000
00000000
00000100
00000000
00000000
00000000
10000000
00000000
01000000
00000000
00000000
00000000
,
10000000
00000000
00000000
01000000
00000000
00000000
00100000
00000000
00000000
00000000
00000100
00000000
00001000
00000000
00000000
00000000
,
00000100
00000000
00000000
01000000
00000000
00000000
00010000
00000000
00000000
00000000
00100000
00000000
01000000
00000000
00000000
00000000
,
11000000
00000000
01000000
00100000
00010000
00000000
00100000
00001000
,
01000000
00000000
00001000
00010000
00000100
00010000
00000010
00010000
,
00001000
00000000
01000000
00010000
00100000
00000000
01000000
10000000
,
00010000
00000000
00000000
01000000
00000000
00000000
00001000
00000000
00010000
00000000
00000100
00000000
00000010
00000000
00000000
00000000
,
00000012
00001000
00000103
00000110
,
00010200
00000001
00001300
00011000
,
01002000
00100000
00013000
00210000
,
10000000
00000000
00310000
00000000
10000000
01000000
00010000
00000000
,
01000000
00000000
00000000
00010000
00000000
00000000
00001000
00000000
00000000
00000000
00000100
00000000
00000010
00000000
00001000
00000000
,
00000001
00000000
00000000
00000100
00000000
00000000
00010000
00000000
00000000
00000000
01000000
00000000
10000000
00000000
01000000
00000000
,
00010000
00000000
00000000
00100000
00000000
00000000
01000000
00000000
00000000
00000000
10000000
00000000
00010000
00000000
01000000
00000000
,
00001000
00000000
00000000
00000010
00000000
00000000
00001000
00000000
00000000
00000000
00010000
00000000
00001000
00000000
00010000
00000000
,
02000000
00000000
10000000
00000000
03010000
00000000
01000000
00100000
,
00020000
00000000
01000000
00000000
00130000
00000000
00001000
00010000
,
00000200
00000000
00000001
00000000
00000310
00000000
00001000
00000100
,
00010000
01000000
10000000
11000000
,
10010000
00000000
00000000
01000000
00100000
00000000
00010000
00000000
01000000
00000000
00000000
00001000
00010000
00000000
00000100
00000000
,
00000010
00000000
00000000
00000001
00000010
00000000
00000100
00000000
00001000
00000000
00000000
00000100
00010000
00000000
00001000
00000000
,
01000000
00000000
00000000
00100000
01000000
00000000
00000000
00000000
00010000
00000000
00000000
01000000
00001000
00000000
00000000
00000000
,
01000000
00010000
00100000
00001000
00010000
00000100
00001000
00000001
,
00000100
00000010
00000100
00000000
00001000
00000100
00001000
00000000
,
01000000
00010000
10000000
00000000
00100000
00001000
00010000
00000000
,
00000100
00010000
00001000
00000000
10000000
01000000
00010000
00000000
,
00010000
00001000
00000100
00000001
00000100
00000010
00001000
00000100
,
00010000
00000000
00000000
00010000
00000000
00000000
01000000
00000000
00000000
10000000
00000000
00000000
01000000
00000000
00100000
00000000
,
00010000
00000000
00000000
01000000
00000000
00000000
00010000
00000000
00000000
00100000
00000000
00000000
00001000
00000000
00010000
00000000
,
00000100
00000000
00000000
00000100
00000000
00000000
00000010
00000000
00000000
00000001
00000000
00000000
00000100
00000000
00000010
00000000
,
00000100
00000000
00000000
00001000
00000000
00000000
00010000
00000000
00000000
01000000
00000000
00000000
10000000
00000000
00000000
00000000
,
01000000
00000000
00000000
00100000
00010000
00000000
01000000
00000000
10000000
00000000
01000000
00000000
00010000
00000000
01000000
00000000
,
00100000
00000000
00000000
01000000
00000000
00000000
00010000
00000000
00000000
00000000
01000000
00000000
00001000
00000000
00000000
00000000
,
00001000
00000000
00000000
00010000
00000000
00000000
00000100
00000000
00000000
00000000
00000100
00000000
00000010
00000000
00000000
00000000
,
00000001
00000000
00000000
00000100
00000000
00000000
00001000
00000000
00000000
00000000
00010000
00000000
00001000
00000000
00000000
00000000
,
01000000
00010000
00000000
01000000
00010000
00000000
01000000
00010000
00000000
01000000
00010000
00000000
10000000
00000000
01000000
00000000
,
10000000
01000000
00000000
10000000
01000000
00000000
10000000
01000000
00000000
10000000
01000000
00000000
00100000
00000000
00010000
00000000
,
00100000
00001000
00000000
00100000
00001000
00000000
00100000
00001000
00000000
00100000
00001000
00000000
00010000
00000000
00000100
00000000
,
00001000
00000100
00000000
00001000
00000100
00000000
00001000
00000100
00000000
00001000
00000100
00000000
00000010
00000000
00000001
00000000
,
00000100
00000000
00000000
00001000
00000100
00000000
00001000
00000000
00010000
00000000
01000000
00000000
10000000
00000000
01000000
00000000
,
10000000
00000000
00000000
10000000
00000000
00000000
10000000
00000000
00000000
00000000
00010000
00000000
01000000
00000000
00001000
00000000
,
00000010
00000000
00000000
00000010
00000000
00000000
00000010
00000000
00000000
00000000
00001000
00000000
00010000
00000000
00000100
00000000
,
00010000
00001000
00000000
00010000
00001000
00000000
00010000
00001000
00000000
00010000
00001000
00000000
01000000
00000000
00010000
00000000
,
01010000
00000000
01000000
00000000
00001000
00010000
00000100
00000010
,
00000100
00000000
00010000
00000000
00001000
01000000
00010000
10000000
,
01000000
00000000
00100000
00000000
00001000
00010000
00000100
00010000
,
00100000
00100000
10000000
11000000
,
01100000
00000000
00100000
00010000
00100000
00010000
00001000
01000000
,
00001000
01000000
00000100
00000010
00000100
00000010
00001000
00000001
,
00001000
00000001
00010000
01000000
00010000
01000000
00001000
00100000
,
00001000
00100000
01000000
00010000
01000000
00100000
10000000
00010000
,
02200000
00000000
00000000
00000000
,
03300000
00000000
00000000
00000000
;
