#TITLE:Frequency Clear;
#SUBTITLE:;
#ARTIST:Subatomic;
#TITLETRANSLIT:;
#SUBTITLETRANSLIT:;
#ARTISTTRANSLIT:;
#CREDIT:;
#BANNER:frequencyclear.jpg;
#BACKGROUND:frequencyclearbg.jpg;
#LYRICSPATH:;
#CDTITLE:;
#MUSIC:Frequency Clear.mp3;
#OFFSET:0.060;
#SAMPLESTART:42.547;
#SAMPLELENGTH:12.000;
#SELECTABLE:YES;
#BPMS:0.000=141.000;
#STOPS:0.000=0.080
;
#BGCHANGES:;
// cache tags:
#FIRSTBEAT:8.000;
#LASTBEAT:298.000;
#SONGFILENAME:Songs/StepMix 1/Frequency Clear/Frequency Clear.sm;
#HASMUSIC:1;
#HASBANNER:1;
#MUSICLENGTH:126.021;
// end cache tags

//---------------dance-single - Blank----------------
#NOTES:
     dance-single:
     Blank:
     Challenge:
     12:
     0.967,1.000,0.230,0.405,1.000,770.000,29.000,51.000,31.000,2.000:





0000
0000
0000
0000
,
0000
0000
0000
0000
,
0000
0000
0000
0000
,
0000
0000
0000
0000
,
1000
0001
1000
0000
0001
0000
0100
0000
1000
0000
0001
0000
1000
0000
0100
0010
,
0001
1000
0001
0000
0100
0000
0010
0000
0100
0000
1000
0000
0100
0000
0010
0100
,
1000
0100
1000
0000
1000
0000
0100
0000
0010
0000
0001
0000
0010
0000
0100
1000
,
0100
0000
0010
0000
0100
0000
0000
0000
0010
0000
0000
0000
0100
0000
0000
0000
0100
0000
0000
0000
0010
0000
0000
0000
0100
0000
0010
0000
0100
1000
0001
1000
,
0100
0010
0100
0000
0010
0000
0100
0000
0010
0000
0010
1000
0001
0000
1000
0100
,
0001
0010
0001
0000
0010
0000
0001
0000
0010
0000
0100
1000
0100
0000
0010
0001
,
0010
0100
1000
0000
0100
0000
0001
0000
0010
0000
0100
1000
0100
0000
0010
0001
,
1000
0000
0100
1000
0100
0010
0001
0010
0100
1000
0100
0010
0001
0000
1000
0000
,
0100
0010
0100
0000
0010
0000
0100
0000
1000
0000
0100
0010
0100
0000
0010
0100
,
0010
0100
1000
0000
0100
0000
0010
0001
0010
0000
0100
1000
0100
1000
0100
1000
,
0100
1000
0100
0000
0010
0000
0100
0000
1000
0000
0100
0010
0100
0000
0010
0001
,
1001
0000
MMMM
0000
0100
0010
0100
0000
0100
0010
0100
0000
1000
0000
0010
0001
,
0100
0000
0010
1000
0100
0000
0010
0001
0010
0000
0100
1000
0100
0000
0001
1000
,
0110
0000
1000
0100
1000
0000
0010
0001
0010
0000
0100
0010
0100
0000
0010
0001
,
1010
0000
0010
0100
0010
0000
0100
1000
0100
0000
0010
0100
0010
0000
2000
3002
,
0103
0000
0010
0100
0010
0000
1000
0100
0010
0001
0010
0100
1000
0100
0010
0001
,
1100
0000
0010
0100
0010
0000
0100
1000
0100
0000
0010
0001
0010
0000
0200
0320
,
0130
0000
0010
0100
1000
0000
1000
0100
0010
0000
0010
0001
0010
0000
0002
2003
,
3100
0000
0010
0100
0010
0000
0010
0100
1000
0000
1000
0100
0010
0001
0010
0100
,
1000
0000
0000
0100
0000
0000
0010
0000
0000
0001
0000
0000
0010
0000
0000
0000
0000
0000
0100
0000
0000
0000
0000
0000
4000
0000
0000
0000
0000
0000
0000
0000
3004
0000
0000
0000
0000
0000
0000
0000
4003
0000
0000
0000
0000
0000
0000
0000
,
3100
1000
0100
0000
0002
0000
0103
1000
0000
0010
0000
0100
1000
0000
0010
0000
,
1000
0001
0000
0100
0000
0010
0100
0000
0001
0000
0100
1000
0000
0020
0000
0031
,
1000
0000
0010
0000
1000
0100
0000
0001
0000
0010
0100
0000
2000
0000
3001
0010
,
0000
0100
0000
0001
0010
0000
0200
0000
1300
0001
0000
0200
0000
0310
0002
0000
,
1003
0100
0020
0000
0130
0000
1000
0100
0000
0001
0000
0010
0100
0000
2000
0000
,
3100
0010
0000
0200
0000
0310
0001
0000
1000
0000
0100
0010
0000
0200
0000
0301
,
0010
0000
0200
0000
0310
1000
0000
0010
0000
0100
1000
0000
0002
0000
1003
0100
,
0000
0000
1000
0010
0100
0001
0010
0100
1000
0010
1000
0001
1000
0000
0100
0000
,
0020
0000
0130
1000
0100
1000
0100
0020
0000
0130
1000
0010
0100
0010
0001
1000
,
0200
0000
0310
0001
0010
0100
0010
0002
0000
1003
0100
0010
0100
1000
0100
0010
,
2000
0000
3100
0010
0001
0010
0100
0010
0000
0020
0000
0130
0010
1000
0001
0010
,
0100
1000
0100
0010
0001
0010
0100
1000
0000
0010
0100
0010
1000
0100
0010
0001
,
2000
0000
3100
0010
1000
0001
0010
0200
0000
0310
1000
0100
1000
0010
0001
0100
,
0020
0000
0130
1000
0001
0100
0010
2000
0000
3100
0010
0001
1000
0100
0001
0010
,
2000
0000
3100
0010
0100
0010
1000
0002
0000
0013
0100
1000
0001
0010
0100
0001
,
0020
0000
0130
1000
0100
1000
0100
0010
0001
0010
0001
0010
2000
3200
0320
0032
,
1003
0100
1000
0000
2000
3000
0100
0010
0000
0002
0003
0010
0100
0000
2000
3000
,
0100
0010
0000
0002
0003
0010
0100
0000
0020
0030
0100
1000
0000
0100
0000
0010
,
0100
0000
0020
0030
0100
0001
0000
1000
0000
0001
0010
0000
0100
0000
0010
0100
,
0000
0020
0030
0100
1000
0000
0110
0000
0001
0010
0000
0100
0000
1000
0200
0300
,
1000
0100
0010
0000
0001
0000
0100
1000
0000
0100
0000
0010
0001
0000
1100
0000
,
0100
0010
0000
0001
0000
1000
0100
0000
0020
0030
0001
0010
0000
1000
0100
0010
,
0001
0000
0100
0000
0010
0100
0000
0001
0000
0010
1000
0000
0100
0000
0010
0100
,
0000
0000
1000
0000
0001
0000
0000
0000
0100
0000
1000
0000
0000
0000
1000
0000
0010
0000
0000
0000
0001
0000
0010
0000
1000
0000
0100
0001
0100
0010
0100
0001
,
1000
0000
0100
0010
0100
0000
1000
0100
1000
0000
0010
0001
0010
0000
0100
1000
,
0011
0000
0100
1000
0010
0000
0010
0001
0100
0000
0100
1000
0100
0000
0010
0100
,
0011
0000
1000
0001
0010
0000
1000
0100
0010
0000
0010
0100
1000
0000
1000
0010
,
1100
0000
0100
0010
1000
0000
0100
0010
0100
0000
1000
0100
0010
0000
1000
0100
,
0011
0000
1000
0100
1000
0000
0010
0100
0010
0000
0001
0010
0001
0000
1000
0001
,
0110
0000
1000
0100
0010
0000
0001
0010
0100
0000
1000
0010
0100
0000
0010
0001
,
0110
0000
0010
0100
1000
0000
0100
1000
0100
0000
0010
0001
0100
0000
0001
0100
,
1MMM
0000
0000
0000
MMM1
0000
0000
0000
1000
0001
0000
1000
0000
0100
0010
MMMM
,
1000
0100
0010
0000
0001
0000
0100
1000
0000
0010
0000
0100
0010
0000
0001
0000
,
0100
1000
0000
0010
0000
0100
0010
0000
0100
0000
1000
0100
0000
0010
0000
0001
,
0100
0000
0010
0000
0100
1000
0000
0010
0000
0100
0001
0000
0010
0000
0100
1000
,
0000
0010
0000
0100
1000
0000
0010
0000
0001
0010
0000
0100
0000
0010
0001
0000
,
1000
0100
1000
0000
0010
0001
0010
0000
0100
1000
0100
0000
0010
0100
0010
0000
,
0001
0100
0001
0000
0010
1000
0010
0000
0100
0001
0010
0000
1000
0100
0010
0001
,
0010
0100
0010
0000
1000
0100
1000
0000
0010
0100
0010
0000
0001
0100
0010
0000
,
0010
1000
0100
1000
0100
0010
0001
0100
0010
0100
0010
0004
0000
0000
4000
0000
,
3103
0010
0100
0000
0100
0000
0010
0000
0100
0000
0100
0000
0110
0000
1000
0010
,
0001
0100
0010
0000
0010
0000
0010
0000
0010
0000
0100
0000
0110
0000
1000
0010
,
0100
0010
0100
0000
1100
0000
0001
0000
1000
0000
0110
0000
0001
0000
0010
0000
,
1100
0010
0100
0011
0100
0010
1100
0011
,
1000
0010
0100
0000
0011
0000
0100
0000
0001
0000
0010
0100
1000
0000
0100
0010
,
0001
0010
0100
0000
1010
0000
0100
0000
0010
0000
0100
0000
0110
0000
0002
0000
,
0103
1000
0010
0000
1100
0000
0001
0000
0010
0000
0110
0000
1000
0000
0100
0000
,
0021
0000
0130
1000
0100
1000
0100
0010
0100
1000
0100
0010
0001
0010
0100
1000
,
2M02
0000
0000
0000
00M0
0000
0M00
0000
00M0
0000
0000
0000
0000
0000
00M0
0M00
0000
0000
0000
0000
0000
00M0
0000
0000
,
0M00
0000
00M0
0000
0000
0000
0000
0000
0000
0020
0000
0000
3030
0000
0000
2000
0000
0000
0103
0000
0000
0002
0000
0000
,
3MM3
000M
M0MM
0M00
00M0
0000
0000
0000
;

//---------------dance-single - Blank----------------
#NOTES:
     dance-single:
     Blank:
     Hard:
     9:
     0.713,0.793,0.032,0.397,0.460,572.000,4.000,50.000,44.000,3.000:



0000
0000
0000
0000
,
0000
0000
0000
0000
,
0000
0000
0000
0000
,
0000
0000
0000
0000
,
1000
0001
1000
0000
0010
0000
0100
0000
0001
0000
0100
0000
0001
0000
0100
0000
,
1000
0100
0010
0000
0100
0000
1000
0000
0010
0000
0100
0000
0001
0000
0010
0000
,
1000
0100
0010
0000
0001
0000
0010
0000
0100
0000
0010
0000
1000
0000
0010
0000
,
2000
0000
0000
0000
3000
0000
0200
0000
0000
0320
0000
0000
0032
0000
0000
2000
0000
0000
0003
0000
0000
0000
0000
0000
3000
0000
0200
0000
0000
0000
0320
0000
0000
0000
0030
0000
0200
0000
0000
0000
0000
0000
0000
0000
0300
0000
0000
0000
,
1000
0100
0010
0000
0100
0000
0010
0000
0100
0000
0001
0000
1000
0000
0100
0000
,
0010
0100
0010
0000
0001
0000
0010
0000
0100
0000
0010
0000
0001
0000
0010
0000
,
0100
0010
0100
0000
0010
0000
0100
0000
1000
0000
0100
0000
0001
0000
0010
0000
,
0100
1000
0010
0000
0100
0000
0001
0000
0010
0000
1000
0000
0010
0000
0100
0000
,
0010
0100
0010
0000
1000
0000
0010
0000
0100
0000
0001
0000
0010
0000
1000
0000
,
0100
1000
0100
0000
0001
0000
0010
0000
0100
0000
0010
0000
0001
0000
0100
0000
,
1000
0010
0001
0000
0010
0000
0100
0000
0010
0000
0001
0000
0010
0000
0100
0000
,
0010
0001
1000
MMMM
0010
0001
0100
MMMM
0010
1000
0100
MMMM
1000
0000
0001
0000
,
1000
0000
0000
0010
0100
0000
0000
0001
0010
0000
0000
0100
1000
0000
0000
0010
,
0002
0000
0003
0100
0010
0000
0000
0100
1000
0000
0000
1000
0010
0000
0000
0001
,
0020
0000
0030
0100
0010
0000
0000
0001
0010
0000
0000
0010
0100
0000
0000
1000
,
0200
0000
0300
0010
0100
0000
1000
0001
0010
0100
0010
0001
0010
0000
1000
0001
,
1000
0000
0000
0010
0100
0000
0000
0100
0001
0000
0000
0001
0010
0000
0000
0010
,
0200
0000
0300
0100
0010
0000
0000
0010
1000
0000
0000
1000
0001
0000
0000
0001
,
0020
0000
0030
0010
0100
0000
0000
0010
0001
0000
0000
0100
1000
0000
0000
0100
,
0010
0000
0100
0000
0010
0000
0100
0000
4000
0000
0000
3004
0000
0003
4000
0000
,
3100
0010
0100
0000
0010
0000
0100
0000
1000
0000
0100
0000
0010
0000
0001
0000
,
0100
0010
0100
1000
0100
0010
0100
1000
,
0010
0100
0010
0000
0100
0000
0010
0000
0010
0000
0100
0000
1000
0000
0010
0000
,
0100
0010
0010
0001
0010
0100
0100
2000
,
3100
0010
0100
0000
0010
0000
0001
0000
0010
0000
1000
0000
0100
0000
0010
0000
,
0100
1000
0100
0010
0001
0010
0100
0010
,
0100
0001
0100
0000
1000
0000
0100
0000
0010
0000
0100
0000
0010
0000
0001
0000
,
1000
0100
1000
0000
0010
0001
0010
0000
0100
1000
0100
0000
0010
0001
0100
1000
,
0200
0000
0320
0000
0230
0302
0023
0230
,
2300
0010
3001
0100
0001
0100
0020
1000
,
0130
0010
0100
0002
0000
0013
0100
2000
,
0000
0000
3100
0000
0020
0000
0000
0000
0230
0000
0000
0000
0310
1000
0001
1000
,
0100
0010
0200
0000
0310
0100
0020
0000
,
0100
0001
0230
0000
2000
0000
3310
0100
,
0010
0000
0001
0000
1000
0010
1000
0010
0000
0000
0100
0000
0010
0000
0002
0000
,
0010
0000
1003
0000
0100
0000
0010
0000
0001
0000
0010
0000
1000
0001
1000
0001
,
0100
0010
0100
1000
0100
0010
0100
1000
,
0100
1000
0100
0010
0100
0010
0001
0100
,
1000
0010
0100
0010
0100
0010
0001
0010
,
1000
0000
0001
0000
0100
0000
0001
0000
0010
0000
0001
0000
1000
0001
1000
0000
,
0010
0100
0010
1000
0010
0001
0010
0100
,
0010
0001
0010
0001
1000
0100
0010
0100
,
1000
0100
0010
0100
1000
0100
0010
0100
,
0010
0000
MMMM
0000
0100
0000
MMMM
0000
0010
0100
MMMM
0000
0010
0000
1000
0001
,
0100
0000
0000
0100
1000
0000
0000
0100
0010
0000
0000
0100
0010
0000
0000
0001
,
0020
0000
0030
0010
1000
0000
0000
0100
0010
0000
0000
0010
1000
0000
0000
0100
,
0020
0000
0030
0001
0010
0000
0000
1000
0100
0000
0000
0010
0100
0000
0000
0010
,
0002
0000
0003
0100
1000
0000
0000
0100
0010
0000
0000
0010
1000
0000
0000
0100
,
0002
0000
0003
0010
0100
0000
0000
0010
0100
0000
0000
1000
0100
0000
0000
1000
,
0200
0000
0300
0010
0001
0000
0000
0001
0100
0000
0000
0100
0010
0000
0000
0010
,
2000
0000
3000
0100
0010
0000
0000
0010
0001
0000
0000
0001
1000
0000
0000
1000
,
0002
0000
0000
0103
0010
0000
M000
0M00
10M0
0001
00M0
1M00
00M0
0M01
M000
0000
,
0100
0010
0100
1000
0100
0010
0100
0010
,
0001
1000
0100
0010
0001
0100
0010
0001
,
1000
0100
1000
0010
0001
0100
2000
3100
,
0010
0100
1000
0100
0010
0100
0010
1000
,
0100
0100
0010
0010
1000
1000
0010
0001
,
0100
0100
0010
0010
0001
0001
2000
3010
,
0100
0100
0010
0010
1000
1000
0010
0010
,
0001
0000
0001
0000
0010
1000
0010
0000
1000
0100
0010
0000
4000
0000
3004
0000
,
0103
0010
0100
0000
1000
0000
0100
0000
0010
0000
0001
0000
0100
0000
1000
0000
,
1000
0100
1000
0000
0100
0000
0010
0000
0100
0000
0010
0000
0100
0000
0010
0000
,
0001
0010
0001
0000
0100
0000
1000
0000
0100
0000
0001
0000
0010
0000
1000
0000
,
0100
0010
0100
0000
1000
0000
0100
0000
0010
0000
0100
0000
0001
0000
1000
0000
,
0010
0100
0010
0000
1000
0000
0100
0000
0010
0000
0001
0000
0010
0000
0001
0000
,
0010
0100
0010
0000
1000
0000
0100
0000
0100
0000
0010
0000
0001
0000
0010
0000
,
0001
0010
0001
0000
0100
0000
0010
0000
0010
0000
1000
0000
0100
0000
0010
0000
,
2000
0000
3200
0000
0320
0032
0023
0030
2000
0000
0200
0000
3020
0000
0300
0000
,
2032
0000
0000
0000
0000
0000
0000
3003
0000
0000
0M00
M00M
0000
0000
M000
00M0
,
0000
0M00
0000
0000
000M
00M0
1M00
0000
0000
00M0
0001
0000
1000
0000
1001
0000
,
M00M
0000
0000
0000
;

//---------------dance-single - Blank----------------
#NOTES:
     dance-single:
     Blank:
     Medium:
     5:
     0.356,0.440,0.071,0.270,0.032,271.000,9.000,34.000,46.000,0.000:

0000
0000
0000
0000
,
0000
0000
0000
0000
,
1000
0100
0010
M0M0
,
0001
0010
0100
0MMM
,
1000
0001
1000
0001
,
01M0
0001
0010
1000
,
0001
0010
0001
M01M
,
2000
0000
0000
3001
,
2000
3000
0001
1000
,
0020
0000
1030
0010
,
0002
0000
0013
0100
,
0002
0000
0013
0100
,
2000
0000
3010
0100
,
0002
0000
0013
0100
,
0020
0000
0130
0001
,
M0M0
0000
1M00
000M
00M1
M000
1000
0000
,
0100
0001
0010
0100
,
0010
0001
0010
0100
,
0010
0100
0010
0001
,
1000
0100
0001
0010
,
1100
0001
0100
0010
,
0001
0010
0100
0010
,
0001
1000
0010
0100
,
0011
0000
0000
0100
0000
0000
M0M0
0000
MMMM
0M00
0000
0000
,
1000
0100
0001
0000
0010
0000
0100
0000
,
0001
0010
0100
0010
,
0001
1000
0010
0000
0100
0000
0010
0000
,
0001
0010
0100
0010
,
2000
3010
0100
0001
,
0010
0001
0010
0100
,
0002
0013
0100
0010
,
M000
0M00
000M
0M00
,
1000
0001
1000
0000
,
0001
0010
0001
0000
,
1000
0100
1000
0000
,
0010
0000
0100
0000
0010
0000
0000
0001
,
1000
0100
0020
0030
,
0001
0010
0200
0300
,
1000
0100
0020
0030
,
0001
0000
0000
0000
1000
0000
0000
0000
0001
0000
0000
0000
1000
0001
0100
0000
,
0010
0100
0001
0010
,
1000
0100
0010
0100
,
0001
0020
0130
0010
,
1000
0200
0310
0100
,
0001
0010
0100
0010
,
1000
0100
0010
0100
,
0001
0010
1000
0001
,
1000
0000
0010
0000
0001
0000
2000
0001
,
3010
0100
0010
0001
,
1100
0010
0100
0010
,
0101
0001
0010
0100
,
0110
1000
0100
0001
,
1010
0100
0010
0001
,
1001
0100
0010
0001
,
1100
0010
0100
0001
,
0100
0000
0010
0000
1000
0001
1000
MMMM
,
2000
3100
0010
0000
,
0200
0001
1300
0000
,
0020
0100
1030
0000
,
0002
0100
0013
0000
,
2000
0100
3010
0000
,
0002
0100
0013
0000
,
0020
1000
1030
0000
,
0020
0230
0320
0032
,
1003
0100
1000
0000
0010
0000
0000
0000
0100
0000
0000
0000
0002
0000
0000
0000
,
0103
0010
0100
0000
0010
0000
0000
0000
0100
0000
0000
0000
0020
0000
0000
0000
,
1030
0100
1000
0000
0100
0000
0000
0000
0010
0000
0000
0000
0200
0000
0000
0000
,
0301
1000
0100
2000
,
3010
0100
0010
0000
0100
0000
0000
0000
0100
0000
0000
0000
0002
0000
0000
0000
,
0013
0100
0010
0000
0100
0000
0000
0000
0100
0000
0000
0000
2000
0000
0000
0000
,
3001
1000
0001
0000
0010
0000
0000
0000
0010
0000
0000
0000
0002
0000
0000
0000
,
0103
1M00
M010
01MM
,
MMMM
0M00
00M0
0M00
,
0M00
0000
00M0
0100
M00M
1000
00M1
0110
,
0M00
0000
0000
0000
;

//---------------dance-single - Blank----------------
#NOTES:
     dance-single:
     Blank:
     Easy:
     2:
     0.227,0.264,0.016,0.286,0.032,162.000,2.000,36.000,107.000,2.000:

0000
0000
0000
0000
,
0000
0000
0000
0000
,
0000
0000
0000
0000
,
0000
0000
0000
0000
,
2000
0000
0000
3001
,
0200
M000
0000
0010
,
0302
00M0
M000
0100
,
1003
0010
0100
0020
,
1030
1000
M000
0001
,
0100
0100
0M00
0010
,
M000
00M0
0M00
0010
,
1000
0M00
0010
000M
,
1000
0100
0M00
0001
,
0100
0010
0M00
1000
,
0M00
00M0
M00M
0M10
,
0100
MMMM
MMMM
MMMM
,
0200
0000
0310
0100
,
0002
0000
0013
0100
,
0020
0000
0130
0100
,
0200
0000
0310
0010
,
0001
M000
00M0
0M00
,
0100
M000
00M0
0M00
,
0010
0M00
00M0
000M
,
1000
0010
2000
0002
,
3103
0010
0100
MMMM
,
0100
1000
0100
MMMM
,
0001
0010
0100
MMMM
,
0100
0010
0100
0000
,
0010
0100
0010
0000
,
1000
0100
1000
0000
,
0001
0010
0001
0000
,
2000
0000
0002
0000
,
3103
0M00
00M0
1000
,
0001
0000
M000
0100
,
0010
M000
00M0
1000
,
0100
0M00
0000
0010
,
2000
3000
0001
0100
,
0020
0030
0100
0001
,
2000
3000
0100
0010
,
MMMM
0M00
0MM0
00M0
,
0100
0001
0000
0100
,
1000
1000
0000
0001
,
0010
0010
0000
0100
,
0002
M003
2000
30M0
,
0100
0000
0001
0000
,
1000
0000
0100
0000
,
0010
0000
0001
0000
,
1000
0100
0010
0001
,
2000
0000
3100
0010
,
0002
0000
0013
0100
,
2000
0000
3100
0010
,
MMMM
0000
0100
0010
,
1000
0100
0010
0100
,
0001
0010
0001
0010
,
M000
0M00
00M0
000M
,
1000
0000
0000
0001
0000
0000
M000
0M0M
M0M0
00M0
0M00
0000
,
0200
0000
0302
0000
,
0023
0000
0130
0010
,
0200
0000
0310
0000
,
2000
0000
3001
0100
,
0020
0000
0230
0000
,
0301
1000
0200
0000
,
0320
0000
0230
0000
,
1300
0M0M
10M0
MM00
,
2000
0000
0000
3001
,
0020
0000
0000
0130
,
0002
0000
0000
1003
,
0100
0000
0000
1001
,
0200
0000
0000
0310
,
0002
0000
0000
0103
,
2000
0000
0000
3010
,
M000
0000
0000
0000
0000
0000
0M00
0000
0000
0000
0000
0000
00M0
0000
0000
0000
0000
0000
000M
0000
00M0
0000
0000
0000
0M00
0000
0000
0000
M000
0000
0M00
0000
0000
00M0
0000
0000
000M
0000
00M0
0000
0M00
0000
M000
0000
0000
0000
0000
0000
,
1001
00M0
M000
0M00
,
M000
00M0
M000
00M0
,
00M0
0000
0000
0000
;
