#TITLE:Summer;
#SUBTITLE:;
#ARTIST:Smiley;
#TITLETRANSLIT:;
#SUBTITLETRANSLIT:;
#ARTISTTRANSLIT:;
#CREDIT:;
#BANNER:Summer.png;
#BACKGROUND:Summer-bg.png;
#LYRICSPATH:;
#CDTITLE:;
#MUSIC:Summer.mp3;
#OFFSET:-0.051;
#SAMPLESTART:15.000;
#SAMPLELENGTH:11.960;
#SELECTABLE:YES;
#BPMS:0.000=160.000;
#STOPS:;
#BGCHANGES:;
// cache tags:
#FIRSTBEAT:24.000;
#LASTBEAT:296.000;
#SONGFILENAME:Songs/StepMix 1.0/Summer/Summer.sm;
#HASMUSIC:1;
#HASBANNER:1;
#MUSICLENGTH:109.744;
// end cache tags

//---------------dance-single - Alezay----------------
#NOTES:
     dance-single:
     Alezay:
     Challenge:
     11:
     0.929,1.000,0.383,0.264,0.980,643.000,42.000,29.000,9.000,0.000:

0000
0000
0000
0000
,
0000
0000
0000
0000
,
0000
0000
0000
0000
,
0000
0000
0000
0000
,
0000
0000
0000
0000
,
0000
0000
0000
0000
,
1001
0000
0001
0000
0100
0000
0010
1000
0000
0100
0000
0010
0001
0100
0010
0000
,
1000
0000
0001
0000
1000
0000
0100
0010
0000
0010
0000
0001
0100
0010
1000
0000
,
0100
0000
0010
0000
1000
0000
0010
0001
0000
0001
0000
1000
0001
1000
0001
0000
,
1000
0000
0001
0000
0010
0000
0100
1000
0000
0001
0000
1000
0100
0010
0001
0000
,
1001
0000
0001
0000
0100
0000
0010
1000
0000
1000
0000
1000
0001
0000
0001
0000
,
1000
0000
0100
0000
0010
0000
0001
0010
0000
0100
0000
1000
0001
0000
0001
0000
,
0100
0000
0010
0000
1000
0000
0010
0001
0000
1000
0000
0100
0001
0000
1000
0000
,
0100
0000
0010
0000
1000
0000
0010
0100
0000
1000
0000
0100
0010
0000
0010
0001
,
0100
0000
0010
0000
1000
0000
0001
0100
0000
0010
0000
0100
0001
0000
1000
0000
,
0100
0000
0010
0000
0001
0000
0001
0100
0000
0010
0000
0100
0001
0000
1000
0000
,
1001
0000
0001
0000
1000
0000
0001
0100
0000
0010
0000
0100
0010
0000
1000
0000
,
1010
0000
1000
0000
0100
0000
0010
1000
0000
0001
0000
0100
1000
0000
0010
0000
,
0101
0000
0000
0002
M000
0000
2000
0000
3003
0000
0001
0000
1000
0001
0100
0000
,
0100
0000
0000
0100
0000
0000
0100
0000
0000
0000
0010
0000
1000
0000
0001
1000
,
0001
0000
0000
1001
0000
0000
1002
0000
0000
0000
1003
0000
0100
0010
0001
0010
,
0100
1000
0001
0100
0200
0300
MMMM
0000
,
1001
0000
0001
0100
0000
0010
1000
0000
0001
0000
1000
0100
1000
0000
0001
0000
,
0100
0010
1000
0100
0010
0001
1000
0001
0010
0001
1000
0100
1000
0000
1001
0000
,
1001
0000
1000
0010
0000
0100
0010
0000
0100
0000
0010
1000
0100
0000
0100
0000
,
1000
0001
0100
0001
0100
0001
0100
0010
0100
0001
0100
0001
1000
0001
1000
0001
,
1000
0001
0100
0001
0100
0010
0100
0010
1000
0010
1000
0001
1000
0001
1000
0100
,
1000
0010
1000
0001
0100
0001
0010
0001
1000
0001
0100
0010
1000
0100
0010
0001
,
1000
0100
1000
0001
0010
0001
0100
0010
0100
0010
1000
0010
0100
0010
0001
0010
,
1000
0100
0010
1000
0010
0100
1000
0001
0100
0010
1000
0100
0010
0001
1000
0001
,
1001
1100
0110
0011
1001
0101
1010
M0MM
,
1001
0000
1000
0000
0010
0000
0100
0001
0000
0001
0000
0001
1000
0000
1000
0000
,
0001
0000
0010
0000
0100
0000
1000
0100
0000
0010
0000
0001
1000
0000
1000
0000
,
0010
0000
0100
0000
0001
0000
0100
1000
0000
0001
0000
0010
1000
0000
0001
0000
,
0010
0000
0100
0000
0001
0000
0100
0010
0000
0001
0000
0010
0100
0000
0100
1000
,
0010
0000
0100
0000
0001
0000
1000
0010
0000
0100
0000
0010
1000
0000
0001
0000
,
0010
0000
0100
0000
1000
0000
1000
0010
0000
0100
0000
0010
1000
0000
0001
0000
,
1001
0000
1000
0000
0001
0000
1000
0010
0000
0100
0000
0010
0100
0000
0001
0000
,
0101
0000
0001
0000
0010
0000
0100
0001
0000
1000
0000
0010
0001
0000
0100
0000
,
0002
0000
0200
0003
2000
0300
0002
3000
2000
0003
0000
0000
0002
3000
0020
0003
,
2000
0030
0020
3000
0002
0030
2000
0003
0000
0000
0001
0000
0000
0000
0200
3000
,
0002
0300
2000
0003
0200
3000
0002
0300
2000
0003
0000
0000
0001
0000
0000
0000
,
0002
0000
0000
3000
0000
0000
2000
0000
0000
0003
0000
0000
0020
0000
0000
3000
0000
0000
2000
0000
0000
0030
0000
0000
0020
0000
0000
0000
0000
0000
0000
0000
0000
3000
0000
0000
0000
0000
0030
0000
0000
0000
0000
0000
0000
0000
0000
0000
,
0001
1000
0001
0100
0010
0000
1000
0001
,
0100
0010
1000
0002
0003
1001
0000
1000
,
0001
0100
0010
1000
0100
1000
0001
0100
,
0010
0000
1000
0000
0100
0000
M010
0000
0100
0000
1000
0000
0001
1000
0001
1000
,
0001
0000
0000
1100
0000
0000
0011
0000
0000
0000
0000
0000
0000
0000
0001
0000
,
1000
0100
1000
0010
0100
0001
1000
0100
,
0010
0001
1000
0100
0010
0001
0100
0010
,
1000
0001
0100
0010
1000
0100
1000
0010
,
0100
0000
0000
1001
0000
0000
1001
0000
0000
0000
0100
0000
0100
0000
0001
0000
,
1000
0000
0000
0110
0000
0000
0110
0000
0000
0000
0001
0000
1000
0000
0100
0000
,
0010
0000
0000
1001
0000
0000
0101
0000
0000
0000
0010
0000
1000
0000
0001
0000
,
0100
0010
1000
0100
0010
0000
0001
0000
,
0101
0000
0001
0100
0000
0100
0001
0000
1001
0000
1000
0001
1000
0000
1100
0000
,
0100
0010
0001
0010
0100
1000
0001
0100
0010
1000
0100
1000
0001
0010
0001
0000
,
1001
0000
1000
0100
0000
0100
1000
0000
0001
0000
1000
0001
1000
0000
1001
0000
,
0001
0100
0010
1000
0100
0010
0001
1000
0001
0010
0100
1000
0001
0010
0001
1000
,
0100
1000
0001
0100
0001
1000
0100
1000
0001
1000
0001
0100
0001
1000
0001
0010
,
0001
1000
0100
1000
0010
1000
0001
1000
0100
0010
0001
0010
0100
1000
0001
0100
,
0010
1000
0010
0100
0001
1000
0100
1000
0001
0100
0001
1000
0010
1000
0001
0010
,
0001
1000
0100
0010
0100
1000
0001
0100
0010
0100
0001
1000
0100
0010
0001
0100
,
0001
0000
1000
0100
0010
0100
0000
0100
1000
0001
0100
0010
0100
0000
0100
0001
,
1001
0000
0001
0000
0001
0000
1000
0001
0000
1000
0000
0001
1000
0000
0001
0000
,
0101
0000
0100
0000
0010
0000
0100
0001
0000
1000
0000
0001
0100
0000
0010
0000
,
1010
0000
1000
0000
0100
0000
0010
0001
0000
1000
0000
0001
0100
0000
0010
0000
,
1001
0000
0100
0000
0100
0000
0010
1000
0000
0001
0000
1000
0100
0000
0100
0000
,
1100
0000
0100
0000
0010
0000
0001
0100
0000
0010
0000
0100
0001
0000
1000
0000
,
1001
0000
1000
0000
0001
0000
0100
0010
0000
0010
0000
0010
0100
0000
0001
0000
,
1001
0000
1000
0000
0100
0000
0010
0100
0000
0010
0000
0100
0010
0000
0001
0000
,
0101
0000
0001
0000
1000
0000
0001
0100
0000
0001
0000
0100
0001
0000
1000
0002
,
2000
3003
0000
0000
;

//---------------dance-single - Alezay----------------
#NOTES:
     dance-single:
     Alezay:
     Hard:
     9:
     0.735,0.860,0.319,0.046,0.442,525.000,35.000,5.000,10.000,0.000:




0000
0000
0000
0000
,
0000
0000
0000
0000
,
0000
0000
0000
0000
,
0000
0000
0000
0000
,
0000
0000
0000
0000
,
0000
0000
0000
0000
,
0001
0000
0100
0000
0001
0000
1000
0001
0000
1000
0000
0001
1000
0000
0100
0000
,
0010
0000
0001
0000
0100
0000
0010
1000
0000
0001
0000
1000
0100
0000
0100
0000
,
1000
0000
0001
0000
0100
0000
0010
1000
0000
0001
0000
1000
0001
0000
0001
0000
,
0001
0000
0100
0000
0010
0000
1000
0100
0000
0010
0000
0001
1000
0000
0010
0000
,
0010
1000
0100
0001
0100
1000
0001
0100
,
0010
1000
0010
0001
0010
1000
0001
1000
,
0100
1000
0001
1000
0010
1000
0001
0100
,
0001
0000
1000
0000
1000
0000
0001
0000
1000
0000
0001
0000
0100
0000
0010
1000
,
0100
0010
0001
0100
0010
1000
0001
1000
,
0100
0010
0100
1000
0100
0010
0001
0010
,
0100
0010
0001
0100
0010
1000
0001
1000
,
0100
0001
0100
1000
0001
0001
0100
0100
,
0010
0000
0000
1000
0000
0000
0001
0000
0000
0000
0000
0000
0100
0000
0010
0000
,
0010
0000
0000
0100
0000
0000
0001
0000
0000
0000
0000
0000
1000
0000
0001
0000
,
1000
0000
0000
0100
0000
0000
0110
0000
0000
0000
0000
0000
0010
0000
0001
0000
,
0100
0010
1000
0001
2002
0000
3003
0000
,
1001
0000
0001
0100
0000
0100
0001
0000
1001
0000
1000
0100
0000
0100
1000
0000
,
1001
0000
0001
1000
0001
0000
0001
0100
0001
0000
0001
0010
0001
0000
1000
0000
,
1100
0000
0100
0010
0000
0100
0010
0000
0011
0000
0001
1000
0000
0001
1000
0000
,
1001
0000
1000
0001
1000
0000
1000
0100
1000
0000
1000
0010
1000
0000
0001
0000
,
1001
0001
0100
0010
1000
0001
1000
0100
,
1000
0000
0001
0000
0100
0000
0010
0000
1000
0000
0100
0000
0010
0000
0001
1000
,
0001
0001
1000
0100
0010
0100
1000
0001
,
0100
0000
0010
1000
0001
0000
1000
0100
1000
0000
0001
0100
0010
1000
0001
1000
,
0001
0001
0100
0100
0110
0110
0110
0000
,
0010
0000
0100
0000
0001
0000
1000
0001
0000
0001
0000
0001
1000
0000
0001
0000
,
1000
0000
0010
0000
0100
0000
0001
1000
0000
0100
0000
0010
0001
0000
0100
0000
,
0010
0000
1000
0000
0001
0000
1000
0010
0000
0100
0000
0100
0001
0000
1000
0000
,
0001
0000
0100
0000
0100
0000
0010
1000
0000
0100
0000
1000
0010
0000
1000
0000
,
0001
0000
1000
0000
0100
0000
0010
0001
0000
0001
0000
0001
0100
0000
0100
0000
,
0001
0000
1000
0000
0100
0000
0100
1000
0000
0100
0000
1000
0100
0000
1000
0000
,
0001
0000
0100
0000
0010
0000
0010
0100
0000
0010
0000
0100
0001
0000
1000
0000
,
0001
0000
1000
0000
0100
0000
0100
1000
0000
0001
0000
1000
0010
0000
0010
0000
,
1000
0001
1000
0010
0100
0000
0001
1000
,
0100
1000
0010
0100
0000
0001
0000
0001
,
1000
0100
1000
0010
0100
0001
1000
0010
,
1000
0000
0100
0100
0000
0100
0000
1000
,
0001
0000
0100
0000
0010
1000
0001
1000
,
0100
0000
0010
0001
0000
0100
0000
0010
,
1000
0001
0100
0000
0010
1000
0100
0010
,
0001
0100
0010
1000
0001
0100
0001
0000
,
1001
0000
0000
M00M
0000
0000
1001
0000
0000
M00M
0000
0000
1001
0000
0000
0000
0000
0000
0000
0000
0001
0000
0000
0000
0100
0000
0000
0000
0010
0000
0000
0000
,
1000
0100
1000
0001
1000
0100
1100
0000
,
1001
0000
0000
M00M
0000
0000
1100
0000
0000
MM00
0000
0000
1001
0000
0000
0000
0000
0000
0001
0000
1000
0000
0000
0000
0000
0000
0000
0000
1001
0000
0000
0000
,
0001
0100
0010
0000
0100
0001
1000
0000
0001
0000
1000
0200
0000
0000
0300
0000
,
1001
0000
0000
1000
0000
0000
0100
0000
0000
0000
0000
0000
0001
0000
0100
0000
,
0010
0000
0000
0010
0000
0000
1010
0000
0000
0000
0000
0000
1000
0000
0001
0000
,
1000
0000
0000
0100
0000
0000
0110
0000
0000
0000
M00M
0000
0000
0000
0001
0000
,
0100
0000
0100
0000
0010
0000
0010
0000
0020
0000
0000
0000
0000
0030
0000
0000
,
0110
0000
0100
0001
0000
0001
1000
0000
1001
0000
1000
0100
0000
0010
0001
0000
,
1001
0000
0001
0100
0010
0000
0010
1000
0100
0000
0010
0001
1000
0000
0001
0000
,
1001
0000
1000
0100
0000
0010
0001
0000
0101
0000
0001
0100
0000
0010
1000
0000
,
1001
0000
1000
0100
0010
0000
0100
0010
0001
0000
0010
0001
1000
0000
0001
0000
,
1001
0001
0100
1000
0100
0001
1000
0100
,
0010
0000
1000
0000
0010
0000
0100
0000
1000
0000
0001
0000
0100
0000
0010
0100
,
0001
1000
0100
0010
0001
1000
0001
0010
,
0100
1000
0100
0010
0100
1000
0001
0100
,
0101
0000
0001
0100
0010
1000
0000
1000
0001
1000
0100
1000
0001
0000
1000
0001
,
0100
0010
1000
0001
1000
0000
0100
0010
,
0001
0010
0100
1000
0000
1001
0000
0001
,
0100
0010
1000
0100
1000
0000
0001
0100
,
0010
1000
0100
1000
0001
0100
0010
1000
,
1001
1000
0100
0010
0001
0000
0001
0100
,
0010
0100
0001
1000
0000
1100
0000
0100
,
0010
0001
0100
0010
0100
0000
0001
0000
1000
0000
0100
0000
0010
0000
1000
0000
,
0010
0000
0100
0000
1000
0000
0001
0000
0000
0000
1001
0000
0000
0000
0001
0100
,
0020
0000
0000
0000
0000
0000
0000
0000
0000
0030
0000
0000
0000
0000
0000
0000
;

//---------------dance-single - Alezay----------------
#NOTES:
     dance-single:
     Alezay:
     Medium:
     7:
     0.510,0.595,0.182,0.018,0.000,370.000,20.000,2.000,0.000,0.000:



0000
0000
0000
0000
,
0000
0000
0000
0000
,
0000
0000
0000
0000
,
0000
0000
0000
0000
,
0000
0000
0000
0000
,
0000
0000
0000
0000
,
0001
1000
0010
0000
1000
0001
1000
0000
,
0100
0010
0100
0000
0010
0001
0100
0000
,
0010
1000
0100
0000
0010
0001
0100
0000
,
0010
1000
0001
0100
0010
1000
0100
0000
,
0001
1000
0100
0010
,
0001
0000
0100
0000
0010
1000
0010
0000
,
1000
0001
1000
0100
,
0010
0000
0001
0000
0100
0010
0100
0000
,
0001
1000
0100
0100
,
0001
0000
1000
0000
0010
0100
0001
0000
,
1000
0010
0100
0001
,
1000
0000
0100
0000
1000
0010
1000
0100
,
0010
0000
0001
0100
0000
0000
0001
1000
,
0010
0000
1000
0001
0000
0000
0001
0100
,
0010
0000
1000
0100
0000
0000
0001
0100
,
0010
1000
0100
0010
0001
0000
0000
0000
,
0001
1000
0001
0100
,
0010
0000
1000
0000
0001
1000
0001
1000
,
0001
1000
1000
0100
,
0100
0000
0010
0000
0010
0000
0001
0100
,
0001
0010
1000
0100
,
0010
0001
0010
0100
,
1000
0001
0001
0001
,
1000
1000
0010
0010
,
0100
0001
1000
0100
1000
0001
0100
0000
,
0010
0000
1001
0000
0100
0010
1000
0000
,
0100
0010
0001
0000
0100
0010
1000
0000
,
0100
0010
0001
0000
0100
0001
0100
0000
,
0010
1000
0010
0000
1000
0001
1000
0000
,
0001
0100
0001
0000
1000
0100
1000
0000
,
0001
0100
0001
0000
0010
0001
0010
0000
,
0010
1000
0010
0000
1000
0001
1000
0000
,
0100
0010
0001
0000
0100
0010
0100
0001
,
1000
0100
1000
0000
0001
0100
0001
0000
,
0010
0100
1000
0001
0100
0010
1000
0000
,
0100
0010
0001
0000
0100
0010
0100
0000
,
0001
1000
0100
1000
0010
0100
0001
1000
,
0010
1000
0001
0000
0100
0010
1000
0000
,
0100
0010
0001
0100
0010
1000
0001
0100
,
0010
1000
0100
0010
0001
0010
0100
1000
,
0001
0100
0010
1000
0001
0100
0010
1000
,
0001
0000
0001
0001
0000
0000
0000
0000
,
1000
1000
1000
0000
,
0001
0001
0001
0100
,
0010
0010
1001
1100
,
0110
0011
0101
1001
,
1100
0101
0011
1100
,
0110
1001
0011
1100
,
0101
0110
1001
1001
,
0001
1000
0010
1000
,
0100
1000
0100
1000
0100
1000
0100
0000
,
0001
0100
0010
0100
,
0100
0010
0100
0010
0100
0010
0100
0000
,
0001
0100
0001
0100
0001
0100
0001
0100
,
0001
1000
0001
1000
0001
1000
0001
1000
,
0100
1000
0100
1000
0100
1000
0100
1000
,
0100
0010
0100
0010
0100
0010
0100
0000
,
0010
0010
0001
0001
0100
0100
0100
0000
,
0010
1000
0001
0000
1000
0100
1000
0000
,
0001
0100
0010
1000
0100
0010
0001
0000
,
0001
0010
0100
0000
1000
0010
0100
0000
,
0001
1000
0010
0100
0010
0010
0010
0000
,
1000
0001
1000
0000
0100
0000
0100
0000
,
1000
0001
0100
0000
0010
0000
0010
0000
,
0100
0001
1000
0100
0010
0000
0001
0000
,
0010
0100
1000
0001
0100
0010
1000
0001
,
2002
0000
3003
0000
;

//---------------dance-single - Alezay----------------
#NOTES:
     dance-single:
     Alezay:
     Easy:
     4:
     0.383,0.597,0.419,0.091,0.000,238.000,46.000,10.000,0.000,0.000:











0000
0000
0000
0000
,
0000
0000
0000
0000
,
0000
0000
0000
0000
,
0000
0000
0000
0000
,
0000
0000
0000
0000
,
0000
0000
0000
0000
,
0001
1000
0010
1000
,
0001
1000
0100
0010
,
0001
0100
0010
1000
,
1001
0110
1001
0110
,
0001
1000
0100
1000
,
0001
0001
1000
1000
,
0010
0010
0100
0100
,
0001
0100
0010
1000
,
0100
0010
0001
0100
,
0010
1000
0001
1000
,
0010
1000
0100
0010
,
0001
0100
0010
1000
,
1001
0001
0100
0100
,
0000
0001
1000
0100
,
0000
0010
0001
0100
,
0000
0010
1000
0001
,
1000
1000
0001
0001
,
1001
0110
1001
0110
,
1001
0100
1000
0001
,
1001
0110
0011
1100
,
0001
1000
0010
0100
,
1001
0011
0110
1100
,
1001
0001
1000
0010
,
1001
0010
0100
0001
,
1001
1001
1100
1100
,
0001
1000
0010
0100
,
0001
1000
0100
0010
,
0010
0001
0100
0010
,
1000
0001
0100
0010
,
1000
0100
0010
0001
,
0001
0001
0100
0100
,
0010
1000
0001
1000
,
0100
1000
0001
0100
,
0002
0000
0000
0000
,
2000
0000
0000
0003
,
0200
0000
0000
0300
,
0020
0000
0000
3000
,
0200
0000
0000
0030
,
0002
0000
0000
0300
,
2000
0000
0000
3000
,
2000
0000
0000
3003
,
0001
1000
0010
1000
,
0100
1000
0001
0100
,
0001
0010
0001
0100
,
0010
1000
0100
0010
,
0001
0010
0100
1000
,
0001
0100
0001
0001
,
0100
0100
0010
0010
,
0100
0100
1001
1001
,
0001
1000
0100
0010
,
0100
1000
0001
0100
,
0010
0100
0001
1000
,
0100
0010
0010
0010
,
0001
0100
0001
0001
,
0100
0100
0010
1000
,
0001
1000
0001
1000
,
0100
0010
0100
1000
,
0001
0100
0010
0101
,
1001
0100
1000
0001
,
0100
0010
0010
0010
,
1001
1100
1100
1100
,
1001
1001
0101
0101
,
0011
0011
1100
1100
,
0001
1000
0010
1000
,
1001
0110
1001
0110
,
1001
0001
1000
1000
,
2002
0000
0000
3003
;

//---------------dance-single - Alezay----------------
#NOTES:
     dance-single:
     Alezay:
     Beginner:
     1:
     0.098,0.202,0.046,0.036,0.000,66.000,5.000,4.000,0.000,0.000:











0000
0000
0000
0000
,
0000
0000
0000
0000
,
0000
0000
0000
0000
,
0000
0000
0000
0000
,
0000
0000
0000
0000
,
0000
0000
0000
0000
,
0001
0000
0000
0000
,
1000
0000
0000
0000
,
0001
0000
0000
0000
,
0100
0000
0000
0000
,
0010
0000
0000
0000
,
1000
0000
0000
0000
,
0001
0000
0000
0000
,
0100
0000
0000
0000
,
0100
0000
0000
0000
,
0001
0000
0000
0000
,
1000
0000
0000
0000
,
0100
0000
0000
0000
,
0010
0000
0000
0000
,
0100
0000
0000
0000
,
1000
0000
0000
0000
,
2002
0000
0000
0000
,
3003
0000
0000
0000
,
0001
0000
0000
0000
,
0100
0000
0000
0000
,
0010
0000
0000
0000
,
1000
0000
0000
0000
,
1000
0000
0000
0000
,
0001
0000
0000
0000
,
0100
0000
0000
0000
,
0010
0000
0000
0000
,
1000
0000
0000
0000
,
0100
0000
0000
0000
,
0100
0000
0000
0000
,
0010
0000
0000
0000
,
0001
0000
0000
0000
,
0101
0000
0000
0000
,
1001
0000
0000
0000
,
0110
0000
0000
0000
,
0001
0000
0000
0000
,
1000
0000
0000
0000
,
0100
0000
0000
0000
,
0010
0000
0000
0000
,
0100
0000
0000
0000
,
1000
0000
0000
0000
,
0001
0000
0000
0000
,
0100
0000
0000
0000
,
0010
0000
0000
0000
,
0010
0000
0000
0000
,
0100
0000
0000
0000
,
0001
0000
0000
0000
,
1000
0000
0000
0000
,
0001
0000
0000
0000
,
1000
0000
0000
0000
,
0100
0000
0000
0000
,
1000
0000
0000
0000
,
0001
0000
0000
0000
,
0100
0000
0000
0000
,
0010
0000
0000
0000
,
1000
0000
0000
0000
,
0100
0000
0000
0000
,
0100
0000
0000
0000
,
0010
0000
0000
0000
,
0001
0000
0000
0000
,
0100
0000
0000
0000
,
1000
0000
0000
0000
,
0001
0000
0000
0000
,
0100
0000
0000
0000
,
0010
0000
0000
0000
,
1000
0000
0000
0000
,
0001
0000
0000
0000
,
1000
0000
0000
0000
,
2002
0000
0000
0000
,
0000
0000
0000
0000
,
3003
0000
0000
0000
;
