#TITLE:Mortal Kombat;
#SUBTITLE:- Immortals;
#ARTIST:Midway;
#TITLETRANSLIT:;
#SUBTITLETRANSLIT:;
#ARTISTTRANSLIT:;
#CREDIT:;
#BANNER:mklogo.png;
#BACKGROUND:mkbg1.png;
#LYRICSPATH:;
#CDTITLE:;
#MUSIC:Immortals (Theme from Mortal Kombat).mp3;
#OFFSET:0.000;
#SAMPLESTART:12.417;
#SAMPLELENGTH:12.000;
#SELECTABLE:YES;
#BPMS:0.000=135.000,76.000=270.000,140.000=135.000,156.000=67.500,172.000=135.000,204.000=270.000,212.000=135.000,216.000=270.000,224.000=135.000,228.000=270.000,236.000=135.000,240.000=270.000,248.000=135.000,252.000=90.000;
#STOPS:;
#BGCHANGES:;
// cache tags:
#FIRSTBEAT:12.000;
#LASTBEAT:274.167;
#SONGFILENAME:Songs/Games/Immortals/Immortals (Theme from Mortal Kombat).sm;
#HASMUSIC:1;
#HASBANNER:1;
#MUSICLENGTH:116.617;
// end cache tags

//---------------dance-single - ANOTHER----------------
#NOTES:
     dance-single:
     ANOTHER:
     Medium:
     6:
     0.365,0.705,0.206,0.180,0.197,253.000,24.000,21.000,0.000,15.000:


0000
0000
0000
0000
,
0000
0000
0000
0000
,
0000
0000
0000
0000
,
1000
0010
0001
0100
,
0100
0001
0010
1000
,
1000
0001
0100
0010
,
0010
0100
0001
1000
,
1000
0100
0010
0001
,
0001
0010
0100
1000
,
0100
0001
1000
0010
,
0010
1000
0001
0100
,
0101
0001
1000
1100
,
1010
0010
0100
1100
,
0011
0001
1000
1010
,
1100
0100
0010
1010
,
1000
0001
0000
1001
0000
0001
0000
1000
,
0010
0100
0000
0110
0000
0100
0000
0010
,
0001
1000
0000
1001
0000
0001
0000
1000
,
0100
0010
0000
0110
0000
0010
0000
0100
,
1000
0000
0000
0100
0000
0000
0010
0000
,
0000
0001
0000
0000
0010
0000
0000
0000
,
1000
0000
0000
0010
0000
0000
0100
0000
,
0000
0001
0000
0000
0010
0000
0000
0000
,
0001
0000
0000
0100
0000
0000
0010
0000
,
0000
1000
0000
0000
0010
0000
0000
0000
,
0001
0000
0000
0010
0000
0000
0100
0000
,
0000
1000
0000
0000
0100
0000
0000
0000
,
1000
0000
0000
0001
0000
0000
0001
0000
,
0000
1000
0000
0000
1000
0000
0000
0000
,
0001
0000
0000
1000
0000
0000
1000
0000
,
0000
0001
0000
0000
0001
0000
0000
0000
,
0010
0000
0000
0100
0000
0000
0100
0000
,
0000
0010
0000
0000
0010
0000
0000
0000
,
0100
0000
0000
0010
0000
0000
0010
0000
,
0000
0100
0000
0000
0100
0000
0000
0000
,
0100
1000
0001
0010
,
0001
0100
0010
1000
,
0100
0010
0001
1000
,
0010
1000
0001
0100
,
1000
1000
1000
1000
,
0100
0100
0100
0100
,
0010
0010
0010
0010
,
0001
0001
0001
0001
,
0010
0000
0000
1000
0000
0000
0001
0000
0000
0100
0000
0000
1001
0000
0000
0000
,
0010
0000
0000
0001
0000
0000
1000
0000
0000
0100
0000
0000
1001
0000
0000
0000
,
1000
0000
0000
0010
0000
0000
0100
0000
0000
0001
0000
0000
0110
0000
0000
0000
,
0001
0000
0000
0010
0000
0000
0100
0000
0000
1000
0000
0000
0100
0000
0000
0000
,
0100
0000
0000
1000
0000
0000
0001
0000
0000
0010
0000
0000
0110
0000
0000
0000
,
0100
0000
0000
0001
0000
0000
1000
0000
0000
0010
0000
0000
0110
0000
0000
0000
,
0001
0000
0000
0010
0000
0000
0100
0000
0000
1000
0000
0000
1001
0000
0000
0000
,
1000
0000
0000
0010
0000
0000
0100
0000
0000
0001
0000
0000
0010
0000
0000
0000
,
1000
0000
0000
0100
0000
0000
0010
0000
,
0000
1000
0000
0000
0110
0000
0000
0000
,
0010
0000
0000
1000
0000
0000
0100
0000
0000
0010
0000
0000
0110
0000
0000
0000
,
0001
0000
0000
1000
0000
0000
0010
0000
,
0000
0100
0000
0000
1001
0000
0000
0000
,
0010
0000
0000
0001
0000
0000
1000
0000
0000
0100
0000
0000
1000
0000
0000
0000
,
0001
0000
0000
0010
0000
0000
0100
0000
,
0000
1000
0000
0000
1010
0000
0000
0000
,
0001
0000
0000
0100
0000
0000
0010
0000
0000
1000
0000
0000
1100
0000
0000
0000
,
1000
0000
0000
0100
0000
0000
0010
0000
,
0000
0001
0000
0000
0101
0000
0000
0000
,
1000
0000
0000
0010
0000
0000
0100
0000
0000
0001
0000
0000
1000
0000
0000
0000
,
0002
0000
0010
0000
1000
0000
0100
0000
2003
0000
0100
0000
,
0001
0000
0010
0000
3200
0000
1000
0000
0010
0000
0001
0000
,
0320
0000
1000
0000
0100
0000
0001
0000
2030
0000
0020
0000
,
3200
0000
0032
0000
0320
0000
0203
0000
2030
0000
0302
0000
,
3200
0000
0023
0000
2300
0000
0032
0000
3020
0000
0203
0000
,
2030
0000
0000
0000
0320
0000
0000
0000
3200
0000
0000
0000
0000
0330
0000
0000
0000
0000
0000
0000
0000
0000
0000
0000;

//---------------dance-single - MANIAC----------------
#NOTES:
     dance-single:
     MANIAC:
     Hard:
     8:
     0.540,0.732,0.189,0.000,0.356,419.000,22.000,0.000,0.000,0.000:


0000
0000
0000
0000
,
0000
0000
0000
0000
,
0000
0000
0000
0000
,
1000
0100
1000
0100
1000
0001
1000
0010
,
0100
0001
0100
0001
1000
0001
0010
0001
,
0010
1000
0010
1000
0010
0100
0010
0001
,
0100
1000
0100
1000
0100
0010
0100
0001
,
1000
0100
0010
0001
1000
0100
0010
0001
,
0100
0001
1000
0010
0100
0001
1000
0010
,
0010
1000
0001
0100
0010
1000
0001
0100
,
0010
0001
1000
0100
0010
0001
1000
0100
,
0010
0010
0100
0100
0001
0001
1000
1000
,
1000
1000
0001
0001
0100
0100
0010
0010
,
0001
0001
1000
1000
0100
0100
0010
0010
,
0010
0010
0100
0100
1000
1000
0001
0001
,
0010
0100
0000
0001
0000
0100
0010
1000
,
0100
0010
0000
1000
0000
0100
0010
0001
,
1000
0001
0000
0010
0000
0001
1000
0100
,
0001
1000
0000
0010
0000
1000
0001
0100
,
1000
0000
0000
0100
0010
0000
0010
0000
,
0000
0001
0100
0000
0010
0000
1000
0000
,
1000
0000
0000
0010
0100
0000
0100
0000
,
0000
0001
1000
0000
0010
0000
0100
0000
,
0001
0000
0000
0100
0010
0000
0010
0000
,
0000
1000
0100
0000
0010
0000
0001
0000
,
0001
0000
0000
0010
0100
0000
0100
0000
,
0000
1000
0010
0000
0100
0000
0000
0000
,
1000
0000
0000
0001
0010
0000
0001
0000
,
0000
1000
0100
0000
1000
0000
0001
0000
,
0001
0000
0000
1000
0100
0000
1000
0000
,
0000
0001
0010
0000
0001
0000
1000
0000
,
0010
0000
0000
0100
0001
0000
0100
0000
,
0000
0010
1000
0000
0010
0000
0100
0000
,
0100
0000
0000
0010
1000
0000
0010
0000
,
0000
0100
0001
0000
0100
0000
0000
0000
,
1000
0010
0000
1000
0010
0000
0000
0000
1000
0001
0000
1000
0001
0000
0000
0000
,
1000
0100
0000
1000
0100
0000
0000
0000
1000
0001
0000
1000
0001
0000
0000
0000
,
0001
0010
0000
0001
0010
0000
0000
0000
0001
1000
0000
0001
1000
0000
0000
0000
,
0001
0100
0000
0001
0100
0000
0000
0000
0001
1000
0000
0001
1000
0000
0000
0000
,
1000
0100
1000
0010
1000
0100
1000
0010
,
0100
0001
0100
0010
0100
0001
0100
0010
,
1000
0010
0100
0010
1000
0010
0100
0010
,
1000
0100
1000
0001
1000
0100
1000
0001
,
0011
0000
0000
0010
0000
0000
1010
0000
0000
0100
0000
0000
0001
0000
1000
0000
,
1010
0000
0000
0010
0000
0000
0011
0000
0000
0100
0000
0000
1000
0000
0001
0000
,
0101
0000
0000
0001
0000
0000
1010
0000
0000
1000
0000
0000
0010
0000
0100
0000
,
1001
0000
0000
1000
0000
0000
1001
0000
0000
0010
0000
0000
0001
0000
0000
0000
,
0110
0000
0000
1000
0000
0000
1001
0000
0000
0001
0000
0000
0101
0000
1100
0000
,
1001
0000
0000
0001
0000
0000
0110
0000
0000
1000
0000
0000
0011
0000
1010
0000
,
0110
0000
0000
0010
0000
0000
1001
0000
0000
0100
0000
0000
0011
0000
1010
0000
,
1001
0000
0000
0100
0000
0000
0110
0000
0000
0001
0000
0000
0010
0000
0000
0000
,
1000
0000
0000
0100
0001
0000
0010
0000
,
0000
1000
0010
0000
0100
0000
0001
0000
,
0010
0000
0000
1000
0010
0000
0100
0000
0000
0010
0100
0000
0001
0000
1000
0000
,
0001
0000
0000
1000
0010
0000
0010
0000
,
0000
0100
0001
0000
0001
0000
1000
0000
,
0010
0000
0000
0001
0100
0000
1000
0100
0000
0000
1000
0000
1000
0000
0000
0000
,
0001
0000
0000
0010
0100
0000
0100
0000
,
0000
1000
0010
0000
0001
0000
0010
0000
,
0001
0000
0000
0100
0010
0000
0010
0000
0000
1000
0100
0000
1000
0000
0001
0000
,
1000
0000
0000
0100
0010
0000
0010
0000
,
0000
0001
0100
0000
1000
0000
1000
0000
,
1000
0000
0000
0010
0100
0000
0100
0001
0000
0000
1000
0000
1000
0000
0000
0000
,
0001
0100
1000
0100
0001
0010
0010
0001
0100
0001
0010
0100
,
1000
0010
0100
0001
0010
0001
0100
1000
0100
0001
0100
0010
,
1000
0100
0010
0001
0100
0010
0100
0001
1000
0100
0010
0001
,
0010
0001
0010
0001
0100
0010
1000
0100
1000
0100
1000
0010
,
0100
0001
0010
1000
0010
1000
0010
1000
0100
0010
0100
0001
,
0100
0001
0100
0100
0010
0000
0000
0000
0000
0000
0000
0000;

//---------------dance-single - Challenge----------------
#NOTES:
     dance-single:
     Challenge:
     Challenge:
     9:
     0.680,0.879,0.789,0.000,0.399,463.000,92.000,0.000,0.000,0.000:

0000
0000
0000
0000
,
0000
0000
0000
0000
,
0000
0000
0000
0000
,
0100
0100
1000
0001
1000
0010
0001
0010
,
1000
1000
0001
0010
0001
0100
0001
0010
,
0001
0001
0010
0001
0100
1000
0100
0001
,
0010
0010
0001
0100
1000
0100
0001
0010
,
1000
1000
0100
1000
0010
0001
0010
1000
,
0100
0100
0001
1000
0010
1000
0001
0100
,
0001
0001
0010
0001
0100
0001
0010
0001
,
1000
1000
0010
1000
0100
1000
0010
1000
,
1001
0100
0001
0100
1000
0100
0001
0100
,
0110
0001
0010
0001
0100
0001
0010
0001
,
1001
0010
1000
0010
0001
0010
1000
0010
,
0110
1000
0010
1000
0100
1000
0010
1000
,
1001
0110
0000
0001
0000
0100
0010
1000
,
0110
1001
0000
1000
0000
0100
0010
0001
,
0101
1010
0000
0010
0000
0001
1000
0100
,
1100
0011
0000
0010
0000
1000
0001
0100
,
1000
0100
0000
0100
0010
0000
0010
0001
,
0000
0001
0100
0000
0010
0000
1000
0000
,
1000
0010
0000
0010
0100
0000
0100
0001
,
0000
0001
1000
0000
0010
0000
0100
0000
,
0001
0100
0000
0100
0010
0000
0010
1000
,
0000
1000
0100
0000
0010
0000
0001
0000
,
0001
0010
0000
0010
0100
0000
0100
1000
,
0000
1000
0010
0000
0100
0000
0000
0000
,
1000
0010
0000
0001
0010
0000
0001
0100
,
0000
1000
0100
0000
1000
0000
0001
0000
,
0001
0100
0000
1000
0100
0000
1000
0010
,
0000
0001
0010
0000
0001
0000
1000
0000
,
0010
0001
0000
0100
0001
0000
0100
1000
,
0000
0010
1000
0000
0010
0000
0100
0000
,
0100
1000
0000
0010
1000
0000
0010
0001
,
0000
0100
0001
0000
0100
0000
0000
0000
,
1000
0010
0000
1000
0010
0000
1010
0000
1000
0001
0000
1000
0001
0000
1001
0000
,
1000
0100
0000
1000
0100
0000
1100
0000
1000
0001
0000
1000
0001
0000
1001
0000
,
0001
0010
0000
0001
0010
0000
0011
0000
0001
1000
0000
0001
1000
0000
1001
0000
,
0001
0100
0000
0001
0100
0000
0101
0000
0001
1000
0000
0001
1000
0000
1001
0000
,
1000
1001
0001
0101
0100
0110
0010
1010
,
1000
1100
0100
0110
0010
0011
0001
1001
,
1010
0101
0011
1100
0011
1100
0101
1010
,
1100
0101
0011
1010
0101
1100
1010
0011
,
0011
0000
0000
1100
0000
0000
1010
0000
0000
0101
0000
0000
0001
0000
1000
0000
,
1010
0000
0000
0101
0000
0000
0011
0000
0000
1100
0000
0000
1000
0000
0001
0000
,
0101
0000
0000
1001
0000
0000
1010
0000
0000
0110
0000
0000
0010
0000
0100
0000
,
1001
0000
0000
0110
0000
0000
1001
0000
1000
0010
0000
0100
0001
0000
0000
0000
,
0110
0000
0000
0101
0000
0000
1001
0000
0000
1100
0000
0000
0101
0000
1100
0000
,
1001
0000
0000
1010
0000
0000
0110
0000
0000
1010
0000
0000
0011
0000
1010
0000
,
0110
0000
0000
0011
0000
0000
1001
0000
0000
1010
0000
0000
0011
0000
1010
0000
,
1001
0000
0000
1100
0000
0000
0110
0000
0100
0001
0000
1000
0010
0000
0000
0000
,
1000
0010
0000
0100
0001
0000
0010
0100
,
0000
1000
0010
0000
0110
0000
1001
0000
,
0010
0100
0000
1000
0010
0000
0100
0001
0000
0010
0100
0000
0110
0000
1001
0000
,
0001
1000
0000
1000
0010
0000
0010
0100
,
0000
0100
0001
0000
1001
0000
0110
0000
,
0010
1000
0000
0001
0100
0000
1000
0100
0000
0100
1000
0000
1000
0000
0000
0000
,
0001
0010
0000
0010
0100
0000
0100
1000
,
0000
1000
0010
0000
1010
0000
0101
0000
,
0001
0100
0000
0100
0010
0000
0010
1000
0000
1000
0100
0000
1100
0000
0011
0000
,
1000
0100
0000
0100
0010
0000
0010
0001
,
0000
0001
0100
0000
1010
0000
0101
0000
,
1000
0010
0000
0010
0100
0000
0100
0001
0000
0001
1000
0000
1000
0000
0000
0000
,
0100
0100
1000
0100
0001
0100
0010
0001
1000
1000
0100
1000
,
0001
1000
0010
0100
0001
0100
1000
0100
0001
0010
0001
0100
,
0010
0001
0010
0100
1000
0100
0010
0001
0100
0010
1000
0001
,
0010
0100
1000
0010
1000
0100
0001
1000
0100
0001
1000
0100
,
1000
0010
0100
1000
0010
0100
0001
0010
0100
0010
0001
0100
,
0010
0001
1000
0010
0010
0000
0000
0000
0000
0000
0000
0000;
