#TITLE:Rainbow Ride;
#SUBTITLE:;
#ARTIST:Rainbow Flavor;
#TITLETRANSLIT:;
#SUBTITLETRANSLIT:;
#ARTISTTRANSLIT:;
#CREDIT:;
#BANNER:Rainbow Ride Banner.jpg;
#BACKGROUND:Rainbow Ride Bg.jpg;
#LYRICSPATH:;
#CDTITLE:;
#MUSIC:Rainbow Ride.mp3;
#OFFSET:0.000;
#SAMPLESTART:32.961;
#SAMPLELENGTH:12.000;
#SELECTABLE:YES;
#BPMS:0.000=182.000;
#STOPS:0.000=0.060
,286.000=0.360
;
#BGCHANGES:;
// cache tags:
#FIRSTBEAT:16.000;
#LASTBEAT:359.500;
#SONGFILENAME:Songs/StepMix 1.0/Rainbow Ride/rainbowride.sm;
#HASMUSIC:1;
#HASBANNER:1;
#MUSICLENGTH:119.412;
// end cache tags

//---------------dance-single - Blank----------------
#NOTES:
     dance-single:
     Blank:
     Challenge:
     13:
     1.000,1.000,0.611,0.620,1.000,841.000,73.000,74.000,9.000,30.000:






0000
0000
0000
0000
,
0000
0000
0000
0000
,
0000
0000
0000
0000
,
0000
0000
0000
0000
,
1000
0010
1000
0001
1100
0000
0010
0000
0100
0000
0001
0010
0000
1000
0000
0100
,
0010
0100
0010
0001
0110
0000
1000
0100
0010
0001
0010
0000
0100
0000
0010
0000
,
1000
0010
0100
0001
1001
0000
0100
0000
0010
0000
0100
0010
0000
0001
0000
1000
,
0100
0010
0001
0010
0100
1000
0100
0010
0100
1000
0100
1000
0010
0100
1000
0100
,
2000
0100
3010
0001
0020
0000
1031
0000
,
2000
0100
3010
0001
0220
0000
1330
0000
,
0100
0010
0001
0100
2000
0000
0110
3000
,
0002
0000
1000
0000
0013
0000
0100
0000
0010
0000
0002
0000
0013
1000
0001
0000
,
0200
0001
0310
0001
0020
0000
1001
0030
,
2000
3010
0100
0010
2002
0000
0100
3003
,
0010
0100
0001
0100
2020
0000
0101
3030
,
0100
0000
0001
0000
0010
0000
0100
0000
1000
0001
0000
0001
1000
0000
1000
0100
,
0021
0030
0110
0000
0011
0000
1100
0000
,
0120
1130
0110
0011
,
1200
0311
0120
1031
,
2100
3110
1002
0113
,
2010
0000
0001
0000
3010
0100
0000
0000
0020
0000
0030
1000
0000
0000
0001
0000
,
1010
0000
0100
0000
0001
0010
0000
0000
2000
0000
3000
0001
0000
0000
1000
0000
,
0110
0000
0001
0000
1000
0100
0000
0000
0001
0000
0000
1000
0000
0000
0001
0000
,
1000
0100
0010
0100
0010
0001
0010
0100
1000
0100
0010
0001
1000
0001
0100
0010
,
1000
0100
1000
0100
0010
0100
0010
0001
0010
0001
0100
1000
0021
0000
0000
0000
,
1030
0100
0010
0100
1000
0100
0010
0100
0010
0100
0010
0100
0010
0001
0010
0001
,
0020
0000
0030
0000
1000
0100
0000
0002
0000
1003
0100
0000
0001
0000
0100
1000
,
0100
0010
0001
0010
0100
1000
0100
0010
0100
0010
0001
0010
0100
0010
0200
0000
,
0310
0001
0010
0100
0010
0100
1000
0100
0010
0001
0010
0100
1000
0100
0010
0001
,
0100
1000
0100
0010
0100
1000
0100
0010
0100
0010
0100
0010
0100
0010
0001
0010
,
0200
0000
0000
0300
1000
0010
0000
0001
0000
0010
0100
0000
0010
0000
1000
0001
,
0100
0010
1000
0100
0010
0001
0010
0100
1000
0100
0000
1000
0000
0100
0002
0003
,
1000
0100
0010
0001
0100
0001
0010
0001
1000
0100
0010
0001
0010
0100
1000
0100
,
1000
0100
0010
1000
0100
0010
0001
1000
0001
1000
0001
1000
0010
0100
0010
0001
,
0020
0000
0000
0000
0130
1000
0000
0100
0000
0010
0001
0000
1000
0000
0010
0100
,
1000
0100
0010
0001
0010
0100
1000
0100
0010
0100
0010
0001
0020
0000
0230
0000
,
1300
0100
0010
0001
0010
0100
1000
0100
0010
0001
0010
0100
2010
0000
0000
3000
,
0100
0010
0001
0010
0100
1000
0100
0010
0001
0010
0001
0010
0201
0000
0000
0000
,
2300
0000
0000
0000
3100
0010
0000
0001
0000
0010
0100
0000
1000
0000
0010
0100
,
1000
0001
1000
0001
1000
0100
1000
0100
1000
0010
1000
0010
1000
0001
1000
0001
,
1200
0310
1001
1200
,
0311
0000
0000
1000
0100
0000
0010
0000
1100
0000
0000
0000
0120
0000
0000
0030
,
1100
0000
0000
0010
0001
0000
0100
0000
0010
0000
0000
0000
1002
0000
0000
0000
,
0103
0010
0100
0000
0110
0000
1200
0010
,
1300
0011
0110
2010
,
3110
0000
0000
0001
0010
0000
0100
0000
0010
0000
0000
0000
0210
0000
0000
0000
,
0310
0000
0000
0001
0100
0000
0010
0000
0100
0000
0000
0000
1200
0000
0000
0300
,
1001
0000
0000
0000
1000
0001
0000
1000
0001
0000
1000
0001
0100
0010
1000
0000
,
0110
0011
1001
0112
,
0103
0000
0000
0100
0001
0000
0010
0000
0100
0000
0000
0000
1210
0000
0000
0000
,
0310
0000
0000
0001
0010
0000
1000
0000
0100
0000
0000
0000
1102
0000
0000
0000
,
0113
0000
0000
0000
0011
0000
0000
0000
0110
0000
0000
0000
1000
0001
1000
0001
,
1010
0110
0011
2102
,
3013
0000
0000
1000
0100
0000
0010
0000
0100
0000
0000
0000
1121
0000
0000
0000
,
1030
0000
0001
0000
1000
0100
0010
0001
1000
0000
0100
0000
0001
0010
0100
1000
,
0010
0100
0010
0001
0010
0100
1000
0100
1000
0100
0010
0001
0010
0100
0010
0001
,
2000
0000
0200
0000
3310
0001
0000
0000
2000
0000
3000
0000
0010
0000
1000
0000
,
0010
0000
0001
0000
0010
0100
0000
0000
0002
0000
0000
0000
1010
0000
0000
0003
,
1000
0000
0010
0000
0100
0010
0000
0000
2002
0000
0000
0000
0100
0000
3003
0000
,
1000
0000
0001
0000
0100
0010
0000
0000
2020
0000
0000
0000
0100
0000
3031
0000
,
1000
0000
0010
0000
0100
0010
0000
0000
2002
0000
0000
0000
0010
0000
3003
0000
,
0100
0000
0010
0000
0001
0100
0000
0000
0220
0000
0000
0000
0001
0000
0000
0330
,
1000
0000
0010
0000
0100
0001
0000
0000
0220
0000
0000
0000
1000
0000
0330
0000
,
1000
0000
0100
0000
0001
0010
0000
0000
0220
0000
0000
0000
1001
0000
0000
0330
,
1000
0100
0010
0001
0100
0000
0010
0000
0100
0000
0010
0001
0000
0100
0000
0010
,
1000
0100
0010
0001
0100
0000
0010
0100
1000
0100
0010
0000
0001
0000
1000
0000
,
0001
0010
0100
1000
0100
0000
0010
0000
0001
0000
0100
0010
0000
1000
0000
0010
,
0100
1000
0100
0010
0001
0000
0100
0010
0001
0010
0100
0000
1000
0000
0001
0000
,
1000
0100
1000
0100
1000
0000
0010
0000
0100
0000
0010
0001
0000
0100
0000
0010
,
1000
0100
0010
0000
0100
0000
0010
0100
0010
0100
0010
0000
0001
0000
1000
0000
,
0100
0010
0001
0010
0100
0000
1000
0000
0010
0000
0100
0010
0000
0001
0000
1000
,
0100
0010
0001
0010
0100
0000
1000
0100
0000
0000
0000
0000
1000
0100
0010
0001
,
0010
0100
1000
0100
0010
0100
0010
0001
0010
0001
0010
0100
1000
0100
1000
0100
,
1000
0100
0010
0100
0010
0100
0010
0001
0010
0001
0010
0001
0020
0000
0000
0030
,
0100
0010
0000
0001
0000
0100
1000
0000
0100
0000
0010
0001
1000
0100
0010
0001
,
0010
0100
1000
0100
0010
0100
0010
0100
0010
1000
0002
0003
1000
0001
1000
0100
,
1000
0010
1000
0001
1000
0010
1000
0100
1000
0010
1000
0001
0100
0010
0100
0001
,
0100
1000
0100
0010
0100
0010
0100
0001
0100
0010
0100
1000
0200
0000
0000
0300
,
1000
0100
0000
0010
0000
0100
1000
0000
0100
0000
0010
0100
0001
0010
0001
0010
,
0100
0010
0100
0010
0100
1000
0100
1000
0100
0010
0200
0000
0310
0001
0010
0100
,
0010
0100
1000
0100
0010
0001
0010
0100
1000
0100
0010
0001
0010
0100
0010
0100
,
0010
0100
1000
0100
0010
0001
0010
0100
0010
0001
0010
0100
2000
0000
0000
3000
,
0100
0010
0000
0001
0000
0100
1000
0000
0001
0000
0100
1000
0100
0010
0100
1000
,
0100
0010
0100
1000
0100
0010
0001
0010
0100
1000
0200
0000
0310
0001
0010
0100
,
0010
0001
0010
0100
0010
0001
0010
0001
1000
0010
0100
0010
0001
0100
1000
0010
,
0100
0010
0100
1000
0010
0001
0010
0100
0001
0100
1000
0100
2020
0000
0000
0000
,
3130
0010
0000
0100
0000
0001
0010
0000
1000
0000
0010
1000
0100
0010
0100
0001
,
0100
0001
0100
1000
0100
1000
0100
0010
0100
1000
0100
0010
4004
0000
0M00
0000
,
00M0
0M00
00M0
0M00
00M0
0M00
0000
0000
,
0000
3003
M00M
0000
;

//---------------dance-single - Blank----------------
#NOTES:
     dance-single:
     Blank:
     Hard:
     9:
     0.823,0.828,0.796,0.846,0.046,489.000,95.000,101.000,27.000,68.000:




0000
0000
0000
0000
,
0000
0000
0000
0000
,
0000
0000
0000
0000
,
0000
0000
0000
0000
,
1000
0100
0010
0001
0010
0001
0010
0001
,
0010
0100
1000
0100
1000
0100
1000
0100
,
1000
0100
0010
0001
0010
0100
1000
0100
,
0010
0000
0001
0000
0010
0000
0100
0000
1000
0000
0100
0000
0001
1000
0001
1000
,
0020
0100
1030
0100
0020
0000
1031
0000
,
2000
3010
0100
0010
0002
0000
0113
0000
,
0200
1300
0010
1000
0002
0000
1103
0000
,
0100
1000
0010
0100
0002
2000
0000
3003
,
0020
0130
0001
0010
0200
0000
1001
0300
,
0200
0310
0001
0010
0200
0000
0011
0300
,
2000
3010
0001
0010
2000
0000
0101
3000
,
0010
0000
0100
0000
0010
0000
0001
0000
1000
0001
0000
1000
0001
0000
1000
0001
,
0100
0002
1000
0110
,
0013
0000
2200
0000
0010
0000
0011
3300
,
0010
0000
0002
0000
0100
0000
1010
0003
,
0100
0000
2002
0000
0100
0000
0110
3003
,
0100
0000
0020
0000
1000
0000
0001
0030
,
0010
0000
0200
0000
0001
0000
1001
0300
,
0010
0000
2200
0000
0010
0000
0011
3300
,
0220
0000
1000
0000
0001
0000
1001
0330
,
1000
0100
0010
0100
0020
0000
1031
0000
,
0100
0010
0001
0100
2020
0000
0100
3030
,
0010
0100
0010
0001
0220
0000
1001
0330
,
0100
0001
0010
0100
2002
0000
0110
3003
,
1000
0010
0100
0001
0002
0000
1100
0003
,
0100
0010
0100
1000
0200
0000
1001
0000
,
0301
0010
0100
0010
0220
0000
1000
0330
,
0100
0010
0001
0010
0202
0000
0010
0303
,
1000
0100
0010
0001
0010
0100
0010
0001
,
0010
1000
0001
0100
0010
0001
1000
0100
,
0020
0000
0130
1000
0100
0010
0100
1000
,
0010
0100
0010
0001
0010
0001
0100
0001
,
1000
0001
0100
0010
0100
0002
1100
0000
,
0013
0100
0001
1000
0100
0020
1000
0030
,
0200
0000
0301
0010
0100
0010
0100
0001
,
M000
0000
0MM0
000M
M0M0
0M00
0000
000M
00M0
M000
0000
0000
0010
0000
0100
0000
,
1100
0011
0210
2001
,
3311
1100
0210
0021
,
1331
0011
2010
0012
,
3113
0000
0011
0000
1100
0000
1000
0001
,
1100
0011
0120
2001
,
3131
0011
0201
2001
,
3311
0101
1020
2001
,
3131
0000
1000
0001
0100
1000
0001
1000
,
0101
1100
1002
0210
,
1313
0110
2001
0120
,
3131
0110
1002
0120
,
1133
0000
0000
0000
0110
0000
0000
0000
1100
0000
0000
0000
1000
0001
1000
0001
,
0110
1100
0011
11M1
,
0110
0011
1100
111M
,
0110
1100
0011
1M11
,
1000
0010
0100
1000
0010
0100
1000
0100
,
1000
0001
0010
0100
0020
0000
0100
0030
,
0020
0000
1000
0001
1000
0000
0130
0000
,
0100
0001
0010
1000
0200
0000
0001
0000
,
0302
0000
0100
0010
0100
0000
1003
0000
,
0100
0010
0100
1000
0200
0000
1001
0300
,
0200
0000
0010
0001
0010
0000
1301
0000
,
0100
0010
0100
1000
0200
0000
0011
0000
,
0301
0010
0100
1000
0100
0010
0001
0010
,
0200
0000
0020
0000
0001
0000
1031
0300
,
0002
0203
0320
1001
,
0230
0000
0002
0000
0320
0000
1103
0030
,
0220
0000
1000
0030
0302
0000
1100
0003
,
0020
0000
0200
0030
0020
0300
1001
0030
,
0200
0000
2000
0300
0020
3000
0101
0030
,
2000
0200
0020
0301
,
3200
0000
1032
0000
0303
0000
1000
0100
,
0010
0100
1000
0100
0010
0001
0010
0100
,
1000
0100
0010
0100
0010
0100
0020
0000
,
0130
0010
1000
0100
0010
0100
0001
0010
,
0100
0010
1000
0100
0010
0100
0010
1000
,
0010
0100
0010
0001
0010
0100
1000
0100
,
0010
0100
1000
0010
1000
0001
2000
0000
,
3100
0010
0100
0010
0001
0010
0100
0010
,
0100
1000
0100
0010
1000
0200
0310
0001
,
0010
0100
0010
1000
0100
0010
1000
0100
,
0010
0100
1000
0100
1000
0100
0020
0000
,
0130
0010
0100
1000
0100
0010
0100
0010
,
0001
0010
0100
0010
0100
0020
0130
1000
,
0100
1000
0010
1000
0001
1000
0010
1000
,
0100
1000
0010
1000
0100
0010
2002
0000
,
0100
0000
0013
0000
0100
3000
0002
0000
,
0200
0020
2000
3333
,
M000
0M00
00M0
0M00
M000
0M00
00M0
000M
,
00M0
0M00
00M0
0M00
0000
00M0
0000
0M00
;

//---------------dance-single - Blank----------------
#NOTES:
     dance-single:
     Blank:
     Medium:
     8:
     0.677,0.634,0.410,0.234,0.025,489.000,49.000,28.000,39.000,1.000:



0000
0000
0000
0000
,
0000
0000
0000
0000
,
0000
0000
0000
0000
,
0000
0000
0000
0000
,
1000
0001
1000
0100
1000
0100
1000
0000
,
0001
0010
0100
0010
0001
0100
1000
0000
,
0100
0010
0100
0010
0100
0010
0100
0000
,
0001
0010
0001
0010
0100
0010
0001
0000
,
1000
0100
0010
0001
2000
0000
3010
0000
,
0001
0010
0100
1000
0200
0000
0310
0000
,
0001
0010
0100
0010
0002
0000
1003
0000
,
0100
0010
0100
0010
2000
3002
0003
MMMM
,
1000
0001
0010
0100
0002
0000
0103
0000
,
0010
0100
0010
1000
0020
0000
0031
0000
,
0100
0001
1000
0010
0200
0000
0301
0000
,
0010
0100
0010
0100
1000
0100
0010
0001
,
1100
0010
0110
0001
,
0110
1000
1100
0100
,
1001
0100
0011
1000
,
1001
0010
0110
1000
,
0011
0100
0110
0001
,
1100
0100
0011
1100
,
0110
0101
0011
1001
,
1000
0100
1000
0100
0010
0100
0010
0100
,
1000
0100
0010
0100
0010
0100
0010
0001
,
0010
0100
0010
0100
0010
0100
0010
1000
,
0100
0000
0010
0100
0010
0100
0010
0100
,
0001
0010
0001
0010
1000
0100
1000
0010
,
0100
0010
0001
0010
0100
1000
0100
0010
,
0001
0010
0100
0010
0100
0010
0100
0010
,
0100
0000
0001
0010
0100
0010
0100
1000
,
0100
1000
0100
1000
0010
0001
0010
0001
,
0010
0100
1000
0100
0010
0100
0010
0001
,
0010
0100
0010
0100
0010
0001
1000
0001
,
1000
0000
0100
0010
0100
1000
0100
1000
,
0001
1000
0001
1000
0010
1000
0100
1000
,
0010
0100
0010
1000
0100
0010
0100
1000
,
0100
0010
1000
0001
0010
0001
0010
0100
,
1000
0000
0010
0100
0010
0001
0010
0100
,
M000
0000
0000
0000
0000
0000
0000
0000
0000
0000
0000
0000
0000
0000
0000
0000
0000
0000
0000
0000
0000
0000
0000
0000
0M00
0000
0000
0000
0000
0000
0000
0000
0000
0000
0000
0000
0000
0000
0000
0000
0000
0000
0000
0000
0000
0000
0000
0000
00M0
0000
0000
0000
0000
0000
0000
0000
0000
0000
0000
0000
0000
0000
0000
0000
0000
0000
0000
0000
0000
0000
0000
0000
000M
0000
0000
0000
0000
0000
0000
0000
0000
0000
0000
0000
00M0
0000
0000
0000
0000
0000
0000
0000
0000
0000
0000
0000
0M00
0000
0000
0000
0000
0000
0000
0000
0000
0000
0000
0000
M000
0000
0000
0000
0000
0000
0000
0000
0000
0000
0000
0000
0M00
0000
0000
0000
0000
0000
0000
0000
00M0
0000
0000
0000
0000
0000
0000
0000
000M
0000
00M0
0000
0000
0000
0000
0000
0M00
0000
0000
0000
0000
0000
M000
0000
0000
0000
0000
0000
0000
0000
0000
0000
0000
0000
0000
0000
0000
0000
0000
0000
0000
0000
0000
0000
0000
0000
0000
0000
0000
0000
0000
0000
0000
0000
0000
0000
0000
0000
0000
0000
0000
0000
0000
0000
,
1200
0310
0100
0011
,
0110
0100
0010
1100
,
0010
0100
0001
1001
,
0100
0000
0010
0000
0100
0000
1000
0001
,
0110
0001
1000
0110
,
0001
0010
0100
0011
,
0100
0001
0010
1001
,
0010
0000
0100
0010
M100
001M
M100
0010
,
1100
0001
0010
0210
,
0310
0001
1000
0102
,
0013
0100
0001
1200
,
0310
0000
0001
0000
0010
0000
MMMM
MMMM
,
1000
0100
0001
1020
,
0130
0001
0010
2100
,
3100
0010
0001
0210
,
0310
1000
0010
1000
0100
0010
0100
0001
,
1010
0100
0010
2002
,
3103
0010
0100
0012
,
0103
0010
0100
1200
,
0310
1000
0001
0120
,
0031
0010
0100
0210
,
0310
0001
0100
0012
,
0103
1000
0100
0110
,
0001
0010
0100
1010
,
0100
0010
0001
1100
,
0010
0100
0010
1001
,
0010
0100
0010
1002
,
0013
0000
0100
0000
0010
0000
1000
0001
,
1000
0010
0100
0021
,
1030
0100
0010
0210
,
0310
0001
0010
0102
,
0103
0000
0010
0000
MMMM
0000
1000
0010
,
0100
0010
0100
0010
0001
0010
0001
0100
,
1000
0100
0001
1000
0001
1000
0001
0000
,
0100
0010
0100
1000
0010
0100
0010
0100
,
0010
0100
1000
0100
1000
0100
0010
0100
,
0010
0001
0010
0100
0010
0001
0010
0001
,
0010
0100
0010
0100
0010
0001
0100
0000
,
0010
0100
1000
0100
0010
0100
0001
1000
,
0001
1000
0001
1000
0001
0100
0010
0100
,
0010
0001
0010
0100
0010
0001
1000
0001
,
0100
0001
0010
0001
1000
0001
0100
0000
,
0010
0100
0010
0001
0010
0001
1000
0001
,
0100
0010
0100
1000
0100
0010
1000
0100
,
1000
0100
0010
0100
0010
0001
0010
0001
,
0010
0100
0010
0001
0010
0100
0010
0000
,
1000
0100
0010
0100
0010
0001
1000
0001
,
1000
0100
0001
1000
0100
0001
2002
0000
,
0000
0000
0000
3003
M00M
0M00
00M0
0M00
,
M000
0M00
0000
0000
0000
0000
0000
0000
;

//---------------dance-single - Blank----------------
#NOTES:
     dance-single:
     Blank:
     Easy:
     4:
     0.437,0.484,0.142,0.343,0.021,307.000,17.000,41.000,50.000,0.000:

0000
0000
0000
0000
,
0000
0000
0000
0000
,
0000
0000
0000
0000
,
0000
0000
0000
0000
,
1000
0010
0100
0001
,
0100
0010
0200
0300
,
0010
0100
1000
0100
,
1000
0200
0320
0230
,
1300
0001
0000
0010
,
1000
0010
0000
0001
,
0010
0100
0000
0110
,
0100
1000
0000
MMMM
,
0100
0001
0000
1001
,
0100
0010
0000
1100
,
0010
0100
0000
0011
,
1000
0001
1000
0001
,
0100
0010
0100
1000
,
0100
0010
0100
0001
,
0010
0100
0010
1000
,
0100
0001
0100
0010
,
0100
0001
0010
1000
,
0100
0010
0100
0011
,
0010
0100
0010
1100
,
0010
0000
0001
0000
1000
0000
0100
0010
,
2000
3010
0200
0310
,
0002
0013
0200
1300
,
0002
0003
MMMM
1001
,
0100
0010
0001
0020
,
0130
1000
0100
0002
,
0103
0010
0100
2000
,
3100
M0M0
0M0M
1010
,
0100
0001
0010
0200
,
0301
1000
0100
0011
,
0010
0100
0010
1100
,
0010
0100
0010
0110
,
0001
0010
0100
0011
,
0100
1000
0100
1000
,
0100
0010
0100
0010
,
0001
0010
0001
0010
,
1000
0000
0001
0000
1000
MMMM
MMMM
0000
,
1000
0010
0100
0002
,
0103
0010
0100
0200
,
1300
0100
0010
0200
,
0310
0000
0001
0000
0010
0000
1000
0001
,
1000
0100
0010
0200
,
0301
0010
0001
0020
,
0130
0010
0100
2000
,
3010
0000
0000
M000
0M00
000M
M000
000M
00MM
0M0M
0000
M000
,
1000
0100
0010
0200
,
0310
0001
0010
0200
,
0310
1000
0100
0002
,
0103
0010
1000
MMMM
,
0010
0100
0010
0110
,
1000
0010
1000
1010
,
0100
0001
0100
0101
,
0100
0010
0001
1001
,
0200
0000
0310
0100
,
0002
0000
0013
1000
,
0200
0000
0301
1000
,
0002
0000
0013
0100
,
2000
0000
3010
0001
,
0200
0000
0301
1000
,
0020
0000
0031
0100
,
2000
0000
3010
0100
,
0001
1000
0100
0010
,
0100
0001
0010
0100
,
0001
1000
0001
1000
,
0100
0010
0100
0010
,
1000
0100
0010
0100
,
0001
0010
0001
0010
,
1000
0010
0100
0001
,
0010
1000
0000
0100
,
0001
0010
0200
0310
,
0100
1000
0200
0320
,
0030
MMMM
2000
3100
,
0010
0100
0020
0031
,
0010
0100
0020
0130
,
1000
0100
0020
0230
,
0300
MMMM
0020
0130
,
0001
0010
0100
1000
,
0100
1000
0100
0010
,
0001
0010
0001
1000
,
0001
1000
0001
0100
,
0001
0010
1000
0001
,
0100
0010
1000
0001
,
0010
0100
0010
0001
,
1000
0001
1000
M010
,
010M
M010
1M00
2002
,
3003
M000
0M00
00M0
,
000M
0000
0000
0000
;
