#TITLE:Initial D;
#SUBTITLE:- Space Boy;
#ARTIST:Dave Rodgers;
#TITLETRANSLIT:;
#SUBTITLETRANSLIT:;
#ARTISTTRANSLIT:;
#CREDIT:Anime Toshokan;
#BANNER:Initial D - Space Boy.png;
#BACKGROUND:Initial D - Space Boy bg.png;
#LYRICSPATH:;
#CDTITLE:dejiko.png;
#MUSIC:Initial D - Space Boy.mp3;
#OFFSET:0.876;
#SAMPLESTART:54.570;
#SAMPLELENGTH:12.300;
#SELECTABLE:YES;
#DISPLAYBPM:156.000;
#BPMS:0.000=155.670,144.000=155.720;
#STOPS:;
#BGCHANGES:;
// cache tags:
#FIRSTBEAT:11.500;
#LASTBEAT:256.000;
#SONGFILENAME:Songs/DDR Anime 3rd Mix/Initial D - Space Boy/Initial D - Space Boy.sm;
#HASMUSIC:1;
#HASBANNER:1;
#MUSICLENGTH:100.469;
// end cache tags

//---------------dance-single - BASIC----------------
#NOTES:
     dance-single:
     BASIC:
     Easy:
     4:
     0.338,0.414,0.239,0.040,0.000,210.000,24.000,4.000,0.000,0.000:
0000
0000
0000
0000
,
0000
0000
0000
0000
,
0000
0000
0000
0000
,
0020
0000
0000
0000
,
0000
0000
0000
0030
,
0200
0000
0000
0000
,
0000
0000
0000
0300
,
0020
0000
0000
0000
,
0000
0000
0000
0030
,
0000
0001
0001
0001
,
0001
0001
0001
0000
,
1001
0000
0110
0000
,
1001
0100
1000
0010
,
0001
0100
0001
1000
,
0001
0100
0010
0100
,
0100
0100
1001
1001
,
0010
0010
0010
1000
,
0001
0100
1000
0100
,
0001
0100
1000
0001
,
1000
0000
1001
1001
,
0000
0001
0001
0001
,
0001
1000
1000
1000
,
1000
0100
0100
0100
,
0100
0010
0010
0010
,
0010
1000
0001
1000
,
0001
1000
0100
1000
,
0001
0100
0001
0010
,
1000
0010
0001
0010
,
0001
1000
0001
1000
,
0100
0010
0001
0100
,
1000
0001
0100
1000
,
0001
0100
1000
0001
,
0010
1000
0100
0010
,
0001
1000
0100
0010
,
0001
0001
0010
0100
,
1001
0000
0110
0000
,
1000
0001
1000
0001
,
1000
0100
1000
0100
,
0001
0110
0110
0110
,
0110
1000
0010
0100
,
0010
1000
0001
0100
,
1000
0001
0100
0001
,
0001
1000
1000
0100
,
0010
0001
1000
0100
,
0010
0001
0100
1000
,
0100
0010
0001
1000
,
0100
0110
0110
0110
,
0110
0010
0001
0100
,
1000
0001
0010
0100
,
1000
0001
0100
1000
,
0001
0110
0110
0110
,
0110
0001
0010
0001
,
1000
0010
1000
0010
,
1000
0001
1000
0001
,
0100
0010
0001
1000
,
0000
0000
1001
1001
,
0000
1000
1000
0001
,
0001
0100
0100
0010
,
0010
1000
0001
0100
,
0010
0001
0100
1000
,
0100
0001
0100
0001
,
1000
0001
0100
0010
,
0001
1000
0002
0000
,
0000
0003
0000
0000
1000
0000
1000
0000
,
1100
0000
0000
0000
;

//---------------dance-single - ANOTHER----------------
#NOTES:
     dance-single:
     ANOTHER:
     Medium:
     6:
     0.401,0.510,0.438,0.129,0.000,225.000,44.000,13.000,0.000,0.000:
0000
0000
0000
0000
,
0000
0000
0000
0000
,
0000
0000
0000
0000
0000
0000
0000
0010
,
0020
0000
0000
0000
,
0000
0030
0000
0000
0000
0000
0000
0000
0000
0000
0000
0000
0000
0000
0100
0000
,
0200
0000
0000
0000
,
0000
0300
0000
0000
0000
0000
0000
0000
0000
0000
0000
0000
0000
0000
0110
0000
,
0220
0000
0000
0000
,
0000
0330
0000
0000
0000
0000
0000
0000
1000
0000
0001
0000
1000
0000
0001
0000
,
0000
1100
0101
1100
,
0101
1100
0101
0000
,
0020
0000
0000
0030
0000
0000
0000
0000
0200
0000
0000
0300
0000
0000
0000
0000
,
0220
0000
0000
0330
0000
0000
0000
0000
0010
0000
0000
0000
0001
0000
0000
0000
,
1000
0100
0001
0100
,
0010
1000
0010
0100
,
1000
0100
1001
1001
,
0010
0010
0001
0001
,
0100
0100
1000
1000
,
0001
0000
1000
0001
1000
0001
1000
0001
,
1000
0000
1001
1001
,
0000
0001
0010
0001
,
0011
1000
0100
1000
,
1100
0001
0100
0010
,
0010
0000
0001
0000
1000
0000
0010
0010
,
1001
1000
0010
0100
,
0001
0010
1000
0001
,
0100
0000
0010
1000
0000
1000
0000
1000
,
2000
0000
0000
0000
0000
0000
0000
3000
,
0000
0100
0001
0100
,
1000
0100
0001
0001
,
1000
0010
1000
0010
,
0010
0100
0010
0010
,
1000
0010
0010
0010
,
0000
0010
0010
0000
0100
0010
0100
0000
,
1000
0001
1000
0000
0010
0100
0010
0020
,
0000
0000
0000
0000
0000
0000
0200
0000
0000
0000
0000
0000
0000
0000
0000
0330
,
0000
0000
1001
0000
0010
0100
0000
0000
,
0000
0000
0000
0011
0000
0000
1010
0000
,
0000
0000
0100
0000
0100
0100
0000
0100
,
0000
1010
0011
0110
,
1001
0000
0010
0000
0001
0010
0000
0000
,
0000
0000
0000
1010
0000
0000
0011
0000
,
0001
1000
0100
0001
,
1000
0000
0100
0000
0001
0000
0100
0100
,
0100
0000
0001
0000
1000
1000
0000
0000
,
0000
0000
0000
1001
0000
0000
1001
0000
,
0000
0000
0100
0000
0100
0100
0000
0100
,
0000
0010
0001
1000
,
1001
0000
0010
0000
1000
0001
0000
0000
,
0000
0000
0000
0110
0000
0000
1001
0000
,
0000
0000
0100
0000
0100
0100
0000
0100
,
0000
0001
0001
1000
,
1000
0100
0001
1000
,
0010
0000
0000
1001
0000
0000
1001
0000
,
1100
0011
1100
1010
,
1001
0110
0010
0010
,
1001
0000
1000
0100
1000
0000
0001
0100
,
0001
0000
0100
1000
0100
0000
0010
0001
,
0010
0000
0010
1000
0100
0000
0010
0001
,
0100
1000
1001
1001
,
1000
0100
0001
0000
1000
0100
0001
0000
,
0001
0100
1000
0000
0001
0100
1000
0000
,
0001
1000
0001
0000
0001
1000
0001
0000
,
2002
3003
0010
0110
,
1001
0000
0000
0000
;

//---------------dance-single - MANIAC----------------
#NOTES:
     dance-single:
     MANIAC:
     Hard:
     8:
     0.569,0.573,0.746,0.279,0.020,297.000,75.000,28.000,0.000,0.000:
0000
0000
0000
0000
,
0000
0000
0000
0000
,
0000
0000
0000
0000
0000
0000
0000
0010
,
0020
0000
0000
0000
0000
0030
2020
0000
0000
0000
0000
3030
0022
0000
0000
0000
,
0000
0033
0000
0000
0000
0000
0000
0000
0000
0000
0000
0000
0000
0000
0100
0000
,
0200
0000
0000
0000
0000
0300
2200
0000
0000
0000
0000
3300
0202
0000
0000
0000
,
0000
0303
0000
0000
0000
0000
0000
0000
0000
0000
0000
0000
0000
0000
0110
0000
,
0220
0000
0000
0000
0000
0330
0220
0000
0000
0000
0000
0330
0220
0000
0000
0000
,
0000
0330
0000
0000
0000
0000
0000
0000
1000
0001
1000
0001
1000
0001
1000
0001
,
0000
1001
1001
1001
,
1001
1001
1001
0000
,
2002
0000
0000
3003
0000
0000
0000
0000
0220
0000
0000
0330
0000
0000
0000
0000
,
0220
0330
0010
0000
0010
0000
0001
0000
,
1000
1100
0001
0100
,
0010
1010
0010
0101
,
1100
0100
0110
1001
,
0010
0110
0010
1001
,
0100
0110
0010
1001
,
0001
1001
1000
1001
,
2002
0000
0000
3003
0000
0000
0000
0000
1001
0000
0000
0000
1001
0000
0000
0000
,
0000
0000
0001
0000
0010
0000
0001
0100
,
1000
0000
1000
0000
0100
0000
1000
0100
,
0001
0000
0001
0000
0001
0000
0000
0100
,
0010
0100
0010
0010
1000
1000
0001
0001
,
1001
0000
1000
0000
0001
0000
1000
0010
,
0001
0000
0001
0000
1000
0000
0001
0010
,
1000
0000
0010
0001
0000
1000
0000
1010
,
2000
3000
0020
0030
0200
0300
0002
0003
,
0000
0000
1000
0000
0001
0000
1000
1000
,
0100
0000
1000
0000
0001
0000
0001
0001
,
0100
0000
0010
0000
0100
0000
0010
0100
,
0001
0000
0100
0000
0010
0000
0010
0100
,
1000
0000
0010
0100
0100
0010
0001
1000
,
0001
0110
0110
0000
0110
0000
0110
0000
,
1001
0000
0101
0000
1010
0000
0110
1001
,
0000
0000
0000
0110
0000
0000
0000
0000
,
0000
0000
0001
1000
0010
0100
0000
0000
,
0000
0100
0100
0101
0000
0000
1100
0000
,
0000
0000
1001
0000
0110
0110
0000
1001
,
0000
0000
1000
0100
0010
0100
0010
1000
,
0001
0000
1000
1000
0001
0010
0000
0000
,
0000
0100
0010
0110
0000
0000
0101
0000
,
0001
0100
1000
1000
0100
0001
0001
0100
,
1000
1000
0100
0001
0010
0100
0100
0010
,
0110
0000
0001
0100
0010
1000
0000
0000
,
0000
0010
0010
1001
0000
0000
1001
0000
,
0000
0000
0110
0000
1001
1001
0000
0110
,
0000
0000
0010
0010
0001
1000
0010
1000
,
0011
0000
0010
0010
1000
0001
0000
0000
,
0000
0010
0100
0110
0000
0000
0110
0000
,
0000
0000
1100
0000
0110
0100
0000
0101
,
0000
0000
0001
0010
0001
0100
1000
0100
,
0001
0000
0100
0100
0001
1000
0000
0000
,
0000
0010
0100
1001
0000
0000
1001
0000
,
1000
0100
0001
0100
1000
0100
0001
0100
,
1000
0100
0001
0100
1001
0000
1001
0000
,
1001
0000
1000
0100
1000
0010
1000
0001
,
0010
0001
0100
0001
1000
0010
1000
0100
,
1000
0001
0010
0100
1000
0100
0010
0001
,
0010
0100
1000
0000
1001
0000
1001
0000
,
1000
0100
0001
0100
1000
0100
0001
0100
,
1000
0001
0100
1000
0100
0001
0100
1000
,
0100
0001
0100
1000
0001
0100
1000
0100
,
0001
1000
0000
0000
0110
0000
0110
0000
,
1001
0000
0000
0000
;

//---------------dance-single - BEGINNER----------------
#NOTES:
     dance-single:
     BEGINNER:
     Beginner:
     2:
     0.186,0.255,0.149,0.040,0.000,112.000,15.000,4.000,0.000,0.000:
0000
0000
0000
0000
,
0000
0000
0000
0000
,
0000
0000
0000
0000
,
0020
0000
0000
0000
,
0000
0000
0000
0030
,
0200
0000
0000
0000
,
0000
0000
0000
0300
,
0020
0000
0000
0000
,
0000
0000
0000
0030
,
0000
0001
0001
0000
,
0001
0000
0001
0000
,
1001
0000
0110
0000
,
1001
0000
1000
0000
,
0001
0000
0001
0000
,
0001
0000
0010
0000
,
0100
0000
1001
0000
,
0010
0000
0010
0000
,
0001
0000
1000
0000
,
0001
0000
1000
0000
,
1000
0000
1001
0000
,
0000
0001
0001
0000
,
0001
0000
1000
0000
,
1000
0000
0100
0000
,
0100
0000
0010
0000
,
0010
0000
0001
0000
,
0001
0000
0100
0000
,
0001
0000
0001
0000
,
1000
0000
0001
0000
,
0001
0000
0001
0000
,
0100
0000
0001
0000
,
1000
0000
0100
0000
,
0001
0000
1000
0000
,
0010
0000
0100
0000
,
0001
0000
0100
0000
,
0001
0000
0010
0000
,
1001
0000
0110
0000
,
1000
0000
1000
0000
,
1000
0000
1000
0000
,
0001
0000
0110
0000
,
0110
0000
0010
0000
,
0010
0000
0001
0000
,
1000
0000
0100
0000
,
0001
0000
1000
0000
,
0010
0000
1000
0000
,
0010
0000
0100
0000
,
0100
0000
0001
0000
,
0100
0000
0110
0000
,
0110
0000
0001
0000
,
1000
0000
0010
0000
,
1000
0000
0100
0000
,
0001
0000
0110
0000
,
0110
0000
0010
0000
,
1000
0000
1000
0000
,
1000
0000
1000
0000
,
0100
0000
0001
0000
,
0000
0000
1001
0000
,
0000
1000
1000
0000
,
0001
0000
0100
0000
,
0010
0000
0001
0000
,
0010
0000
0100
0000
,
0100
0000
0100
0000
,
1000
0000
0100
0000
,
0001
0000
0002
0000
,
0000
0003
0000
0000
1000
0000
0000
0000
,
1100
0000
0000
0000
;
