#TITLE:Rome Needs No Mother;
#SUBTITLE:(The Peace is Pain Remix);
#ARTIST:Bingy Fireball the III;
#TITLETRANSLIT:;
#SUBTITLETRANSLIT:;
#ARTISTTRANSLIT:;
#CREDIT:;
#BANNER:rome.png;
#BACKGROUND:rome- bg.png;
#LYRICSPATH:;
#CDTITLE:HSlogo.png;
#MUSIC:Rome Needs No Mother.ogg;
#OFFSET:-0.015;
#SAMPLESTART:40.940;
#SAMPLELENGTH:13.500;
#SELECTABLE:YES;
#BPMS:0.000=140.000,212.000=35.000,216.000=140.000;
#STOPS:;
#BGCHANGES:;
// cache tags:
#FIRSTBEAT:16.000;
#LASTBEAT:330.000;
#SONGFILENAME:Songs/StepMix 1.0/Rome Needs No Mother/rome.sm;
#HASMUSIC:1;
#HASBANNER:1;
#MUSICLENGTH:145.622;
// end cache tags

//---------------dance-single - ----------------
#NOTES:
     dance-single:
     :
     Hard:
     10:
     0.633,1.000,0.515,0.172,0.237,545.000,75.000,25.000,0.000,0.000:
0000
0000
0000
0000
,
0000
0000
0000
0000
,
0000
0000
0000
0000
,
0000
0000
0000
0000
,
1010
0000
1001
0000
0001
0100
0010
0000
,
1001
0000
0101
0000
0010
0001
0100
0000
,
1010
0000
1001
0000
0001
0100
0010
0000
,
2000
0000
3001
0000
0001
1000
0011
0000
,
1000
0000
0000
0110
0000
0000
0000
0000
,
0001
0000
0000
0110
0000
0000
1000
0000
,
0001
0000
0000
0100
0000
0000
1100
0000
0000
0000
1000
0000
0100
0000
0000
0000
,
0010
0001
0010
0000
0100
0010
0100
0000
0001
0000
0001
0000
1000
0000
0010
0000
,
0100
0010
0100
0000
0001
1000
0001
0000
0100
0000
0100
0000
0010
0000
1000
0000
,
0001
0100
0001
0000
1000
0100
1000
0000
0010
0000
0100
0000
0001
0000
1000
0000
,
0000
0010
0001
0010
0001
1000
0100
0101
,
0000
0001
0100
1000
0010
1000
0100
0010
,
0000
0001
0100
1000
0010
1000
0100
0010
,
0000
0010
1000
0010
0100
0001
1000
0001
,
0000
1000
0010
0100
0001
0100
1000
0001
,
1001
0000
0000
0001
1000
0000
0000
1000
0100
0000
0110
0000
0110
0000
0000
0000
,
1001
0000
0000
0001
1000
0000
0000
1000
0010
0000
0110
0000
0110
0000
0000
0000
,
0101
0000
0000
0001
1000
0000
0000
1000
0010
0000
1010
0000
1010
0000
0000
0000
,
1100
0000
0000
1000
0100
0000
0000
0100
0010
0000
0011
0000
0011
0000
0010
0000
,
1001
0000
0000
0001
0100
0000
0000
0001
0100
0000
0010
0000
0010
0000
0000
0000
,
1001
0000
0000
1000
0100
0000
0000
1000
0100
0000
0010
0000
0010
0000
0000
0000
,
1001
0000
0000
0100
0010
0000
0000
0100
0010
0000
0100
0000
0010
0000
0000
0000
,
1001
0000
0000
1000
0100
0000
0000
1000
0100
0000
0010
0000
0010
0000
0001
0000
,
2000
0000
3020
0000
0230
0001
0301
0000
,
0020
0000
0032
0000
2003
0100
3100
0000
,
0020
0000
0230
0000
0302
1000
1003
0000
,
1001
0000
0110
0000
1001
0100
0010
0000
,
1000
0010
0100
0001
1000
0100
1000
0100
,
1000
0010
0100
0001
0010
0100
0010
0000
,
0001
0010
0001
0010
0100
0010
0100
0010
,
0001
0100
0010
1000
0001
0010
0100
0000
,
1000
0010
1000
0010
0100
0001
0100
0001
,
1000
0100
0010
0001
0010
0100
1000
0000
,
0100
0001
0100
0001
1000
0010
1000
0010
,
0100
0001
1000
0010
0100
0001
0010
0000
,
0102
0000
1000
0000
1000
1000
1003
0000
,
2100
0000
0001
0000
0001
0001
3001
0000
,
1010
0000
1010
0000
1010
1001
1010
0000
,
0101
0000
0101
0000
0101
1001
0101
0000
,
0020
0000
0000
0000
0000
0000
0000
0000
1030
0000
0000
0100
0000
0000
0010
0000
,
0002
0000
0000
0000
0000
0000
0000
0000
0000
0000
0000
0000
0000
0000
0000
0000
0000
0000
0000
0000
0000
0003
0000
0000
1000
0000
0000
0100
0000
0000
0000
0000
0001
0000
0000
0000
0000
0000
0000
0100
0000
0000
1000
0000
0000
0000
0000
0000
,
0010
0100
0010
0100
0010
0100
0101
0000
,
0100
0010
0100
0010
0110
0100
1001
0000
,
1000
0010
1000
0010
1000
0010
1100
0000
,
0001
0010
0001
0010
1001
0100
0011
0000
,
1000
0000
0001
0010
0001
0000
1000
0100
1000
0000
0001
0000
0010
0000
0001
0000
,
1000
0000
0010
0100
0010
0000
0100
0001
0100
0000
0010
0000
1000
0000
0010
0000
,
0100
0000
0001
1000
0001
0000
0010
0100
0010
0000
0100
0000
0001
0000
1000
0000
,
0010
0000
0001
1000
0001
0000
1000
0001
1000
0000
0001
0000
1000
0000
0001
0000
,
0100
0010
0100
0010
0100
0010
0100
0110
0000
0001
1000
0001
1000
0001
1000
1001
0000
1000
0100
0010
0001
1000
0010
0110
0000
0001
0010
0100
1000
0100
0010
0011
,
1000
0100
1000
0010
0100
0001
0101
0000
,
0010
0000
0001
0000
1000
0000
0010
0000
1000
0000
0010
0100
0010
0000
0000
0000
,
0001
0010
1000
0010
0001
0100
1100
0000
,
0010
0000
0001
0000
0100
0000
0010
0000
1000
0000
0001
0010
0001
0000
1000
0000
,
0200
0000
0000
0320
0000
0032
0000
0003
,
2000
0000
0000
3020
0000
0230
0000
0300
,
0002
0000
0000
2003
0000
3001
0000
1000
,
0101
0000
0000
0101
0000
0000
1002
0000
0000
0000
0103
0000
0000
0000
0000
0000
,
0010
0001
0010
0001
1000
0001
1000
0001
,
0100
0010
0100
0010
0001
1000
0100
0010
,
0100
1000
0100
1000
0001
1000
0001
1000
,
0010
0100
0010
0100
1000
0001
0010
0100
,
1100
0000
1100
0000
0001
0100
0001
0000
,
0110
0000
0110
0000
1000
0010
0100
0000
,
0101
0000
0101
0000
0010
1000
0100
0000
,
0011
0000
0011
0000
0011
1001
1100
0000
,
0010
0100
0010
0100
0010
0110
0110
0000
,
0001
1000
0001
1000
0001
1001
1001
0000
,
0010
1000
0100
0001
0010
1100
0101
0010
,
1000
0000
0100
0000
0001
0000
0100
0000
1000
0000
0001
0010
0001
0000
1000
0000
,
0010
0000
1000
0100
1000
0000
0001
0100
0001
0000
1000
0000
0010
0000
0100
0000
,
0001
0000
1000
0100
1000
0000
0001
0100
0001
0000
1000
0000
0001
0000
0100
0000
,
0010
0000
0100
0010
0100
0000
0010
0100
0010
0000
0100
0000
0001
0000
1000
0000
,
0010
0000
0001
0000
0100
0000
1000
1000
,
0001
0000
0010
0000
1000
0000
0100
0001
,
0010
0000
1000
0000
0100
0000
0001
0010
,
1000
0000
0010
0000
0001
0000
0100
1000
,
0010
0000
0010
0000
0010
0100
0010
0001
,
2002
0000
3003
0000
;

//---------------dance-single - ----------------
#NOTES:
     dance-single:
     :
     Beginner:
     2:
     0.157,0.225,0.117,0.000,0.000,143.000,17.000,0.000,0.000,0.000:
0000
0000
0000
0000
,
0000
0000
0000
0000
,
0000
0000
0000
0000
,
0000
0000
0000
0000
,
0010
0000
0010
0010
,
0100
0000
0100
0100
,
0010
0000
0010
0010
,
1000
0000
0000
0000
,
0001
0000
1000
0000
,
0001
0000
1000
0000
,
0001
0000
0010
0000
,
0100
0000
0100
0000
,
0100
0000
0100
0000
,
0010
0000
0010
0000
,
0010
0000
0010
0000
,
1000
0000
0100
0000
,
0001
0000
0010
0000
,
1000
0000
0100
0000
,
0001
0000
0000
0000
,
1000
0000
1001
0000
,
0001
0000
1001
0000
,
1000
0000
1001
0000
,
0001
0001
0001
0000
,
0010
0000
0110
0000
,
0100
0000
0110
0000
,
0010
0000
0110
0000
,
0100
0100
0001
0000
,
1000
0000
0000
0000
,
1000
0000
0000
0000
,
0001
0000
0000
0000
,
0101
0000
0000
0000
,
1000
0000
0000
0000
,
1100
0000
0000
0000
,
0001
0000
0000
0000
,
0101
0000
0000
0000
,
1010
0000
0000
0000
,
0011
0000
0000
0000
,
1010
0000
0000
0000
,
1001
0000
0000
0000
,
0100
0100
0100
0000
,
0100
0100
0100
0000
,
0001
0001
0001
0000
,
1000
1000
1000
0000
,
0010
0000
0000
0000
,
0100
0000
0000
0000
,
0001
0001
0001
0000
,
0001
0001
0001
0000
,
1000
1000
1000
0000
,
1000
1000
1000
0000
,
0010
0000
0000
0000
,
0010
0000
0000
0000
,
0110
0000
0000
0000
,
1000
1000
1000
0000
,
0001
0000
1000
0000
,
0010
0000
0010
0000
,
1000
0000
1000
0000
,
0100
0000
0100
0000
,
1001
0000
0010
0000
,
0100
0000
0000
0000
,
0001
0000
0000
0000
,
0010
0000
0000
0000
,
0100
0000
0000
0000
,
0100
0000
0000
0000
,
0100
0000
0000
0000
,
0010
0000
0000
0000
,
1001
0000
0010
0000
,
0100
0100
0100
0000
,
0100
0100
0100
0000
,
0010
0010
0010
0000
,
0001
0001
1001
0000
,
0100
0000
0000
0000
,
1000
0000
0000
0000
,
0010
0000
0000
0000
,
0001
0001
0001
0000
,
0100
0000
0000
0000
,
1000
0000
0000
0000
,
0010
0000
0000
0000
,
0001
0000
0000
0000
,
1000
1000
0000
0000
,
0001
0001
0000
0000
,
0100
0010
0000
0000
,
0001
0010
0000
0000
,
0001
0000
0000
0000
;

//---------------dance-single - ----------------
#NOTES:
     dance-single:
     :
     Easy:
     7:
     0.333,0.508,0.227,0.014,0.000,304.000,33.000,2.000,0.000,0.000:
0000
0000
0000
0000
,
0000
0000
0000
0000
,
0000
0000
0000
0000
,
0000
0000
0000
0000
,
0010
0000
0100
0000
0001
0100
0010
0000
,
1000
0000
0100
0000
0010
0001
0010
0000
,
1000
0000
0010
0000
0100
0001
0100
0000
,
0010
1000
0100
0010
,
0001
0000
0000
0000
,
0010
0000
0000
0000
0000
0000
0000
0100
,
0010
0010
0010
0000
,
1000
0100
0010
0001
,
1001
1001
1001
0110
,
0001
1000
0100
0010
,
1100
1100
1100
1001
,
0010
0100
0001
1000
,
0010
0010
0010
0010
,
1000
0100
0010
0001
,
1000
0100
1000
0100
1000
0100
1000
0000
,
0001
0000
0001
0000
0100
0001
0100
0000
,
0010
0000
0010
0000
0010
0100
0010
0000
,
1000
0000
1000
0000
1000
0001
1000
0000
,
0010
0000
0010
0000
0100
0001
1000
0000
,
0100
0000
0100
0000
0100
0010
0001
0000
,
1000
0000
0010
0000
0100
0001
1000
0000
,
0010
0000
0100
0000
0001
1000
0100
0000
,
0010
0000
0001
0000
1000
0100
0010
0000
,
0001
0001
0001
0001
,
1000
1000
1000
1000
,
0001
0001
0001
0001
,
1001
0000
0110
0000
1001
0010
0100
0000
,
0001
1000
0100
0010
,
0001
1000
0010
0100
,
0001
0000
0000
0000
0000
0000
0000
1000
,
0100
0000
0000
0000
0000
0000
0000
0010
,
0100
0001
1000
0010
,
0100
0001
1000
0100
,
0011
1100
1010
0101
,
0010
0000
0010
0000
1000
1000
1000
0000
,
0001
0000
1000
0001
,
1000
0000
0010
0100
,
0001
0000
1000
0100
,
0010
0000
1001
0100
,
1000
0000
0000
0000
0010
0100
0000
0001
,
0000
0000
0000
0000
1000
0100
0000
0010
,
0001
0000
1000
0000
0100
0010
0001
0000
,
1000
0000
0100
0000
0010
0001
0100
0000
,
0010
0000
0010
0000
1000
0100
0010
0000
,
0001
0000
1000
0000
1010
0100
0001
0000
,
1000
0000
0100
0000
0010
0010
0010
0000
,
0001
0000
1000
0000
0100
0100
0100
0000
,
0010
0000
0001
0000
1000
1000
1000
0000
,
1001
0000
0010
0000
0100
0010
0100
0000
,
0001
0000
1000
0000
0010
0000
0100
0001
,
1000
0000
0100
0000
0010
0001
1000
0000
,
0100
0000
0100
0000
0001
1000
0010
0000
,
0100
0000
0001
0000
1000
0010
0100
0000
,
0001
0000
0100
0000
0010
1000
0100
0000
,
0010
0000
0000
0000
,
1000
0000
0000
0000
,
0001
0000
0000
0000
,
0100
0000
0000
0000
,
1001
0000
1001
0000
0010
0100
0010
0000
,
1001
0000
1001
0000
0010
0100
0010
0000
,
1000
0000
1000
0000
1000
0100
0010
0000
,
0001
0000
0001
0000
0001
0010
0100
0000
,
1000
0000
1000
0000
1000
0001
1000
0000
,
0001
0000
0001
0000
0001
1000
0001
0000
,
1000
0000
1000
0000
1000
0001
1000
0000
,
0010
0000
0100
0000
0001
1000
0100
0000
,
1001
0000
1001
0000
1001
0100
0010
0000
,
1001
0000
1001
0000
1001
0100
0010
0000
,
1001
0000
1001
0000
1001
0100
0010
0000
,
1000
0000
0100
0000
0010
0001
1000
0000
,
0010
0000
0000
0000
,
1000
0000
0000
0000
,
0010
0000
0000
0000
,
0001
0000
0000
0000
0000
0000
0000
0100
,
0010
0000
0000
0000
,
0100
0000
0000
0000
,
0001
0000
0000
0000
,
1001
0000
0000
0000
,
2002
3003
0000
0000
;

//---------------dance-single - ----------------
#NOTES:
     dance-single:
     :
     Medium:
     8:
     0.412,0.621,0.364,0.007,0.000,366.000,53.000,1.000,0.000,0.000:
0000
0000
0000
0000
,
0000
0000
0000
0000
,
0000
0000
0000
0000
,
0000
0000
0000
0000
,
0100
0000
1000
0000
0100
1000
1100
0000
,
0001
0000
0100
0000
0001
0100
0101
0000
,
0010
0000
1000
0000
0010
1000
1010
0000
,
0001
0000
0010
0000
0001
0010
0011
0000
,
1000
0000
0000
0100
0000
0000
0000
0000
,
0010
0000
0000
0001
0000
0000
0000
0000
,
1000
0010
0100
0001
,
1000
0010
0100
0001
1000
0010
0100
0001
,
1000
0010
0100
0001
1000
0010
0100
0001
,
0000
1000
0010
0100
0001
1000
0100
0010
,
0001
0100
0010
1000
0100
0010
0001
0100
,
0000
0010
0010
0010
0010
0010
0010
0010
,
0000
0010
0010
0010
0010
0010
0010
0010
,
0000
1000
1000
1000
1000
1000
1000
1000
,
0000
0001
0001
0001
0001
0001
1001
0100
,
0010
0000
1000
0000
0100
0010
0001
0000
,
1000
0000
0010
0000
0100
0001
1000
0000
,
0010
0000
0100
0000
0001
1000
0010
0000
,
0101
0000
0101
0000
0010
1000
1100
0000
,
0010
0000
0001
0000
0100
0010
1010
0000
,
0001
0000
0100
0000
1010
0001
0100
0000
,
0010
0000
1000
0000
1100
0010
0001
0000
,
0100
0000
0010
0000
1000
0010
1000
0000
,
0001
0000
0001
0000
1000
1000
1000
0000
,
0010
0000
0010
0000
0100
0100
0100
0000
,
0001
0000
0001
0000
0010
0010
0010
0000
,
0100
0000
0100
0000
1100
1001
0110
0000
,
0010
1000
0100
0010
,
0001
0000
1000
0000
0010
0010
0010
0000
,
1000
0010
0100
0001
,
1001
0000
0110
0000
0001
1000
0001
0000
,
0010
0000
1000
0000
,
0100
0000
0010
0000
,
0001
0000
1000
0000
,
0010
0000
0100
0000
0001
1000
0100
0000
,
0010
0001
1000
0001
,
1000
0001
1000
0001
,
0011
0000
1001
0000
,
1100
0000
1100
0000
0010
0100
0001
0000
,
1000
0000
0010
0000
,
0100
0000
0010
0000
,
1001
0000
1001
0000
1001
1001
1001
0000
,
1001
0000
1001
0000
1001
1001
1001
0000
,
0110
0000
0110
0000
0110
0110
0110
0000
,
0110
0000
0110
0000
0110
0110
0110
0000
,
0001
0000
1000
0000
0010
0001
0100
0000
,
0100
0000
1000
0000
0010
0100
0001
0000
,
0010
0000
0100
0000
1100
0001
0100
0000
,
1010
0000
0001
0000
0110
0001
1000
0000
,
0100
1000
0010
0100
0001
0010
1001
0110
,
1000
0000
0100
0000
0001
0010
1000
0000
,
0100
0000
0001
0000
0010
1000
0100
0000
,
0001
0000
0010
0000
0100
0100
0001
0000
,
1000
0000
0010
0000
1000
1000
0001
0000
,
0100
0000
0000
0001
0000
0000
0000
0000
,
1000
0000
0000
0010
0000
0000
0000
0000
,
0100
0000
0001
0000
0000
1000
0000
0000
,
0010
0000
0100
0001
0000
0000
0000
0000
,
1000
0000
1000
0000
0001
0001
0001
0000
,
0100
0000
0100
0000
0010
0010
0010
0000
,
1100
0000
1100
0000
1100
0001
0100
0000
,
0101
0000
0101
0000
0101
0010
1000
0000
,
0100
0010
0001
0100
0010
1000
0100
0000
,
0010
0001
0100
0010
1000
0100
0100
0000
,
0010
0001
0100
0010
1000
0001
0001
0000
,
1000
0010
0100
0001
1000
1000
1000
0000
,
0001
0100
0010
1000
0100
0010
0010
0000
,
0001
1000
0010
0100
0001
0010
0010
0000
,
0100
1000
0010
0100
0001
0010
0010
0000
,
0100
0100
0100
0100
1000
1000
0010
0000
,
1000
0000
0000
0000
0000
0000
0000
0001
,
1000
0000
0000
0000
0000
0000
0000
0001
,
1000
0000
0000
0000
,
1001
0000
0000
0000
0000
0000
0000
1000
,
0100
0000
0000
0000
0000
0000
0000
0010
,
0100
0000
0000
0000
0000
0000
0000
0001
,
0100
0000
0000
0000
,
0110
0010
0010
0100
,
0020
0030
0000
0000
;
