#TITLE:Warp hole;
#SUBTITLE:(Hardcore Mix);
#ARTIST:ChaotiX;
#TITLETRANSLIT:;
#SUBTITLETRANSLIT:;
#ARTISTTRANSLIT:;
#CREDIT:;
#BANNER:Warp_Hole.png;
#BACKGROUND:wp_bg.png;
#LYRICSPATH:;
#CDTITLE:;
#MUSIC:Warp hole.mp3;
#OFFSET:0.000;
#SAMPLESTART:30.960;
#SAMPLELENGTH:12.000;
#SELECTABLE:YES;
#BPMS:0.000=159.940;
#STOPS:;
#BGCHANGES:;
// cache tags:
#FIRSTBEAT:24.000;
#LASTBEAT:316.750;
#SONGFILENAME:Songs/StepMix 1/Warp Hole/Warp hole.sm;
#HASMUSIC:1;
#HASBANNER:1;
#MUSICLENGTH:121.939;
// end cache tags

//---------------dance-single - maniac----------------
#NOTES:
     dance-single:
     maniac:
     Hard:
     10:
     0.630,0.812,0.180,0.189,0.353,491.000,22.000,23.000,0.000,2.000:
0000
0000
0000
0000
,
0000
0000
0000
0000
,
0000
0000
0000
0000
,
0000
0000
0000
0000
,
0000
0000
0000
0000
,
0000
0000
0000
0000
,
1000
0001
0010
0100
,
1000
0100
0001
0000
0001
0100
1000
0000
,
0100
0000
0010
0000
0001
0100
1000
0100
,
0010
0001
0010
0100
1000
0100
0001
0000
,
1000
0000
0000
0000
0100
0000
0010
0000
0010
0001
0010
0001
0010
0001
0010
0001
,
0010
1000
0100
0010
0001
0100
0010
1000
,
0100
0010
1100
0100
0010
0001
0010
0100
,
0011
0001
0100
1000
0100
0001
0010
1000
,
0010
0100
0001
0100
0010
1000
0010
0100
,
0001
0100
0010
0100
1000
0100
0010
0001
,
0010
0000
0100
0000
1000
0000
0100
0010
0100
0000
0001
0010
0001
0000
0100
1000
,
0100
0000
0010
0001
0010
0000
1000
0001
1000
0000
0010
0100
1000
0000
0010
0100
,
0001
0010
0100
1000
0010
0100
0001
0100
,
0010
0001
0100
1000
0100
1000
0100
1000
,
0100
0010
0001
0010
0001
0010
0001
0010
,
0001
0010
0100
0010
0100
0010
0100
0001
,
0100
0000
1000
0000
0100
0000
0000
0000
0020
0000
0000
0030
0020
0000
0000
0000
,
0030
0020
0000
0000
0000
0000
0030
2000
0000
0000
0000
0000
3100
0000
0000
0000
,
0010
0000
0000
0000
0001
0000
0000
0000
0010
0000
0000
0000
0100
0000
0000
1000
,
0100
0000
0000
0000
0010
0000
0000
0000
0001
0000
0000
0000
0001
0000
0000
0001
,
1000
1000
0100
0100
0010
0010
0001
0001
,
0011
0010
0110
0100
1100
1000
0100
0010
,
0100
1000
0100
0001
0100
1000
0010
0001
,
0010
1000
0010
0100
1000
0100
0010
0001
,
0100
0010
1000
0100
0010
0001
1000
0001
,
0010
0100
1000
0001
1000
0100
0010
0001
,
0100
0010
1000
0010
0100
1000
0100
0010
,
0001
0010
0100
1000
0100
0010
0001
1000
,
0001
1000
0001
1000
0100
0010
0100
1000
,
0010
0100
0010
1000
0010
0100
0010
0001
,
1000
0000
0100
0000
0000
0010
0000
0000
0000
0001
0000
0100
0010
0000
1000
0100
,
0000
0010
0000
0001
0000
0100
0000
0000
0000
0010
1000
0000
0100
0000
1000
0100
,
0000
0010
0000
0001
0000
0010
0000
0000
0000
0001
0000
0010
0001
0000
0010
0001
,
0000
0010
0000
0100
1000
0000
0000
0000
0100
0000
1000
0000
0100
1000
0100
0000
,
0000
0000
0100
0000
0000
1000
0000
0001
0000
0000
0100
0000
0000
1000
0000
0000
,
0100
0000
0010
0000
0000
0000
1000
0000
0000
0100
0000
0000
0010
0000
0001
0000
,
0000
0000
0000
0100
0000
0000
0010
0000
0000
1000
0000
0100
0000
0000
0010
0000
,
0000
0000
0001
0000
0000
0100
0000
0000
0010
0000
0000
1000
0000
0000
0100
0000
,
0000
0000
1000
0000
0000
0100
0000
0000
0000
0010
0000
0001
0000
0000
0100
0000
,
0000
0000
0000
0010
0000
0000
0100
0000
0000
0000
0000
0100
0000
0000
0010
0000
,
0000
0000
0000
1000
0000
0000
0100
0000
0010
0000
0000
0001
0000
0000
0100
0000
,
0000
0000
0000
0010
0000
0000
0100
0000
0001
0000
0000
0100
0000
0000
0000
0000
,
0001
1000
0001
1000
0001
0000
0000
0000
0000
1011
0000
0000
0000
0000
0000
0000
,
1000
0001
1000
0001
1000
0000
0000
0000
0000
1101
0000
0000
0000
0000
0000
0000
,
0001
1000
0001
1000
0001
0000
0000
0001
1000
0001
0000
0000
1000
0001
1000
0000
,
0000
0001
1000
0001
1000
0000
0001
0010
0001
0000
1000
0100
1000
0000
0000
0001
,
0010
0100
1000
0100
0010
0001
0010
0100
1000
0100
0010
0001
0010
0100
1000
0100
,
1000
0100
1000
0100
1000
0100
0010
0001
,
0010
0100
1000
0001
1000
0100
0010
0001
,
0100
0010
1000
0100
0010
0001
0100
0001
,
0100
0001
1000
0001
0010
0001
0010
0100
,
1000
0100
0010
0100
0010
0001
0010
0100
,
0010
0100
0010
0100
1000
0001
0010
0100
,
1000
0001
0010
0100
1000
0010
0100
0001
,
1000
0010
0100
0010
1000
0100
0010
0001
,
1000
0100
0010
0001
1000
0100
0010
0001
,
1000
0100
0010
0001
1000
0001
0010
0100
,
1000
0001
0010
0100
1000
0001
1000
0100
,
0010
0001
0000
2000
0100
0100
3100
0001
,
0010
0010
0000
1000
1000
1000
1000
0001
,
1001
0110
0000
0001
0001
0001
1000
0100
,
0110
0101
0000
0010
0100
1000
1001
0110
,
0110
1001
0000
0100
0010
0001
1000
0100
,
1000
0001
0000
0101
1000
0001
1000
0110
,
2002
0000
0000
0000
0000
0000
0000
0000
0000
0000
0000
0000
0000
0000
0000
3003
,
0000
2000
0002
0000
0000
0000
0000
0000
0000
0000
0000
0000
0000
0000
0000
0000
0000
0000
0000
0000
0000
0000
0000
0000
0000
0000
0000
0000
0000
0000
0000
0003
,
3000
0000
2000
0002
0000
0000
0000
0000
0000
0000
0000
0000
0000
0000
0000
0000
0000
0000
0000
0000
0000
0000
0000
0000
0000
0000
0000
0000
0000
0000
0003
3000
,
0000
0000
0000
2002
0000
0000
0000
0000
0000
0000
0000
0000
0000
0000
0000
0000
0000
0000
0000
0000
0000
0000
0000
0000
0000
0000
0000
0000
0000
0000
0000
0003
,
3000
0000
2000
0002
0000
0000
0000
0000
0000
0000
0000
0000
0000
0000
0000
0000
0000
0000
0000
0000
0000
0000
0000
0000
0000
0000
0000
0000
0000
0000
0000
0000
,
3003
0000
0000
2002
0000
0000
0000
0000
0000
0000
0000
0000
0000
0000
0000
0000
0000
0000
0000
0000
0000
0000
0000
0000
0000
0000
0000
0000
0000
0000
0000
0000
,
0003
3000
0000
2000
0002
0000
0000
0000
0000
0000
0000
0000
0000
0000
0000
0000
0000
0000
0000
0000
0000
0000
0000
0000
0000
0000
0000
0000
0000
0000
0000
0000
,
0000
3003
0000
0000
0000
2002
0000
0000
0000
0000
0000
0000
0000
0000
0000
0000
0000
0000
0000
0000
0000
0000
0000
0000
0000
0000
0000
0000
0000
0000
0000
0000
,
0000
0000
0000
0000
0000
0000
0003
3000
0000
0000
2002
0000
0000
0000
0000
0000
0000
0000
0000
0000
0000
0000
0000
0000
0000
0000
0000
0000
0000
0000
0000
0000
,
0000
0000
0000
3003
0000
0000
0000
0000
0000
0000
0000
0000
0000
0000
0000
0000
;

//---------------dance-single - ----------------
#NOTES:
     dance-single:
     :
     Medium:
     6:
     0.382,0.486,0.098,0.033,0.111,310.000,12.000,4.000,0.000,0.000:
0000
0000
0000
0000
,
0000
0000
0000
0000
,
0000
0000
0000
0000
,
0000
0000
0000
0000
,
0000
0000
0000
0000
,
0000
0000
0000
0000
,
1000
0100
0010
0001
,
0010
0100
0010
0100
,
0010
0100
0010
0001
,
0100
0010
1000
1000
,
1000
0000
0100
1000
0010
1000
0001
0100
,
0001
0001
0100
0010
,
0100
0001
1000
0100
,
0010
0001
0100
0010
,
1000
0100
0010
0000
0001
0010
0100
0000
,
0100
0001
1000
0000
0010
1000
0100
0000
,
0001
0010
0100
0000
0010
0000
1000
0000
,
0100
0010
0001
0100
,
0010
0100
1000
0000
1000
0010
0100
0000
,
0001
0010
0001
0000
0010
0000
0100
0000
,
0100
0000
0001
1000
0001
0000
1000
1000
,
0010
0100
0010
0001
,
0100
0010
1000
0100
,
0010
0001
0100
0010
,
0100
0100
0010
0000
0001
0001
0100
0000
,
1000
0100
1000
0000
0001
0010
0001
0000
,
0010
0000
1000
0100
0010
0000
0001
0100
,
0010
0000
1000
0100
0010
0001
0100
0000
,
0010
0000
0100
0000
0100
1000
0100
0000
,
1010
0011
1100
0101
,
1001
0110
1001
1100
,
0010
0001
0100
0010
,
1000
1000
1000
0001
,
0001
0001
1000
1000
,
1000
0100
0010
0000
0001
0010
0100
0000
,
1000
0100
0010
0001
,
0000
1000
0000
0000
0100
0000
0000
0000
0000
0000
0000
0010
0000
0000
0000
0001
,
0000
0000
0000
0000
0000
0100
0000
0000
0000
0010
0000
0000
0000
0000
0000
0000
,
1000
0000
0000
0000
0000
0100
0000
0000
0000
0010
0000
0000
0000
0001
0000
0000
,
0000
0100
0000
0000
0000
0010
0000
0000
0000
1000
0000
0000
0000
0100
0000
0000
,
0010
0000
0000
0000
0001
0000
0000
0000
0100
0000
0000
0000
0010
0000
0000
1000
,
0000
0000
0000
0100
0000
0000
0000
0010
0000
0000
0000
0001
0000
0000
0100
0000
,
0000
0000
0000
0010
0000
0000
1000
0000
0000
0000
0000
0100
0000
0000
0010
0000
,
0000
0000
0000
0001
0000
0000
0100
0000
0000
0000
0000
0010
0000
0000
1000
0000
,
0000
0000
0000
0000
0100
0000
0000
0010
0000
0000
0000
0000
0000
0001
0000
0000
,
1000
0000
0000
0000
0000
0100
0000
0000
0001
0000
0000
0000
0000
1000
0000
0000
,
0100
0000
0000
0000
0000
0000
0001
0000
0000
1000
0000
0000
0000
0000
0000
0100
,
0000
0000
0010
0000
0000
0000
0000
0000
0001
0000
0000
1000
0000
0000
0000
0000
,
0100
0010
0100
0000
0110
0000
0001
0010
,
0001
0000
0011
0000
1000
0100
1000
0000
,
1100
0000
0001
0010
0001
0010
0001
0000
,
1000
0100
1000
0100
1000
0000
0001
0010
,
0100
1000
0001
0010
0100
1000
0000
0000
,
0001
0010
0100
1000
,
0100
0010
0001
0100
,
0010
1000
0010
0100
,
0001
1000
0100
0010
,
0001
0000
1000
0000
0100
0000
0010
1000
,
0001
0000
0010
1000
0001
0000
0010
0001
,
0100
0000
1000
0100
0010
0000
0001
0010
,
0100
1000
0100
0010
,
0001
0100
0010
1000
,
0100
0010
0100
1000
,
0100
0010
0001
1000
,
0001
1000
0001
1000
,
0001
0100
0010
0100
,
0010
0100
1000
0100
,
0010
0001
0010
0100
,
1000
0100
0010
0001
,
1000
0100
0010
0000
0001
0010
0100
0000
,
1000
0100
0010
0000
0001
0020
0130
0000
,
1000
0200
0310
0000
0001
1000
0100
0000
,
1000
0001
0100
0000
2002
0000
0000
0000
,
0000
0000
0000
0000
,
0000
0000
0000
0000
,
0000
0000
0000
0000
,
0000
0000
0000
0000
,
0000
0000
0000
0000
,
0000
0000
0000
0000
,
3003
0000
0000
0000
;

//---------------dance-single - Copied from----------------
#NOTES:
     dance-single:
     Copied from:
     Easy:
     4:
     0.294,0.454,0.074,0.016,0.049,240.000,9.000,2.000,0.000,0.000:
0000
0000
0000
0000
,
0000
0000
0000
0000
,
0000
0000
0000
0000
,
0000
0000
0000
0000
,
0000
0000
0000
0000
,
0000
0000
0000
0000
,
1000
0100
0010
0001
,
0010
0100
0010
0100
,
0010
0100
0010
0001
,
0100
0010
1000
1000
,
1000
0100
0010
0001
,
0001
0001
0100
0010
,
0100
0001
1000
0100
,
0010
0001
0100
0010
,
1000
0100
0010
0000
0001
0010
0100
0000
,
0100
1000
0010
0100
,
0001
0100
0010
1000
,
0100
0010
0001
0100
,
0010
1000
1000
0100
,
0001
0001
0010
0100
,
0100
0000
0001
0000
0001
0000
1000
1000
,
0010
0100
0010
0001
,
0100
0010
1000
0100
,
0010
0001
0100
0010
,
0100
0100
0010
0000
0001
0001
0100
0000
,
1000
1000
0001
0001
,
0010
1000
0010
0001
,
0010
1000
0010
0100
,
0010
0100
0100
0100
,
1010
0011
1100
0101
,
1001
0110
1001
1100
,
0010
0001
0100
0010
,
1000
1000
1000
0001
,
0001
0001
1000
1000
,
1000
0010
0001
0100
,
1000
0100
0010
0001
,
0000
0000
0000
0000
0100
0000
0000
0000
0000
0000
0000
0010
0000
0000
0000
0000
,
0000
0000
0000
0000
0000
0100
0000
0000
0000
0000
0000
0000
0000
0000
0000
0000
,
1000
0000
0000
0000
0000
0000
0000
0000
0000
0010
0000
0000
0000
0000
0000
0000
,
0000
0100
0000
0000
0000
0000
0000
0000
0000
1000
0000
0000
0000
0000
0000
0000
,
0010
0000
0000
0000
0001
0000
0000
0000
0100
0000
0000
0000
0010
0000
0000
1000
,
0000
0000
0000
0000
0000
0000
0000
0010
0000
0000
0000
0000
0000
0000
0000
0000
,
0000
0000
0000
0010
0000
0000
0000
0000
0000
0000
0000
0100
0000
0000
0000
0000
,
0000
0000
0000
0001
0000
0000
0000
0000
0000
0000
0000
0010
0000
0000
0000
0000
,
0000
0100
0000
0000
,
1000
0000
0001
0000
,
0100
0000
0000
0001
0000
0000
0000
0000
,
0000
0000
0010
0000
0000
0000
0000
0000
0000
0000
0000
1000
0000
0000
0000
0000
,
0100
0100
0010
0001
,
0001
0010
1000
1000
,
0100
0001
0001
0001
,
1000
0000
1000
0100
1000
0000
0001
0000
,
0100
0001
0100
0000
,
0001
0010
0100
1000
,
0100
0010
0001
0100
,
0010
1000
0010
0100
,
0001
1000
0100
0010
,
0001
1000
0100
0010
,
0001
0000
0010
0000
0001
0000
0010
0001
,
0100
0000
1000
0000
0010
0000
0001
0010
,
0100
1000
0100
0010
,
0001
0100
0010
1000
,
0100
0010
0100
1000
,
0100
0010
0001
1000
,
0001
1000
0001
1000
,
0001
0100
0010
0100
,
0010
0100
1000
0100
,
0010
0001
0010
0100
,
1000
0100
0010
0001
,
1000
0010
0001
0100
,
2002
0000
0000
0000
,
0000
0000
0000
0000
,
0000
0000
0000
0000
,
0000
0000
0000
0000
,
0000
0000
0000
0000
,
0000
0000
0000
0000
,
0000
0000
0000
0000
,
0000
0000
0000
0000
,
0000
0000
0000
0000
,
3003
0000
0000
0000
;
