#TITLE:KlungKung 2004;
#SUBTITLE:;
#ARTIST:DM Ashura;
#TITLETRANSLIT:;
#SUBTITLETRANSLIT:;
#ARTISTTRANSLIT:;
#CREDIT:;
#BANNER:Klung kung 2004.png;
#BACKGROUND:Klung kung 2004-bg.png;
#LYRICSPATH:;
#CDTITLE:;
#MUSIC:KlungKung 2004.mp3;
#OFFSET:-0.080;
#SAMPLESTART:54.900;
#SAMPLELENGTH:12.000;
#SELECTABLE:YES;
#BPMS:0.000=175.000;
#STOPS:;
#BGCHANGES:;
// cache tags:
#FIRSTBEAT:8.000;
#LASTBEAT:390.500;
#SONGFILENAME:Songs/StepMix 1.0/KlungKung2004/KlungKung 2004.sm;
#HASMUSIC:1;
#HASBANNER:1;
#MUSICLENGTH:135.946;
// end cache tags

//---------------dance-single - E. Holniker----------------
#NOTES:
     dance-single:
     E. Holniker:
     Hard:
     11:
     1.000,1.000,0.140,1.000,0.397,694.000,19.000,302.000,31.000,0.000:







0000
0000
0000
0000
,
0000
0000
0000
0000
,
0000
0000
0000
0000
,
0000
0000
0000
0000
,
2000
0000
0000
0000
3020
0000
0000
0000
0230
0000
0000
0010
0301
0000
0010
0000
,
0020
0000
0000
0000
0230
0000
0000
0000
0302
0000
0000
0100
1003
0000
0010
0000
,
0200
0000
0000
0000
0320
0000
0000
0000
0032
0000
0000
1000
0013
0000
0100
0000
,
0200
0000
0000
0000
2300
0000
0000
0000
3200
0000
0000
0001
0310
0000
0001
0000
,
0200
0320
0032
0023
0230
0320
0230
0320
,
0230
2300
3020
0230
0320
0032
0023
2030
,
3200
0320
0230
0302
0203
0320
0230
0302
,
0023
0000
0230
0000
0320
0000
0032
0000
0023
0000
1030
0100
0010
0001
0020
0000
,
0230
0000
2300
0000
3200
0000
0320
0000
0032
0000
0013
0100
0020
0000
0230
0000
,
0302
0000
0023
0000
0230
0000
0320
0000
0230
0000
2300
0000
3002
0000
0013
1000
,
0020
0000
0230
0000
0320
0000
0230
0000
0320
0000
0032
0000
0023
0100
2030
0000
,
3020
0000
2030
0000
3200
0000
2300
0000
3200
0000
0320
0000
0230
0000
2000
3300
,
0010
0001
0010
0000
0100
1000
0100
0000
0100
0010
0100
0000
0010
0001
0010
0000
,
0010
1000
0010
0000
0100
1000
0100
0000
0100
0001
0100
0001
0100
0010
0100
MMM0
,
1000
0100
1000
0000
0010
0100
0010
0000
0001
0010
0001
0000
0100
0010
0100
0000
,
1000
0100
1000
0000
0100
0010
0100
0000
0001
0010
0001
0100
0002
0000
0000
0000
,
0013
0100
0010
0100
0000
0000
1100
0000
0001
0010
0001
0010
0000
0000
0011
0000
,
0100
0010
0100
1000
0000
0000
0110
0000
0100
0010
0001
0010
0000
0000
1100
0000
,
0100
1000
0100
0010
0000
0000
0011
0000
1000
0100
1000
0100
0000
0000
0101
0000
,
1000
0100
0010
0001
0000
0000
1001
0000
0010
0100
0010
1000
0000
0000
0101
0000
,
2000
3020
2030
3020
0230
0302
0203
0302
,
2003
3200
2300
3200
0320
0032
0023
0032
,
0023
0230
0320
0230
2300
3020
2030
3020
,
0230
0302
0203
0302
2003
3200
2300
3200
,
0320
0230
0320
0230
2300
3020
2030
3020
,
0032
0023
0032
0023
2030
3200
2300
3200
,
0320
0230
0320
0230
0320
0032
0023
0032
,
1003
0000
0100
1000
0200
0000
0320
0000
0032
0000
0023
0000
0230
0000
2300
0000
,
0020
3030
0200
0000
0302
0000
0203
0000
,
2300
0000
3020
0000
0032
0000
0203
2300
,
3020
0032
0023
0230
,
2300
0000
3020
0000
2030
0000
3020
0230
,
0302
2003
3200
0320
0032
0023
0230
0000
,
2300
0000
3020
0000
0230
0000
0320
0000
0032
0000
0013
1000
0200
0000
0000
0000
,
0320
0032
0023
0230
2300
3020
0230
0000
,
0320
0000
2030
0000
3010
1000
0100
0000
0010
0000
0100
1000
0100
0010
0001
0010
,
0100
0000
2000
0000
3002
0000
0203
0000
0320
0000
0000
0000
0002
0000
0000
0033
,
0000
0001
0001
0010
0100
0010
0100
1010
,
M0M0
0000
1000
0000
1000
0000
0010
0000
0200
0000
0000
0000
2000
0000
0000
3300
,
0001
0010
2000
0000
3010
1000
0020
0000
,
0030
0000
1000
0000
1000
0000
0100
0000
0020
0000
0000
0000
0002
0000
0000
0033
,
0000
0001
0001
0010
0100
0010
0100
0011
,
00MM
0000
0100
0000
0100
0000
1000
0000
0020
0000
0000
0000
0200
0000
0000
0330
,
0001
0100
0002
0000
1003
0100
2000
0000
,
3000
0010
0010
1000
0200
0000
0020
0000
,
0330
0001
0001
0100
0010
1000
0100
1010
,
M0M0
0000
0100
0000
0100
0000
1000
0000
0002
0000
0000
0000
0200
0000
0000
0303
,
0000
0010
0010
1000
0100
0010
0100
0101
,
0M0M
0000
0100
0000
0100
0000
1000
0000
0020
0000
0000
0000
0200
0000
0000
0330
,
0000
0001
0001
1000
0010
1000
0100
1010
,
M0M0
0000
0001
0000
0001
0000
1000
0000
0020
0000
0000
0000
2000
0000
0000
3030
,
0000
0010
1000
0000
0000
1000
0001
0000
,
1000
0000
1000
0100
1000
0100
1000
0100
1000
0100
1000
0100
1000
0100
1000
0100
,
0010
0000
0001
0010
0001
0010
0001
0010
0001
0010
0001
0010
0001
0010
0001
0010
,
0100
0000
0100
0010
0100
0010
0100
0010
0100
0010
0100
0010
0100
0010
0100
0010
,
1000
0000
1000
0100
1000
0100
1000
0100
1000
0100
1000
0100
1000
0100
1000
0100
,
1000
0000
0010
1000
0010
1000
0010
0000
1000
0000
0010
1000
0010
1000
0010
0000
,
0100
0000
0001
0010
0001
0010
0001
0000
1000
0000
0100
0010
0100
0010
0100
0000
,
1000
0000
0100
1000
0100
1000
0100
0000
0001
0000
0100
0001
0100
0001
0100
0000
,
1000
0000
0010
0100
0010
0100
0010
0100
0000
0000
0010
0100
0010
0100
0010
0000
,
0200
0000
0300
0020
2030
0000
3200
0000
2300
0000
3200
0000
0320
0000
0032
0000
,
0023
0000
0032
0000
0003
0000
0020
0000
0230
0000
0300
0002
0023
0000
0230
0000
,
0320
0000
0230
0000
0000
0000
2300
0000
3020
0000
0030
2000
3200
0000
0302
0000
,
2003
3200
0320
0032
2003
3200
0000
0000
,
0320
0000
0030
0200
0302
0000
0023
0000
0230
0000
0320
0000
2030
0000
3200
0000
,
0320
0000
0032
0000
0000
0000
2003
0000
3200
0000
0300
0002
0023
0000
0230
0000
,
2300
0000
3200
0000
0000
0000
0320
0000
0230
0000
0300
0200
2300
0000
3002
0000
,
2003
0000
3200
0000
0320
0000
0032
0000
0023
0000
0032
0000
2000
0000
0000
3003
,
0000
0100
0010
0001
0020
0000
0002
0033
,
0000
0010
1000
1000
0010
0100
0001
1010
,
M0M0
0100
0100
1000
0200
0000
0020
0330
,
0001
0000
1000
0000
0002
0000
0000
0003
1000
0000
0010
0000
2000
0000
0000
3000
,
0000
0001
0001
0100
0020
0000
0200
0330
,
0000
0100
0100
0010
0001
1000
0010
0110
,
0MM0
0001
1000
0100
2000
0000
0200
3300
,
0001
0000
0010
0000
0002
0000
0000
0000
0013
0000
0100
0000
2000
0000
0000
3000
,
0000
1000
1000
0010
0200
0000
0002
0303
,
0000
0010
0010
1000
0100
0010
0100
0011
,
00MM
0100
0100
1000
0020
0000
2000
3030
,
0000
0001
0001
0100
0010
1000
0100
1100
,
MM00
0010
0001
0010
0200
0000
2000
3300
,
0000
0001
0001
0100
0010
0001
0010
1010
,
M0M0
0100
0100
0010
0200
0000
0002
0303
,
0000
0000
0100
0000
1M0M
0000
M0M0
0000
0000
0000
1000
0M00
M0M1
0000
000M
0000
,
2000
0000
0000
0000
3020
0000
0000
0000
0230
0000
0000
0301
1000
0000
0100
0000
,
0020
0000
0000
0000
0032
0000
0000
0000
0023
0000
0000
1030
0100
0000
0010
0000
,
0200
0000
0000
0000
0320
0000
0000
0000
0032
0000
0000
0103
0010
0000
0100
0000
,
0020
0000
0000
0000
0230
0000
0000
0000
2300
0000
0000
3010
0100
0000
0010
0000
,
2000
0000
0000
0000
3200
0000
0000
0000
0320
0000
0000
0031
1000
0000
0010
0000
,
0020
0000
0000
0000
0230
0000
0000
0000
0320
0000
0000
1030
0100
0000
0010
0000
,
0200
0000
0000
0000
0320
0000
0000
0000
0032
0000
0000
1003
0010
0000
0100
0000
,
0020
0000
0230
0000
2300
0000
3020
1030
,
2020
0000
0000
0000
,
0000
0000
0000
0000
0000
3030
0000
0000
;

//---------------dance-single - E. Holniker----------------
#NOTES:
     dance-single:
     E. Holniker:
     Challenge:
     14:
     1.000,1.000,0.456,1.000,1.000,1021.000,62.000,253.000,25.000,3.000:




0000
0000
0000
0000
,
0000
0000
0000
0000
,
2000
0000
3020
0000
2030
0000
3020
0000
0230
0000
0302
0000
0203
0000
0310
1000
,
0200
0000
0302
0000
0023
0000
0031
0100
0020
0000
0230
0000
2300
0000
0000
0000
,
3020
0230
0320
2030
3200
0320
0230
0302
,
0203
0000
0320
0000
0230
0000
2300
0000
3020
0000
0130
0010
0001
0010
1000
0100
,
0020
0000
0032
0000
0203
0000
2300
0000
3020
0000
0031
0100
1000
0010
0100
0010
,
0002
0000
0023
0000
2030
0000
3200
0000
0320
0000
0130
0000
0001
0100
0010
0100
,
2000
3000
0010
1000
0020
0030
0100
0010
0002
0003
0010
1000
0100
0010
0100
0010
,
0200
0300
1000
0100
0020
0030
0100
0001
0200
0300
0010
0100
1000
0010
0100
0010
,
0002
0003
0010
0100
0020
0030
1000
0100
0020
0030
0100
0001
0100
0010
0001
1000
,
0020
0030
0100
0010
0002
0003
0010
1000
0200
0300
0010
0100
1000
0010
0100
0010
,
0002
0003
0010
1000
0200
0300
0010
0100
0020
0030
0100
1000
0010
0100
0010
0001
,
0020
0030
1000
0100
0020
0030
0100
1000
0200
0300
0010
0100
0001
0100
0010
0100
,
2000
3000
0010
0100
0010
0001
0010
0100
0020
0030
1000
0100
0010
0100
0010
0100
,
0002
0003
0100
0001
0200
0300
1000
0010
2000
3000
0010
0100
0000
0100
0002
0000
,
1003
0100
0010
0100
0001
0100
0010
0100
1000
0010
0100
0010
0001
0010
0002
0000
,
0103
1000
0100
0010
0100
0001
0100
0010
0100
1000
0010
0100
0010
0001
0020
0000
,
0130
0010
1000
0100
0010
0100
0001
0100
0010
0100
1000
0010
1000
0010
0200
0000
,
0310
0001
0010
0100
0010
1000
0010
0100
0010
0001
0010
0100
0010
1000
0200
0000
,
0310
0100
0001
0100
1000
0010
1000
0010
0100
0010
0001
0010
0100
0010
2000
0000
,
3100
0010
0100
0001
0100
0010
0100
1000
0010
0100
0010
0001
0010
0100
0002
0000
,
1003
0100
0010
0100
1000
0100
0010
0100
0001
0100
0010
0100
0001
0100
0020
0030
,
1000
0100
0010
0100
0010
0001
0010
0100
0010
1000
0010
0100
0010
0001
0020
0000
,
2030
0000
3200
0000
0320
0000
0031
0010
0100
0010
0100
1000
0020
0000
0230
0000
,
0320
0000
0032
0000
0023
0000
1030
0100
0010
0100
0001
0100
0010
0100
2000
0000
,
3020
0230
0302
0203
0320
2030
3200
0320
,
2030
3020
0230
0302
2003
3200
0320
0230
,
0302
0000
0203
0000
2300
0000
3020
0000
0130
0010
0001
0010
1000
0100
0010
0100
,
0002
0203
0320
0230
2300
3020
0230
0320
,
0032
0000
0023
0000
2030
0000
3200
0000
0310
0100
0010
0100
0020
0000
0230
0000
,
1300
0100
1000
0100
0001
0010
0001
0010
0100
0010
0100
0010
0100
1000
0010
1000
,
0020
0000
0130
0000
0001
000M
0002
0000
0023
0000
2030
0000
3200
0000
0320
0000
,
0130
0000
1000
M000
2000
0000
3020
0000
0230
0000
0302
0000
2003
0000
3200
0000
,
0310
0000
0100
0M00
0200
0000
2300
0000
3002
0000
0203
0000
0320
0000
0032
0000
,
0013
0000
0001
000M
0002
0000
2003
0000
3002
0000
0023
0000
2030
0000
0200
3000
,
0310
0000
0001
000M
0002
0000
0023
0000
0230
0000
2300
0000
3020
0000
0130
0000
,
1000
M000
2000
0000
3002
0000
0203
0000
0320
0000
2030
0000
3100
0000
0010
00M0
,
0020
0230
2300
3020
0230
0320
0032
0023
,
1030
0100
2000
3000
0001
0010
0002
0003
0010
0100
0010
0100
1000
0010
0100
0010
,
0022
0033
0001
0010
0100
0000
0010
0100
0010
1000
0100
0010
0001
0000
0100
0000
,
2200
3300
0100
0010
0001
0000
0010
0100
0010
0100
1000
0010
0100
0000
0010
0000
,
0220
0330
1000
0100
0010
0000
0001
0010
0100
1000
0010
0100
0010
0000
0001
0000
,
0022
0033
0010
1000
0100
0000
0010
0100
0001
0100
1000
0100
0010
0000
0100
0000
,
2020
3030
0001
0100
0010
0000
0100
0010
1000
0010
0100
0010
0001
0000
0010
0000
,
0220
0330
1000
0100
0010
0000
0100
0010
0100
1000
0010
0100
0010
0000
1000
0000
,
2020
3030
0001
0100
0010
1000
0100
0010
0110
0000
0100
1000
0100
1000
0100
1000
,
2200
3300
0001
0010
0110
0000
0100
0010
1100
0000
0010
0100
0110
0010
1000
0100
,
0000
0010
0100
0000
2000
0000
3200
0000
2300
0000
0000
0000
0200
0000
0000
0000
,
0000
3300
0002
0000
0023
0000
0230
0000
0320
0000
0130
1000
0020
0000
0230
0300
,
0022
0033
0020
0030
0220
0000
0000
0330
2000
0000
3200
0000
0320
0000
0032
0000
,
0223
0330
2000
3000
2200
0000
3301
0000
0010
0000
0100
0000
0100
0000
0010
0000
,
0010
0100
0011
0000
1000
0100
0010
0100
,
2200
3300
0200
0300
0202
0303
0000
0000
0220
0330
0020
0030
2020
3030
0000
0000
,
0101
1100
0110
0101
0110
1010
0220
0330
,
0101
0000
0110
0000
1100
0000
0110
0000
0110
0000
1100
0000
2002
0000
0000
3003
,
1000
0000
0100
1000
0100
0001
0100
0001
0100
1000
0100
0010
0100
0010
0100
1000
,
0010
0000
0001
0010
0001
0100
1000
0100
0010
0100
0010
1000
0001
1000
0010
0001
,
0010
0000
0010
0100
0010
1000
0100
1000
0001
0010
0001
0100
0010
0100
0001
1000
,
0010
0000
0010
0100
0010
0001
0010
0001
1000
0100
0010
1000
0010
1000
0100
0001
,
0010
0000
1000
0100
1000
0100
0010
0100
0001
0100
0010
0100
0010
0100
1000
0100
,
0001
0010
0001
0010
0001
0010
0100
0010
1000
0100
0010
0100
0001
0100
0010
0100
,
1000
0010
0100
0010
0001
0010
0100
0010
1000
0100
0010
0100
0001
0100
0010
0100
,
1000
0010
0100
0010
0001
0010
0100
2000
0000
0000
0000
0000
0200
0000
0000
3300
,
2000
0000
0000
3100
0010
0000
0010
0000
0002
0000
0023
0000
0230
0000
0320
0000
,
0230
0000
2300
0000
0000
0000
3020
0000
0230
0000
0300
0010
2000
0000
3020
0000
,
0230
0000
0302
0000
0003
0000
0020
0000
2030
0000
3000
0100
2000
0000
3020
0000
,
0032
0000
0013
0100
1000
0010
0100
0010
0001
0010
0100
0010
1000
0100
0020
0000
,
0230
0000
0300
0002
0203
0000
2300
0000
3020
0000
0230
0000
0302
0000
2003
0000
,
3020
0000
0230
0000
0000
0000
2300
0000
3002
0000
0003
0020
2030
0000
3200
0000
,
0320
0000
0032
0000
0000
0023
0000
0000
0230
0000
0000
2300
3020
0000
0032
0000
,
0103
0010
1000
0010
0001
0010
0100
0010
1000
0100
0010
0100
0001
0100
0010
0100
,
1000
0000
0010
0100
0010
0000
0001
0010
1000
0000
0100
0010
0100
0001
0100
0000
,
0110
0000
0100
1000
0010
0000
0100
0010
0001
0010
1000
0100
0010
0100
0010
0000
,
1100
0000
0100
0010
0001
0000
0010
0100
1000
0010
0100
0010
0001
0010
0100
0000
,
0110
0000
1000
0100
0010
0001
0010
0100
0010
0100
1000
0010
0100
0000
0010
0000
,
0110
0000
1000
0100
0010
0000
0001
0010
0100
1000
0010
0100
0010
0001
0010
0000
,
0110
0000
0100
1000
0100
0000
0010
0100
0001
0100
0010
0100
1000
0010
0100
0000
,
0110
0000
0010
1000
0100
0010
0100
0000
1100
0000
0001
0010
0100
0010
0100
0000
,
0110
0010
1010
0000
0101
0010
0110
0000
,
0000
1000
0100
0010
0001
0000
0010
0000
,
0000
0000
0100
0000
1000
0000
0010
0000
0100
0000
0010
0001
0010
0000
1000
0000
,
1100
0100
0110
0000
0001
0000
1000
0000
,
0000
0000
0010
0000
1000
0000
0100
0000
1100
0000
0100
0010
0100
0001
0100
0010
,
0100
1000
0100
0000
0110
0000
0000
0000
0110
0000
0100
0000
1010
0000
0000
0000
,
0101
0010
1100
0100
0110
0100
0101
0010
,
1000
0010
0100
0010
0001
0000
0010
0000
1000
0100
0010
0100
0001
0000
0100
0000
,
1000
0100
1000
0100
0010
0100
0010
0100
0001
0100
0001
0100
1000
0010
1000
0000
,
1010
0000
0000
0000
0100
0000
0000
0000
0100
0000
0000
0100
1000
0000
0010
0000
,
0110
0000
0000
0000
0001
0000
0000
0000
1000
0000
0000
0110
1000
0000
0100
0000
,
0110
0000
0000
0000
0001
0000
0000
0000
1000
0000
0000
1000
0100
0000
0010
0000
,
0101
0000
0000
0000
0010
0000
0000
0000
0100
0000
0000
0100
1000
0000
0001
0000
,
1000
0000
0010
1000
0010
1000
0010
1000
0010
1000
0010
1000
0010
0000
1000
0000
,
1000
0000
0001
0100
0001
0100
0001
0100
0001
0100
0001
0100
0001
0000
0100
0000
,
0100
0000
0010
0100
0010
0100
0010
0100
0010
0100
0010
0100
0010
0000
1000
0000
,
1000
0100
1000
0100
1000
0000
0001
0000
0001
0010
0001
0010
0100
0000
0010
0000
,
1112
0000
0000
0000
0000
0000
0000
0000
MMM0
0000
0000
0000
0000
0000
0000
0000
0000
0000
M0M0
M0M0
M0M0
0000
0000
0000
0000
0000
0000
0000
M0M0
M0M0
MMM0
0M00
,
0M00
0003
0000
0000
0000
0000
0000
0000
;

//---------------dance-single - E. Holniker----------------
#NOTES:
     dance-single:
     E. Holniker:
     Medium:
     9:
     0.642,0.637,0.235,0.015,0.283,577.000,32.000,2.000,22.000,0.000:



0000
0000
0000
0000
,
0000
0000
0000
0000
,
1000
0000
0010
1000
0010
1000
0010
0000
,
0100
0000
0001
0100
0001
0100
0001
0000
,
1000
0100
0010
0100
0001
0000
0001
0000
,
0100
1000
0010
0100
0010
0000
0100
0000
,
1000
0100
0010
0100
0001
0000
0100
0000
,
0100
1000
0010
0100
0010
0100
0100
0000
,
1000
0001
1000
0000
0010
1000
0010
0000
,
0100
0001
0100
1000
0100
0000
1100
0000
,
0010
0100
0010
0000
0001
0010
1000
0000
,
0100
0010
0100
1000
0100
0000
1100
0000
,
0001
0010
0001
0010
0100
0000
1010
0000
,
0010
0100
0010
0001
0010
0000
1010
0000
,
1000
0100
0010
0000
0100
0001
0100
0000
,
1000
0000
0010
1000
0010
0000
0100
0000
0001
0000
0100
0001
0100
0000
0000
0000
,
0100
0010
1000
0100
0010
0100
1100
0000
,
0001
0100
0010
0001
0010
1000
1010
0000
,
0010
0100
0010
0001
0010
0100
0010
0100
,
1000
0100
0010
0100
0001
0100
1100
0000
,
0010
0100
0010
0001
0010
0100
0010
0100
,
1000
0100
0010
0100
1000
0100
1100
0000
,
0001
0100
0010
0100
1000
0100
0110
0000
,
1100
1010
0110
0011
,
1000
0100
1000
0100
0010
0001
0010
0001
,
0010
0100
0010
0100
1000
0000
1000
0000
,
0001
0100
0010
0100
0010
0001
0010
0001
,
0010
1000
0010
1000
0100
0000
0100
0000
,
1000
0100
1000
0100
0010
0100
0010
0100
,
0001
0100
0001
0100
0001
0000
0001
0000
,
0010
1000
0100
1000
0100
0000
0010
0000
,
0001
1000
0001
0000
1000
0010
1000
0000
,
0001
1000
0100
0010
,
0001
0000
0010
0000
0100
0000
1000
0010
,
0100
0001
1000
0100
,
0001
0000
0010
0000
0100
0000
0010
0100
,
0010
0001
1000
0010
,
0001
0000
0010
0000
0100
0000
1000
0010
,
0001
0100
1000
0010
,
0100
1000
0100
1000
0100
1000
0100
0000
,
1100
0000
0000
0100
0010
0000
0000
0010
0001
0000
0000
0001
0010
0000
0000
0000
,
0110
0000
0000
0100
1000
0000
0000
1000
0010
0000
0000
0010
0100
0000
0000
0000
,
0101
0110
0101
1010
,
1100
0110
0101
0101
,
1010
0000
0000
1000
0010
0000
0000
0010
0100
0000
0000
0100
0001
0000
0000
0000
,
1100
0000
0000
0100
0010
0000
0000
0010
0100
0000
0000
0100
1000
0000
0000
0000
,
1010
0000
0000
0001
0100
0000
0000
0100
0010
0000
0000
0010
1000
0000
0000
1000
,
0100
0000
0000
0100
0010
0000
0000
0010
0100
0000
0000
0100
0001
0000
0MMM
0000
,
0000
0000
0010
1000
0000
0000
0000
1000
0001
0000
0000
0001
0100
0000
0000
MM0M
,
0000
0000
1000
0100
0000
0000
0000
0100
0010
0000
0000
0010
0001
0000
0000
M0MM
,
0000
0000
0010
0100
0000
0000
0000
0100
1000
0000
0000
1000
0100
0000
0000
MMMM
,
0000
0000
0100
0010
0000
0000
0000
0010
1000
0000
0000
1000
0001
0000
0000
0MMM
,
0000
0000
1000
0100
0000
0000
0000
0100
0001
0000
0000
0001
0100
0000
0000
MMM0
,
0000
0000
0100
1000
0000
0000
0000
1000
0100
0000
0000
0100
0010
0000
0000
M0MM
,
0000
0000
1000
0100
0000
0000
0000
0100
0010
0000
0000
0010
0100
0000
0000
0100
,
0010
0000
0100
1000
0010
0100
1000
0000
,
1000
0000
0010
0000
0100
0000
0001
1000
,
0100
0001
0100
0000
0010
0000
0100
0000
,
1000
0000
0010
0000
0100
0000
0010
0001
,
0010
1000
0100
0000
0010
0000
0001
0000
,
1000
0010
1000
0000
0001
0100
0001
0000
,
0100
0010
0100
0000
1000
0100
1000
0000
,
1000
0100
0010
0001
0010
0100
0010
0100
,
1000
0010
0100
0010
0001
0000
0001
0000
,
1000
0000
0100
0000
1000
0100
1000
0000
,
0001
0000
0010
0000
0100
0010
0100
0000
,
1000
0010
0000
0100
0001
0000
1000
0000
,
0100
0010
0100
0001
0100
0010
0000
0000
,
0100
1000
0000
0010
0100
0000
0010
0000
,
0001
0010
0000
1000
0100
0000
0010
0000
,
0100
0001
0000
0100
1000
0000
0010
0000
,
1000
0100
0010
0100
0001
0100
0010
0100
,
1100
0000
0000
0100
1000
0000
0000
1000
0100
0000
0000
0100
0010
0000
0000
0000
,
0110
0000
0000
0100
1000
0000
0000
1000
0100
0000
0000
0100
1000
0000
0000
0000
,
0110
0000
0000
0100
0010
0000
0000
0010
0001
0000
0000
0001
1000
0000
0000
0000
,
1100
0000
0000
0010
0100
0000
0000
0100
1000
0000
0000
1000
0100
0000
0000
0100
,
1000
0000
0000
1000
0100
0000
0000
0100
0010
0000
0000
0010
0001
0000
0000
0001
,
0010
0000
0000
0010
0100
0000
0000
0100
1000
0000
0000
1000
0010
0000
0000
0000
,
0100
0000
0000
0100
1000
0000
0000
1000
0100
0000
0000
0100
1000
0000
0000
0000
,
0100
0010
0100
0000
1000
0100
1000
0000
,
0000
0001
0010
0100
1000
0000
0010
0000
,
0000
0100
1000
0100
0010
0001
0010
0100
,
0000
0100
1000
0100
0010
0000
0100
0000
,
0000
0001
0100
1000
0010
0100
0010
0001
,
0000
0010
1000
0100
0010
0000
0100
0000
,
0000
1000
0001
0100
0010
0001
0010
0001
,
0000
0001
0001
1000
0001
0000
1000
0000
,
0000
0100
1000
0000
1000
0000
0100
0000
,
1000
0000
0000
0000
0100
0000
0000
0000
0010
0000
0000
0100
0001
0000
0100
0000
,
1000
0000
0000
0000
0010
0000
0100
0000
0000
0000
0000
0100
1000
0000
0100
0000
,
0010
0000
0000
0000
1000
0000
0000
0000
0100
0000
0000
0010
0100
0000
0001
0000
,
0100
0000
0000
0000
0010
0000
0000
0000
0100
0000
0000
1000
0010
0000
0100
0000
,
0010
0001
0010
1000
0100
0000
1100
0000
,
0001
0000
0010
0000
0100
0000
0010
0000
0100
0000
1000
0000
0000
0010
0000
0000
,
0100
0010
0001
0000
0001
0010
1000
0000
,
1000
0010
0001
0000
0001
0010
0100
0000
,
2002
0000
0000
3003
0000
0000
0000
0000
0000
0000
0000
0000
0000
0000
0000
0000
;

//---------------dance-single - E. Holniker----------------
#NOTES:
     dance-single:
     E. Holniker:
     Easy:
     5:
     0.499,0.741,0.787,0.000,0.000,368.000,107.000,0.000,0.000,0.000:

0000
0000
0000
0000
,
0000
0000
0000
0000
,
0000
0000
0000
0000
,
0000
0000
0000
0000
,
1000
0000
0100
0000
0010
0000
0001
0010
,
0001
0010
0100
0000
,
1000
0000
0010
0000
0100
0000
1000
0100
,
1000
0100
1100
0000
,
0100
0000
0010
0000
0001
0000
0010
1000
,
0100
0010
0110
0000
,
0010
0000
0100
0000
0010
0000
0001
0010
,
0001
0011
0110
0000
,
1000
0000
0100
0000
0010
0000
0100
1000
,
0010
1010
0110
0000
,
1000
0100
0010
0001
,
0010
0001
0010
0000
0100
1000
0100
0000
,
1000
0010
0100
0010
,
0100
0010
0100
0000
0010
1000
0010
0000
,
0100
0001
0100
1000
,
0100
1000
0100
0000
0010
0001
0010
0000
,
0100
0010
0100
1000
,
0010
0100
0010
0000
0001
0010
0001
0000
,
1000
0100
1000
0000
0010
0100
0010
0000
,
0100
0000
1000
0000
0001
1000
0001
0000
,
1000
0010
1000
0010
,
0100
0001
0100
0001
,
0100
1000
0100
1000
,
0010
0100
0010
0000
,
1000
0100
1000
0100
,
0010
0100
0010
0100
,
0001
0100
0001
0100
,
1000
0100
0010
0100
,
0001
0000
0100
0000
1000
0000
0010
1000
,
0010
0000
0100
0000
0001
0000
1000
0100
,
1000
0001
0010
0100
,
1000
0000
0010
0000
0100
0000
0010
0001
,
0010
0100
1010
0000
,
1000
0100
0110
0000
,
0010
0001
0011
0110
,
1010
0110
1010
0101
,
1000
0100
1000
1100
,
0110
0010
0001
0110
,
1100
0010
0100
0110
,
0011
1100
0110
0110
,
1010
0100
0001
1100
,
0110
1000
0100
0101
,
0110
0010
0100
0011
,
1100
0110
1010
0110
,
0000
0100
1000
0010
,
0000
0100
0001
0100
,
0000
1000
0100
1000
,
0000
0001
0010
0001
,
0000
0000
1000
0100
1000
0000
0100
0000
,
0000
0000
0010
0001
0010
0000
0001
0000
,
0000
1000
0100
1000
,
0000
0100
0010
0000
0000
0010
0100
0000
,
1000
1100
0110
0101
,
0110
1010
0110
0011
,
1100
0110
1010
0110
,
0011
1100
1010
1001
,
0110
0011
1100
0110
,
1010
0110
0011
1100
,
0110
0101
0110
0000
1010
0110
0110
0000
,
1010
0110
0011
1100
,
1000
0100
1000
0001
,
0010
0100
0110
1010
,
0001
0100
0010
1000
,
1000
0100
1000
0100
1000
0100
0000
0000
,
1001
1010
0110
0011
,
1100
0110
1010
0110
,
0110
0011
0011
0000
1100
1100
0110
0000
,
0011
0110
1010
0110
,
1000
0100
1000
0100
,
0010
0001
0010
0001
,
0010
0100
0010
0000
0100
1000
0100
0000
,
1000
0001
1000
0001
1000
0000
1001
0000
,
0010
1000
0010
0000
0100
0010
0100
0000
,
0010
0001
0010
0001
0010
0000
0011
0000
,
0100
1000
0100
0000
0010
0100
0010
0000
,
0100
1000
0100
0000
1000
0001
1000
0000
,
0000
0001
1000
0010
,
0000
0100
1000
0010
,
0000
0100
0001
0010
,
0000
0100
1000
0010
,
0000
1000
0100
1000
,
0000
0010
0100
0010
,
0000
0001
0010
0001
,
1100
0110
0101
1010
,
0110
0000
0000
0000
,
1001
0000
0000
0000
,
1010
0000
0000
0000
,
1100
0110
0101
0000
,
0110
0000
0000
0000
,
1001
0000
0000
0000
,
1010
0110
0011
0110
,
1100
0000
0110
0000
,
1001
0000
0000
0000
;

//---------------dance-single - E. Holniker----------------
#NOTES:
     dance-single:
     E. Holniker:
     Beginner:
     1:
     0.203,0.353,0.177,0.000,0.000,169.000,24.000,0.000,0.000,0.000:

0000
0000
0000
0000
,
0000
0000
0000
0000
,
0000
0000
0000
0000
,
0000
0000
0000
0000
,
1000
0000
1000
0000
,
0010
0000
0010
0000
,
0100
0000
0100
0000
,
1000
0100
1000
0000
,
0001
0000
0010
0000
,
0100
0000
1000
0000
,
0010
0000
0100
0000
,
0010
0000
0100
0000
,
1000
0000
0001
0000
,
1000
0000
0010
0000
,
0100
0000
0001
0000
,
0100
0000
1000
0000
,
1000
0000
1000
0000
,
1000
0000
1000
0000
,
0010
0000
0010
0000
,
0010
0000
0010
0000
,
0001
0000
0001
0000
,
0001
0000
0001
0000
,
0100
0000
0100
0000
,
0100
0000
0100
0000
,
1000
0000
0100
0000
,
0010
0000
0001
0000
,
0001
0000
0010
0000
,
0100
0000
1000
0000
,
1000
0100
1000
0000
,
1000
0000
0010
0000
,
0001
0010
0001
0000
,
0010
0000
0100
0000
,
1000
0000
0100
0000
,
0010
0000
0001
0000
,
1000
0000
0010
0000
,
0100
0000
0001
0000
,
1000
0000
1000
0000
,
1000
0000
0000
0000
,
0001
0000
0001
0000
,
0010
0000
0000
0000
,
1000
0000
0100
0000
,
1000
0000
1100
0000
,
0001
0000
0010
0000
,
0100
0000
0110
0000
,
1000
0000
0010
0000
,
0001
0000
0101
0000
,
1000
0000
0100
0000
,
1000
0000
0010
0000
,
0000
0000
0001
0000
,
0000
0000
1000
0000
,
0000
0000
0010
0000
,
0000
0000
0100
0000
,
0000
0000
1000
0000
,
0000
0000
0010
0000
,
0000
0000
0001
0000
,
1000
0000
0001
0000
,
1001
0000
1001
0000
,
1010
0000
1010
0000
,
0101
0000
0101
0000
,
0110
0000
0110
0000
,
1001
0000
1001
0000
,
1010
0000
1010
0000
,
0101
0000
0101
0000
,
0110
0000
0110
0000
,
1000
0000
1000
0000
,
0010
0000
0010
0000
,
0001
0000
0001
0000
,
0100
0000
0100
0000
,
1000
0000
0010
0000
,
0001
0000
0100
0000
,
0010
0000
1000
0000
,
0100
0000
0001
0000
,
1000
0000
0000
0000
,
1000
0000
0000
0000
,
0001
0000
0000
0000
,
0001
0000
0000
0000
,
0010
0000
0000
0000
,
0010
0000
0000
0000
,
0100
0000
0000
0000
,
0100
0000
0000
0000
,
1000
0010
1000
0000
,
0001
0100
0001
0000
,
1000
0100
1000
0000
,
0010
1000
0010
0000
,
0001
0100
0001
0000
,
1000
0100
1000
0000
,
0010
0000
1000
0000
,
0100
0000
0001
0000
,
0101
0000
0000
0000
,
1000
0000
0000
0000
,
1010
0000
0000
0000
,
0100
0000
0000
0000
,
0110
0000
0000
0000
,
0001
0000
0000
0000
,
0011
0000
0000
0000
,
1000
0000
0000
0000
,
1001
0000
0000
0000
;
