#TITLE:Analog System;
#SUBTITLE:;
#ARTIST:Saikuya;
#TITLETRANSLIT:;
#SUBTITLETRANSLIT:;
#ARTISTTRANSLIT:;
#CREDIT:;
#BANNER:Analog System-banner.png.bmp;
#BACKGROUND:Analog System-bg.png.bmp;
#LYRICSPATH:;
#CDTITLE:;
#MUSIC:Analog System.mp3;
#OFFSET:0.000;
#SAMPLESTART:100.000;
#SAMPLELENGTH:12.000;
#SELECTABLE:YES;
#BPMS:0.000=140.000,48.000=280.001,112.000=140.000,204.000=280.001,268.000=140.000;
#STOPS:139.500=1.740
;
#BGCHANGES:0.000=Analog System-bg.png.bmp=1.000=0=0=1,
99999=-nosongbg-=1.000=0=0=0 // don't automatically add -songbackground-
;
// cache tags:
#FIRSTBEAT:0.000;
#LASTBEAT:332.000;
#SONGFILENAME:Songs/StepMix 2/Analog System/Analog System.sm;
#HASMUSIC:1;
#HASBANNER:1;
#MUSICLENGTH:121.756;
// end cache tags

//---------------dance-single - ----------------
#NOTES:
     dance-single:
     :
     Easy:
     5:
     0.320,0.579,0.230,0.238,0.029,216.000,28.000,29.000,0.000,0.000:
1000
0100
0000
0000
0000
0000
0000
0000
,
0100
0100
0010
0010
,
0001
0010
0000
0000
0000
0000
0000
0000
,
0001
0001
1000
1000
,
0100
0010
0000
0000
0000
1000
0000
0000
,
0000
0010
0000
0000
0000
1000
0000
0000
,
0000
0001
0000
0000
0000
0100
0000
0000
,
0000
0010
0000
0000
0000
0100
0000
0000
,
1000
0100
0010
0000
0000
0000
0000
0000
,
0010
0001
0010
0001
,
0001
0010
0100
0000
0000
0000
0000
0000
,
0100
0000
0000
1000
0000
0000
0100
0000
0000
2000
0000
3000
,
0010
0000
0001
0000
,
0010
0000
0001
0000
,
1000
0000
0100
0000
,
0010
0000
0001
0000
,
1000
0000
0100
0000
,
1000
0000
0100
0000
,
0001
0000
0010
0000
,
0100
0000
1000
0000
,
0010
0000
0010
0000
,
0100
0000
0100
0000
,
1000
0000
0001
0000
,
1000
0000
0001
0000
,
1000
1000
0000
0000
,
0001
0001
0000
0000
,
1000
0000
0010
0000
,
0200
0000
0000
0300
,
0000
0010
0000
0100
0000
0010
0000
0000
0000
0000
0000
0000
0000
0000
0000
0000
,
0000
1000
0000
0001
0000
1000
0000
0000
0000
0000
0000
0000
0000
0000
0000
0000
,
0000
0000
0001
0000
0100
0000
0000
0000
0000
0010
0000
0000
0000
0000
0001
0000
,
0000
0000
0000
0000
,
0100
0000
0100
0002
0003
0000
0010
0000
,
0010
0200
0300
0000
1000
0000
0202
0303
,
1000
0000
0100
2000
3010
0000
0202
0303
,
2000
0000
0000
3000
0000
0000
0000
0000
0000
0000
0000
0000
0000
0000
0000
0000
2000
0000
0000
3000
0000
0000
0000
0000
0000
0000
0000
0000
0000
0000
0000
0000
2000
0000
0000
3000
0000
0000
0000
0000
0000
0000
0000
0000
0000
0000
0000
0000
0000
0000
0000
0000
0000
0000
0000
0000
0011
0000
0000
0000
0000
0000
0000
0000
,
0000
0000
0000
0000
0000
1000
0100
0000
,
0002
0000
0000
0003
0000
0000
0000
0000
0000
0000
0000
0000
0000
0000
0000
0000
0002
0000
0000
0003
0000
0000
0000
0000
0000
0000
0000
0000
0000
0000
0000
0000
0002
0000
0000
0003
0000
0000
0000
0000
0000
0000
0000
0000
0000
0000
0000
0000
0000
0000
0000
0000
0000
0000
0000
0000
1100
0000
0000
0000
0000
0000
0000
0000
,
0000
0000
0000
0000
0000
0010
0001
1000
,
0020
0030
0000
0000
0020
0030
0000
0000
0020
0030
0000
0000
0000
0000
1001
0000
,
0000
0000
0000
0110
,
0200
0000
0000
0000
0000
0300
0000
0000
0000
0000
0000
0000
0000
0000
0000
0000
0200
0000
0000
0000
0000
0300
0000
0000
0000
0000
0000
0000
0000
0000
0000
0000
0200
0000
0000
0000
0000
0000
0000
0000
0000
0000
0000
0000
0000
0000
0000
0000
0000
0000
0000
0000
0000
0000
0000
0300
0010
0000
0000
0000
0000
0000
0000
0000
,
0001
0010
0000
0000
0010
0000
0100
0000
,
0001
0110
0000
0110
,
1000
0110
0000
0110
,
0100
0101
0000
0101
,
0010
1010
0000
1010
,
1000
0011
0000
1100
,
0100
0011
0000
1100
,
0010
0011
0000
1100
,
0002
0000
0020
0000
0000
0000
0000
0033
,
0100
0000
0000
0001
,
0010
0000
0010
0000
,
0001
0000
0000
1000
,
0100
0000
0100
1000
,
0010
0000
0000
0100
,
0010
0000
0010
0000
,
0100
0000
0000
0010
,
0100
0000
0100
0010
,
1000
0000
0000
0100
,
0001
0000
0001
0000
,
0001
0010
0100
1000
,
0200
0000
0000
0300
,
0010
0000
0000
0100
,
0001
0000
0001
0000
,
0100
0000
0000
0000
,
0000
0000
0000
0000
,
0000
0100
0000
0100
0000
0010
0000
0010
,
0000
1000
0000
1000
0000
0010
0100
0010
,
0000
1000
0000
1000
0000
0001
0000
0001
,
0000
0100
0000
0100
0000
0001
0010
0001
,
0000
1000
0000
1000
0000
0010
0000
0010
,
0000
0100
0000
0100
0000
0001
0010
0001
,
0000
1000
0000
1000
0000
0100
0000
0100
,
0000
0020
0000
0000
0000
0000
0000
0030
,
0100
0000
0011
0000
,
0001
0000
1100
0000
,
0100
0000
0110
0000
,
2002
0000
0000
0000
0000
0000
0000
3003
,
0010
0000
1100
0000
,
0001
0000
0011
0000
,
0100
0000
1001
0000
,
0220
0000
0000
0000
,
0330
0000
0000
0000
;

//---------------dance-single - Copied from----------------
#NOTES:
     dance-single:
     Copied from:
     Beginner:
     3:
     0.252,0.375,0.131,0.279,0.000,165.000,16.000,34.000,0.000,0.000:
0200
0000
0300
0000
,
0200
0000
0300
0000
,
0200
0000
0300
0000
,
0100
0100
0010
0000
,
1000
0100
0000
0000
,
1000
0100
0000
0000
,
1000
0100
0000
0000
,
1000
0100
0010
0001
,
0000
0010
0010
0000
0000
0000
0000
0000
,
0000
0100
0100
0000
0000
0000
0000
0000
,
0000
0010
0010
0000
0000
0000
0000
0000
,
0220
0000
0000
0000
0000
0000
0000
0330
,
1000
0000
0001
0000
,
0000
0000
0010
0010
,
0000
0000
1001
0000
,
0000
0000
0000
0000
0000
0000
0220
0000
0030
0300
0000
0000
,
0000
0000
1100
0000
,
0000
0000
0100
0001
,
0000
0001
0000
0000
,
2002
0000
0000
0000
0000
0000
0000
3003
,
0010
0000
0000
0100
,
0010
0000
0000
0000
,
1000
0000
0001
0000
,
0002
0000
0000
0000
0000
0000
0000
0003
,
1000
0100
0000
0000
,
1000
0100
0000
0000
,
2000
0000
3200
0000
,
0320
0000
0000
0000
0000
0000
0000
0030
,
0001
0000
0000
0000
0000
0000
0000
0001
,
0001
0000
0000
0000
0000
0000
0000
1000
,
1000
0000
0000
0000
,
0100
0010
0100
0010
,
2000
0000
0000
0000
0000
0000
0000
0010
,
3000
0000
0000
0000
0000
0000
0000
0001
,
0000
0000
0000
0000
0000
0000
0000
0110
,
0000
0001
0000
0010
,
0000
0001
0000
0110
,
0000
0001
0000
1000
,
0000
0100
0010
0100
,
0000
1000
0000
0110
,
0000
0001
0000
0010
,
0000
0100
0000
1000
,
0000
0000
0100
0000
0002
0000
2003
3000
,
0100
0000
0100
0000
0200
0000
0000
0310
,
0001
0000
0001
0000
0002
0000
0000
0013
,
1000
0000
1000
0000
2000
0000
0000
3100
,
0010
0000
0010
0000
0020
0000
0000
0130
,
2002
0000
0000
0000
0000
0000
0000
3003
,
0000
0000
0000
0000
,
2002
0000
0000
0000
0000
0000
0000
3003
,
0010
0000
0000
0000
,
0100
0000
0100
0000
,
0001
0010
0000
0010
,
0001
0000
0001
0000
,
0100
1000
0000
1000
,
0100
0000
0010
0000
,
0001
0020
0000
0230
,
0000
0000
0000
0000
0000
0000
0000
0300
,
0000
0000
0000
0000
,
0000
0001
0000
0001
,
0000
1000
0000
1000
,
0000
0000
0000
0000
,
0000
0001
0000
0001
,
0000
1000
0000
1000
,
0000
0010
0000
0100
,
0000
0010
0000
0100
,
0000
0010
0000
0010
,
0000
1000
0000
1000
0000
0001
0000
0001
,
0000
0010
0000
0020
0000
0000
0000
0030
,
0000
0010
0000
0010
0000
0100
0000
0100
,
0000
0001
0000
0002
0000
0000
0000
0003
,
0000
0100
0000
0010
,
0000
0000
0100
0000
0000
0000
0020
0030
,
0000
0100
0000
1000
,
0000
0000
0100
0000
0001
0000
2002
3003
,
0000
0001
0000
0001
,
0000
1000
0000
1000
,
0110
0000
0110
0000
,
0001
0000
0001
0000
0002
0000
0000
0003
,
1000
0100
0100
0000
,
0001
0010
0010
0000
,
1001
0000
1001
0000
,
2002
0000
0000
0000
,
3003
0000
0000
0000
;

//---------------dance-single - Copied from----------------
#NOTES:
     dance-single:
     Copied from:
     Medium:
     7:
     0.530,0.682,0.526,0.304,0.107,348.000,64.000,37.000,0.000,3.000:
1000
1000
1000
0100
0100
0100
0100
0000
,
0001
0001
0001
0010
0010
0010
0010
0000
,
0110
0110
0110
0000
1001
1001
1001
0000
,
0020
0000
0032
0000
0203
0000
2300
3000
,
0000
0000
1000
0000
0000
0000
0100
0000
0000
0000
0020
0030
0000
0000
0002
0003
,
0000
0000
0001
0000
0000
0000
0010
0000
0000
0000
0200
0300
0000
0000
2000
3000
,
0000
0000
0010
0000
0000
0000
0100
0000
0000
0000
2000
3000
0000
0000
0002
0003
,
1000
0100
0010
0000
1000
0100
0010
0000
,
0000
0000
0001
0000
0000
1000
0000
0000
0100
0000
0000
0001
0000
0000
0020
0030
,
2000
3000
0002
0000
0023
0000
0230
0000
2300
0000
3000
0000
0000
0000
0000
0000
,
0000
0000
0100
0000
0000
0010
0000
0000
1000
0000
0000
1000
0000
0000
0200
0000
,
2300
3200
0320
0032
0003
0000
0000
0000
,
1000
0000
0010
0000
0010
0000
0000
0001
,
0010
0100
1000
0000
,
0100
0000
0010
0000
1000
0000
0000
0010
,
1000
0100
0010
0001
0020
0000
0000
0030
,
0000
0000
0011
0000
1100
0000
0000
0001
,
0010
1100
0011
0000
,
0000
0000
0110
0000
0011
0000
0000
0100
,
0001
1010
0101
0000
,
2000
0000
3110
0000
0101
0000
0000
1000
,
0100
0110
0101
0000
,
0000
0000
0011
0000
0101
0000
0000
0010
,
1000
1100
1010
0000
,
0000
0000
1001
0000
1001
0000
0000
0010
,
0100
1000
0001
0000
,
0000
0001
0010
0001
,
0010
0000
0100
0000
0020
0000
2000
3030
,
0000
0000
0000
0000
0000
0000
0000
0110
,
1001
0000
0000
0000
0010
0000
0000
0011
,
1001
0000
0100
0000
0010
0000
0000
1010
,
0100
0010
0100
0010
0001
0010
0000
1100
,
0220
0000
0000
0000
0000
0330
0000
1021
,
0000
0000
0000
0000
0000
0030
0000
0101
,
2000
0000
0000
0000
0000
3000
0000
1111
,
0100
0100
0011
0000
0011
0000
0010
0010
,
1100
0000
1100
0000
1000
1000
0110
0110
,
0000
0000
0000
0000
0000
0000
0000
0000
0000
0000
0000
0000
0010
0001
0010
0100
,
0000
0000
0000
0000
1000
0100
0010
0001
,
0000
0000
0000
0000
0000
0000
0001
0000
0000
0000
0010
0000
0100
0000
0000
0000
1000
0000
0100
0000
0000
0010
0000
0000
,
0000
0000
0000
0000
0000
0000
0000
0000
0000
0000
0000
0000
0010
0000
0100
0000
0010
0000
0001
0000
0000
0100
0000
0000
,
0000
0000
0000
0000
0000
0000
0000
0110
,
1000
0000
0100
0000
0000
0000
0000
0010
0000
0000
0001
0000
0000
0100
0010
0000
,
1000
0100
1000
0010
0100
0001
0010
0001
,
0010
0001
1000
0200
0000
0000
0000
0300
,
0001
0010
0001
0100
0010
1000
0100
1000
,
0100
1000
0001
0020
0000
0000
0000
0030
,
0000
1100
0000
0110
0000
1100
0000
0011
,
1000
0100
0001
0020
0000
0000
0000
0030
,
0000
0011
0000
1100
0000
0110
0000
1010
,
0001
0010
1000
0200
0000
0000
0000
0300
,
1000
0000
0100
0000
1000
0000
0000
0010
,
0001
0000
0010
0000
0001
0000
0000
0010
,
1000
0010
0100
0001
,
0010
1000
0100
1000
,
0010
0000
0100
0000
0010
0000
0000
1000
,
0100
0000
1000
0000
0100
0000
0000
0010
,
0001
0010
0001
0100
,
0010
1000
0100
0010
,
1000
0100
0010
0001
0000
0000
0000
0000
,
0001
0010
0100
1000
0000
0000
0000
0000
,
0010
0100
0010
0000
1000
0000
0010
0000
,
1000
0010
0100
0001
,
0010
0001
0010
0100
0000
0000
0000
0000
,
0100
0010
0100
1000
0000
0000
0000
0000
,
2002
0000
0000
0000
,
0000
0000
0000
0000
0000
0000
0000
3003
,
0000
0100
0000
0110
0000
0001
0000
0110
,
0000
0010
0000
0110
0000
1000
0000
0110
,
0000
0001
0000
0110
0000
0100
0000
0110
,
0000
1000
0000
0110
0001
1000
0000
0000
,
0000
0100
0000
1001
0000
0010
0000
1001
,
0000
0001
0000
1001
0000
1000
0000
1001
,
0000
0100
0000
1001
0000
0010
0000
1001
,
0000
1000
0000
1001
0100
0010
0000
0000
,
0000
0000
0001
0000
0100
0000
0000
0010
0000
0000
1000
0000
0000
0100
0000
0000
,
0000
0000
1000
0000
0000
0010
0000
0100
0000
0000
0010
0001
0000
0000
0010
0000
,
0000
0000
0100
0000
0000
0010
0000
0000
0001
0000
0000
0010
0000
0000
0100
0000
,
0000
0000
1000
0000
0000
0010
0000
0000
0002
0000
0200
0000
0000
0000
0303
0000
,
0000
0000
0010
0000
0000
0100
0000
0000
0010
0000
0000
1000
0000
0000
0001
0000
,
0000
0000
0010
0000
0000
0100
0000
0000
1000
0000
0001
0010
0000
0000
0001
0000
,
0000
0000
0010
0000
0000
1000
0000
0000
0010
0000
0000
0001
0000
0000
0010
0000
,
1000
1000
1000
1000
1000
0100
0100
0010
,
0001
0000
0000
0000
;

//---------------dance-single - Copied from----------------
#NOTES:
     dance-single:
     Copied from:
     Hard:
     9:
     0.733,0.715,0.608,0.402,0.304,500.000,74.000,49.000,0.000,1.000:
1000
0000
0000
0000
0100
0000
0010
0000
0000
0000
0000
0000
0010
0000
0000
0000
0001
0000
0010
0000
0000
0010
0000
0000
,
0100
0000
0000
0000
0010
0000
1000
0000
0000
0000
0000
0000
0100
0000
0000
0000
1000
0000
0100
0000
0000
0010
0000
0000
,
1000
0000
0000
0000
0100
0000
1000
0000
0000
0000
0000
0000
0100
0000
0000
0000
0010
0000
0001
0000
0000
0010
0000
0000
,
0001
0000
0000
0000
0010
0000
0100
0000
0000
0000
0000
0000
0010
0000
0000
0000
0100
0000
1000
0000
0000
0100
0000
0000
,
1000
0010
0000
0010
0100
0010
0001
0010
,
0100
0001
0000
0001
0010
0001
1000
0001
,
0010
1000
0000
1000
0001
1000
0010
1000
,
0010
0001
0010
0100
1000
0000
0011
0000
,
0000
0000
0010
0000
0000
0001
0000
0000
0010
0000
0000
0100
0000
0000
1001
0000
,
0000
0000
0100
0000
0000
0010
0000
0000
1000
0000
0000
0010
0001
0000
0110
0000
,
0000
0000
1000
0000
0000
0100
0000
0000
0010
0000
0000
0001
0000
0000
0011
0000
,
1000
0000
0100
0010
0001
0000
0010
0000
0020
0000
0000
0000
0000
0000
0030
0000
,
0100
1000
0100
0000
0000
0000
0010
0000
,
0001
1001
0110
0000
,
0001
0010
0001
0000
0000
0000
0010
0000
,
0100
0000
0011
0000
1010
0000
0200
0300
,
0000
0000
0011
0000
0000
1100
0000
0000
,
1100
0000
0000
0110
0000
0000
0200
0300
,
0000
0000
1010
0000
0000
0011
0000
0000
,
0001
1000
0001
0010
0000
0000
0020
0030
,
0000
0000
0011
0000
0000
1010
0000
0000
,
0101
0000
0000
0110
0000
0000
0200
0300
,
0000
0000
1100
0000
0000
0011
0000
0000
,
0110
0000
0001
0010
0000
0000
2002
3003
,
0000
0000
0101
0000
0000
1010
0000
0000
,
1100
0000
0000
1001
0000
0000
0020
0030
,
2000
0000
3000
0010
0000
0000
0200
0000
0300
0001
0000
0000
,
0020
0000
0000
0000
0030
0000
1000
0000
0000
0000
0000
0000
0002
0000
0000
0020
0003
0000
0200
0000
0000
0030
0000
0000
,
0300
0010
0000
0010
0000
0000
0000
0110
,
1000
0000
0000
0000
0100
0000
0010
0000
0000
0000
0001
0000
0010
0000
0000
0000
0100
0000
0010
0000
0000
1001
0000
0000
,
0000
0010
0000
0010
0000
0000
0000
0101
,
0010
0100
0010
0001
0100
0010
0001
0100
1000
0000
0010
0000
0000
0000
0101
0000
,
0001
0010
0100
0010
0100
1000
0000
0110
,
0000
1000
0100
1000
0100
0010
0000
0011
,
0100
0100
0010
0010
1001
1001
0000
1111
,
0010
0100
0010
0000
0000
0000
0000
0000
1000
0100
1000
0000
0000
0000
2000
3000
,
0100
0001
0100
0000
0000
0000
0000
0000
0100
0010
0100
0010
0002
0000
2003
3000
,
0010
0100
0010
0000
0000
0000
0000
0000
0001
0010
0001
0000
0000
0000
2000
3000
,
0100
0010
0100
0000
0000
0000
0000
0000
0010
0100
0010
0001
0020
0000
2030
3000
,
0001
0010
0100
0000
0000
0000
0000
0000
0010
0100
1000
0000
0000
0000
2000
3000
,
0100
0010
0001
0000
0000
0000
0000
0000
1000
0100
0010
0001
0020
0000
2030
3000
,
0010
0010
0010
0000
0000
0000
0000
0000
0100
0100
0100
0000
0000
0000
2000
3000
,
0001
0000
0001
0000
0000
0000
0010
0000
0100
0100
0000
0000
0000
0000
2000
3000
,
0010
0001
0000
0010
0001
0000
0010
0001
0000
0000
0010
0001
0000
0000
0110
0000
,
1000
0100
1000
0010
0100
0001
0010
0001
,
0010
0100
0000
0010
0100
0000
0010
0100
0000
0000
0010
0100
0000
0000
1001
0000
,
0001
0010
0001
0100
0010
1000
0100
1000
,
0001
1000
0000
0001
1000
0000
0001
1000
0000
0000
0001
1000
0000
0000
0110
0000
,
0100
0010
1000
0010
0001
0100
0010
0100
,
1000
0100
0000
0010
0001
0000
0010
0100
0000
0000
0100
0000
1000
0000
0100
0000
,
0001
0020
0000
0000
0000
0000
0000
0030
,
1000
0100
0010
0100
0010
0001
0010
0001
,
0010
0100
0010
1000
0100
0010
0100
0010
,
0002
2003
3002
2003
,
3002
2003
3002
1003
,
0010
0100
0010
0100
0010
1000
0010
1000
,
0100
0010
0001
0010
0100
0010
0100
1000
,
0020
0230
0320
0230
,
0320
0230
0320
0130
,
1000
0100
0010
0001
0010
0001
0010
0100
,
0010
0100
1000
0100
0010
0100
0010
0100
,
2000
3002
0023
0230
,
0302
0023
0230
1300
,
0001
0010
0001
0010
0100
0010
1000
0100
,
0010
0001
0010
0100
0010
0100
1000
0100
,
0020
1000
0000
1000
,
0000
0000
1000
0000
0000
0000
1000
0030
,
0100
1001
0000
0110
0000
0101
0000
1010
,
0100
0110
0000
1001
0000
0011
0000
0110
,
1000
1001
0000
0110
0000
1010
0000
0101
,
0010
0000
1001
0000
0000
0000
0011
0000
0000
0000
0010
0100
0001
0000
0001
0001
,
0100
1010
0000
0101
0000
0110
0000
1001
,
0010
1100
0000
0110
0000
1001
0000
0011
,
0100
1010
0000
1100
0000
0101
0000
0011
,
1000
0000
0110
0000
0000
0000
0011
0000
0000
0000
0100
1000
0010
0000
0010
0010
,
1000
0000
0100
0000
0000
0000
0100
0010
0001
0000
0010
0000
0000
0000
0010
0100
,
1000
0000
0100
0000
0000
0000
0100
0000
0010
0000
1000
0100
1000
0100
0010
0001
,
0000
0110
0000
1010
0000
0101
0000
0011
,
0100
0000
0100
0000
0100
0000
0100
0000
0100
0010
0001
0010
0002
0000
0000
0003
,
0100
0000
1000
0000
0000
0000
1000
0100
0010
0000
0001
0000
0000
0000
0001
0000
,
1000
0000
0010
0000
0000
0000
0010
0100
0010
0000
0001
1000
0001
1000
0100
0010
,
0000
0101
0000
1010
0000
0110
0000
1100
,
0001
0000
0001
0000
0001
0000
0001
0000
0001
0000
0100
0010
0100
1000
0100
0010
;

//---------------dance-single - ----------------
#NOTES:
     dance-single:
     :
     Challenge:
     10:
     0.791,0.988,0.780,0.468,0.279,508.000,95.000,57.000,0.000,20.000:
1000
0100
1000
0100
0010
0000
0000
0000
1000
0100
1000
0100
0010
0000
0000
0000
,
0001
0010
0001
0010
0100
0000
0000
0000
0001
0010
0001
0010
0100
0000
0000
0000
,
1010
0101
0011
0000
0011
1010
1100
0000
,
2000
3000
0100
0011
0202
0000
0000
0303
,
0000
0000
0101
0000
0000
0000
1010
0000
0100
0010
1001
0000
0000
0000
0110
0000
,
1000
0100
0011
0000
0000
0000
0101
0000
0010
1000
0110
0000
0000
0000
1100
0000
,
0010
0001
1100
0000
0000
0000
0110
0000
0100
0001
1010
0000
0000
0000
1001
0000
,
0020
0030
0101
1010
0200
0000
0000
0300
,
1000
0100
0001
0000
0000
0010
0000
0000
0100
0000
0000
0010
0000
0000
0001
0000
,
1000
0100
0010
0000
0000
0010
0000
0000
1000
0000
0010
0100
0000
0000
2002
3003
,
0000
0000
1010
0000
0000
0110
0000
0000
1010
0000
0000
0101
0000
0000
0110
0000
,
0000
1000
0100
1000
0100
0010
0002
0003
,
1000
0000
0000
0000
0100
0000
0020
0000
0000
0000
0000
0030
,
1000
0000
0100
0000
0010
0001
0010
0100
,
0000
0000
1000
0000
0000
0010
0000
0000
,
0001
0000
0010
0100
0000
0000
2002
3003
,
0010
0000
0000
0000
0100
0000
2000
0000
0000
3000
0000
0000
,
1000
0000
0010
0000
1000
0100
0010
0001
,
0000
0000
0001
0000
0000
0010
0000
0000
,
0100
0001
1000
0010
0000
0000
0200
0300
,
0010
0000
0000
0000
0100
0000
2000
0000
0000
0000
0000
3000
,
0010
0000
0001
0000
0100
0010
0100
1000
,
0000
0000
0010
0000
0000
0100
0000
0000
,
0001
0000
0010
1000
0000
0000
0220
0330
,
0001
0100
0010
0100
,
0010
0001
1000
0200
,
0320
0230
1001
0020
,
0000
0000
0000
0000
1001
0000
0000
0330
,
0010
0001
0100
0010
0200
0000
0000
1310
,
0000
0100
0010
0001
0020
0000
0000
0131
,
0000
1000
0100
0010
2000
0000
0000
3011
,
0000
0000
1000
0000
0100
0000
0010
0000
0001
0010
0100
0020
0000
0000
1031
0000
,
1000
0100
1000
0010
1000
0001
0000
1100
,
0001
0010
0001
0100
0001
1000
0000
0110
,
1000
0100
1000
0100
0010
0000
0100
0000
0010
0000
0001
0000
0000
0000
1111
0000
,
0010
0000
0000
0100
0010
0000
0000
0000
0100
0000
1000
0000
0020
0000
1130
0000
,
0001
0000
0000
0010
0001
0000
0000
0000
1000
0000
0200
0000
0000
0000
0311
0000
,
1000
0000
0000
0100
1000
0000
0000
0000
0100
0000
0020
0000
0000
0000
2032
0000
,
0000
0000
0000
0000
0000
0000
3003
0000
0100
0010
0100
1000
0200
0000
0000
0300
,
0010
0000
0000
1000
0010
0000
0000
0000
0001
0000
0020
0000
0000
0000
1130
0000
,
0001
1000
0000
0001
0100
0000
0000
0000
0010
0000
0002
0000
0000
0000
1103
0000
,
1010
0000
0101
0000
1010
0010
0101
0000
,
0010
0202
0303
0010
0000
1000
0020
1031
,
0100
0010
0100
1000
0100
0000
0000
0010
0001
0000
0100
0000
0010
0000
1000
0000
,
0010
1000
0010
0001
0010
1000
0010
0001
,
0001
0010
0100
1000
0100
0000
0000
0100
0010
0000
0001
0000
0100
0000
0010
0000
,
0100
0010
1000
0100
0010
1000
0100
0010
,
1000
0200
0000
0320
0000
0230
0000
0320
,
0001
0230
0000
0320
0000
0230
0000
0310
,
0100
0002
0000
2003
0000
3002
0000
2003
,
3220
0000
0000
0000
0000
0000
0000
0330
,
1000
0010
1000
0010
1000
0000
0010
0001
,
0010
1000
0010
1000
0010
0000
0010
1000
,
0100
0001
1000
0010
,
0100
0001
1000
0010
,
0100
0010
1000
0100
0010
0000
0001
0010
,
0100
0010
0001
0010
0100
0000
1000
0100
,
1000
0001
0100
0010
,
1000
0000
0001
0000
0100
0010
1000
0100
,
0001
0010
0100
0010
0001
0000
0100
0010
,
1000
0100
0010
0100
0010
0000
0010
1000
,
0100
0010
0100
0010
,
1000
0001
1000
0001
,
1000
0100
1000
0100
0010
0000
0001
0010
,
1000
0100
0010
0100
0001
0000
0010
0100
,
0002
2003
3002
2003
,
3020
0000
0230
0000
0320
0000
0230
0300
,
0000
0000
0011
0000
0000
0000
0110
0000
1000
0100
0011
0000
0000
0000
1111
0000
,
0000
0000
0110
0000
0000
0000
1100
0000
0010
0100
1001
0000
0000
0000
1111
0000
,
0000
0000
1010
0000
0000
0000
0101
0000
1000
0100
0011
0000
0000
0000
1111
0000
,
0000
0000
0101
0000
0000
0000
1010
0000
0000
0000
1000
0010
0100
0000
0001
0010
,
0000
0000
1100
0000
0000
0000
0110
0000
1000
0100
0011
0000
0000
0000
1111
0000
,
0000
0000
0101
0000
0000
0000
0011
0000
0100
0010
1001
0000
0000
0000
1111
0000
,
0000
0000
1010
0000
0000
0000
0110
0000
1000
0100
0011
0000
0000
0000
1111
0000
,
0000
0000
0101
0000
0000
0000
1010
0000
0000
0000
0010
0001
0100
0000
0010
1000
,
1000
1010
1000
1010
0001
0101
0001
0101
,
0010
0011
0010
0011
0100
0110
0100
0110
,
0010
0010
0010
0010
1000
1000
1000
1000
,
0100
0010
0100
0010
0100
0010
0100
0010
0001
0010
0001
0010
0001
0010
0001
0010
,
0100
1100
0100
1100
0010
0011
0010
0011
,
0001
1001
0001
1001
1000
1001
1000
1001
,
0100
0100
0100
0100
0010
0010
0010
0010
,
0001
1000
0001
1000
0001
1000
0001
1000
0010
1000
0010
1000
0010
1000
0020
1000
,
0030
0000
0000
0000
;
