#TITLE:Neon Genesis Evangelion;
#SUBTITLE:- Cruel Angel's Thesis [Euro Mix];
#ARTIST:林原めぐみ;
#TITLETRANSLIT:;
#SUBTITLETRANSLIT:;
#ARTISTTRANSLIT:Megumi Hayashibara;
#CREDIT:Anime Toshokan;
#BANNER:Neon Genesis Evangelion - Cruel Angel's Thesis [Euro Mix].png;
#BACKGROUND:Neon Genesis Evangelion - Cruel Angel's Thesis [Euro Mix] bg.png;
#LYRICSPATH:;
#CDTITLE:dejiko.png;
#MUSIC:Neon Genesis Evangelion - Cruel Angel's Thesis [Euro Mix].mp3;
#OFFSET:2.669;
#SAMPLESTART:62.520;
#SAMPLELENGTH:12.180;
#SELECTABLE:YES;
#DISPLAYBPM:316.000;
#BPMS:0.000=316.690,88.000=316.000;
#STOPS:;
#BGCHANGES:5.000=Neon Genesis Evangelion - Cruel Angel's Thesis [Euro Mix].avi=1.000=0=0=1,
436.000=Neon Genesis Evangelion - Cruel Angel's Thesis [Euro Mix] bg.png=1.000=0=0=1,
99999=-nosongbg-=1.000=0=0=0 // don't automatically add -songbackground-
;
// cache tags:
#FIRSTBEAT:16.000;
#LASTBEAT:439.000;
#SONGFILENAME:Songs/DDR Anime 1st Mix/Neon Genesis Evangelion - Cruel Angel's Thesis [Euro Mix]/Neon Genesis Evangelion - Cruel Angel's Thesis [Euro Mix].sm;
#HASMUSIC:1;
#HASBANNER:1;
#MUSICLENGTH:86.857;
// end cache tags

//---------------dance-single - BASIC----------------
#NOTES:
     dance-single:
     BASIC:
     Easy:
     5:
     0.304,0.378,0.115,0.000,0.000,175.000,10.000,0.000,0.000,0.000:
0000
0000
0000
0000
,
0000
0000
0000
0000
,
0000
0000
0000
0000
,
0000
0000
0000
0000
,
1010
0000
0000
0000
,
0100
0000
0000
0000
,
1100
0000
0000
0000
,
0010
0000
0000
0000
,
0011
0000
0000
0000
,
0100
0000
0000
0000
,
0101
0000
0000
0000
,
1000
0000
0001
0000
,
1000
0000
0001
0000
,
0010
0000
0100
0000
,
0010
0000
0100
0000
,
0001
0000
1000
0000
,
0000
0000
0000
0000
,
0001
0000
1000
0000
,
1001
0000
0000
0110
,
0000
0000
0100
0000
,
0100
0000
0100
0000
,
0100
0000
0000
0000
,
0001
0000
0001
0000
,
0001
0000
0001
0000
,
0000
0000
1000
0000
,
1000
0000
1000
0000
,
1000
0000
0000
0000
,
0010
0000
0010
0000
,
0010
0000
0010
0000
,
0000
0000
1000
0000
,
0001
0000
1000
0000
,
0100
0000
0001
0000
,
0010
0000
1000
0000
,
0001
0000
0100
0000
,
0001
0000
1000
0000
,
0100
0000
0010
0000
,
0100
0000
0001
0000
,
1000
0000
0001
0000
,
1001
0000
0000
0000
,
1000
0000
0000
0000
,
0001
0000
0000
0000
,
1000
0000
0001
0000
,
1000
0000
0000
0000
,
0010
0000
0000
0000
,
0100
0000
0000
0000
,
0100
0000
0010
0000
,
0100
0000
0000
0000
,
1000
0000
0000
0000
,
1000
0000
0000
0000
,
1000
0000
0100
0000
,
0001
0000
0000
0000
,
0001
0000
0000
0000
,
0100
0000
0000
0000
,
0001
0000
0100
0000
,
1000
0000
0001
0000
,
0010
0000
0100
0000
,
1000
0000
0001
0000
,
0100
0000
0100
0000
,
1000
0000
1000
0000
,
0001
0000
0001
0000
,
1000
0000
1000
0000
,
0010
0000
0010
0000
,
1000
0000
1000
0000
,
0100
0000
0001
0000
,
0100
0000
0010
0000
,
0100
0000
1000
0000
,
0001
0000
0000
0000
,
1000
0000
0001
0000
,
1001
0000
0000
0000
,
0100
0000
1000
0000
,
0100
0000
0000
0000
,
0100
0000
0001
0000
,
0100
0000
0000
0000
,
0010
0000
1000
0000
,
0010
0000
0000
0000
,
0001
0000
0010
0000
,
0001
0000
1000
0000
,
1000
0000
0001
0000
,
0001
0000
0100
0000
,
0100
0000
0010
0000
,
0010
0000
0100
0000
,
0000
0000
1000
0000
,
0100
0000
0001
0000
,
0010
0000
0000
0000
,
0010
0000
0000
1001
0000
0000
0100
0000
,
0000
0000
0000
0000
,
0001
0000
0001
0000
,
1000
0000
0001
0000
,
0010
0000
1000
0000
,
0100
0000
1000
0000
,
0001
0000
0100
0000
,
0001
0000
0000
0000
,
1000
0000
0100
0000
,
0001
0000
0100
0000
,
1000
0000
0000
0000
,
1000
0000
0100
0000
,
0001
0000
0100
0000
,
1000
0000
0000
0000
,
1000
0000
0001
0000
,
1000
0000
0001
0000
,
0010
0000
1000
0000
,
0001
0000
0100
0000
,
0100
0000
0010
0000
,
0010
0000
1000
0000
,
0001
0000
1000
0000
,
0001
0000
0001
0000
,
1000
0000
1000
0000
,
0001
0000
0001
0000
,
1000
0000
1000
0000
,
0100
0000
0000
0110
0000
0000
0000
0000
;

//---------------dance-single - ANOTHER----------------
#NOTES:
     dance-single:
     ANOTHER:
     Medium:
     7:
     0.387,0.567,0.207,0.000,0.000,217.000,18.000,0.000,0.000,0.000:
0000
0000
0000
0000
,
0000
0000
0000
0000
,
0000
0000
0000
0000
,
0000
0000
0000
0000
,
1001
0000
1000
0000
,
0100
0000
1000
0000
,
1100
0000
0010
0000
,
0001
0000
0010
0000
,
0011
0000
0100
0000
,
0001
0000
0100
0000
,
0101
0000
1000
0000
,
0010
0000
1000
0000
,
1010
0000
1000
0000
,
0001
0000
1000
0000
,
1001
0000
0010
0000
,
0100
0000
0010
0000
,
0110
0000
0001
0000
,
1000
0000
0001
0000
,
0011
0000
0000
0101
,
0000
0000
1000
0000
0000
1000
0000
0001
,
0000
1000
0000
0001
0000
1000
0000
0001
,
0000
0000
1001
0000
,
1000
0000
0100
0000
,
1000
0000
0001
0000
,
0100
0000
0010
0000
,
1000
0000
0001
0000
,
0001
0000
1000
0000
,
0100
0000
0100
0000
,
0010
0000
0001
0000
,
0100
0000
1000
0000
,
0010
0000
0001
0000
,
1000
0000
0100
0000
,
0001
0000
0010
0000
,
1000
0000
0100
0000
,
0001
0000
1000
0000
,
0100
0000
0001
0000
,
0001
0000
0100
0000
,
1000
0000
1000
0001
,
1001
0000
0010
0000
,
0100
0000
0001
0000
,
0100
0000
1000
0000
,
0010
0000
0100
0000
,
0010
0000
1000
0000
,
0001
0000
1000
0000
,
0100
0000
0001
0000
,
0100
0000
0010
0000
,
1000
0000
0001
0000
,
1000
0000
1000
0000
,
0100
0000
0001
0000
,
0100
0000
0100
0000
,
0010
0000
1000
0000
,
0001
0000
0010
0000
,
1000
0000
0100
0000
,
0001
0000
0010
0000
,
1000
0000
0001
0000
,
0010
0000
0100
0000
,
1000
0000
0001
0000
,
0010
0000
0001
0000
,
1000
0000
0100
0000
,
0010
0000
0001
0000
,
1000
0000
0100
0000
,
0010
0000
0001
0000
,
1000
0000
0100
0000
,
0001
0000
0010
0000
,
0001
0000
1000
0000
,
0001
0000
0010
0000
,
0100
0000
0001
0000
,
1000
0000
0001
1000
,
1001
0000
0100
0000
,
0100
0000
0100
0000
,
0100
0000
0010
0000
,
1000
0000
0001
0000
,
0001
0000
1000
0000
,
1000
0000
0010
0000
,
0100
0000
0001
0000
,
1000
0000
0010
0000
,
0100
0000
1000
0000
,
0001
0000
0100
0000
,
0001
0000
1000
0000
,
0100
0000
0010
0000
,
0001
0000
1000
0000
,
0100
0000
0010
0000
,
0001
0000
1000
0000
,
1000
0000
0001
0000
,
0011
0000
0000
0110
0000
0000
1001
0000
,
0000
0000
0110
0000
,
0001
0000
0001
0000
,
1000
0000
1000
0000
,
0100
0000
0100
0000
,
0010
0000
0010
0000
,
0001
0000
0100
0000
,
1000
0000
0100
0000
,
0010
0000
0001
0000
,
0010
0000
1000
0000
,
0100
0000
0001
0000
,
1000
0000
0100
0000
,
1000
0000
0001
0000
,
0100
0000
0001
0000
,
0010
0000
1000
0000
,
0010
0000
0001
0000
,
0010
0000
0001
0000
,
0001
0000
0100
0000
,
1000
0000
1000
0000
,
0001
0000
1000
0000
,
0100
0000
0010
0000
,
1000
0000
0001
0000
,
0001
0000
0001
0000
,
1000
0000
1000
0000
,
1000
0000
1000
0001
,
1001
0000
0000
0110
0000
0000
0000
0000
;

//---------------dance-single - MANIAC----------------
#NOTES:
     dance-single:
     MANIAC:
     Hard:
     9:
     0.775,1.000,0.196,0.253,0.000,432.000,17.000,22.000,0.000,0.000:
0000
0000
0000
0000
,
0000
0000
0000
0000
,
0000
0000
0000
0000
,
0000
0000
0000
0000
,
1000
0100
2000
0000
3000
0000
0001
0000
,
1000
0001
1000
0000
,
0001
0100
0002
0000
0003
0000
0100
0000
,
0010
0100
0010
0000
,
0001
1000
0002
0000
0003
0000
0001
0000
,
1000
0001
1000
0000
,
1000
0010
2000
0000
3000
0000
1000
0000
,
0001
1000
0001
0000
,
0001
0010
0002
0000
0003
0000
0010
0000
,
0100
0010
0100
0000
,
0001
0100
0002
0000
0003
0000
0001
0000
,
0001
1000
1000
0000
,
1000
0100
2000
0000
3000
0000
1000
0001
,
1000
0001
1000
0001
0100
0100
0000
0000
,
0220
0000
0000
0330
0000
0000
2002
0000
,
0000
3003
0000
0100
0010
0001
1000
0001
,
0010
0100
1000
0100
0010
0001
0000
0000
,
1000
0001
0100
0010
1000
0001
1000
0001
,
1001
1000
0100
1000
,
0001
0100
0001
1000
,
0100
1000
0001
0100
,
0001
1000
0001
1000
,
0001
0010
0100
0010
,
0100
1000
0100
0001
,
0010
1000
0010
0001
,
0100
1000
0001
0100
,
1001
1000
1000
0100
,
0001
0001
0100
1000
,
0010
0001
1000
0010
,
0100
0010
0001
0001
,
1000
1000
0001
1000
,
0010
0100
0010
0001
,
1000
0000
0100
0000
0001
1000
0001
0010
,
0100
1000
0001
0010
0100
0000
1001
0000
,
2002
3003
1000
0100
,
1000
0010
0001
0100
,
0010
1000
0100
0010
,
0001
1000
0100
0010
,
0001
1000
0001
1000
,
0010
0001
0010
0100
,
1000
0001
1000
0010
,
0010
1000
1000
0100
,
0100
0001
0001
0010
,
1000
0001
1000
0001
,
0010
0000
0100
0000
1000
0000
0001
1000
,
2002
3003
0001
0100
,
1000
0100
0010
0001
,
0100
0100
0001
1000
,
0100
0100
1000
0001
,
1000
0010
0001
0100
,
0110
0010
1000
0001
,
0100
0001
1000
0010
,
1000
0100
0010
0001
,
0100
0010
0001
1000
,
0100
0010
0001
0010
,
0100
1000
0010
0001
,
1000
0100
0001
0010
,
1000
0100
0001
0010
,
1000
0001
1000
0100
,
0010
0001
1000
0100
,
0010
1000
0001
0100
,
0200
0000
0300
0010
,
0001
1000
0010
1000
,
0001
0000
0000
1000
0001
0000
0001
1000
,
2002
3003
0100
0010
,
1000
0100
0001
1000
,
0110
0100
0010
0010
,
0001
0001
0100
0100
,
0010
1000
0001
0100
,
0010
1000
0001
0100
,
1000
0001
0001
1000
,
0001
0001
1000
0000
,
1000
1000
0000
0000
0001
0001
0000
0000
,
1000
1000
0000
0000
0001
0001
0000
0000
,
1001
1000
0001
0100
,
1000
1000
0001
1000
,
1000
0100
0010
0001
,
1000
0001
1000
0001
,
1000
0100
0010
0001
,
1000
0100
0010
0001
,
1000
0010
0000
0100
0001
0000
0001
1000
,
0000
1000
0001
1000
0001
1000
0001
1000
,
1001
0100
0010
1000
,
0001
0100
0001
1000
,
0010
0001
0001
1000
,
0100
1000
0001
0100
,
0001
0010
0001
1000
,
0001
1000
0100
0010
,
0100
0010
1000
0100
,
1000
0010
1000
0100
,
1001
0010
0001
0100
,
1000
0010
0001
0100
,
1000
0010
1000
1000
,
0001
0001
0100
0010
,
1000
0100
0010
0001
,
0100
0001
1000
0010
,
0010
0001
0001
0100
,
0100
1001
0100
0100
,
0110
0100
0100
0010
,
0100
0010
0100
0001
,
1000
0100
0010
1000
,
0001
1000
0001
0100
,
0010
1000
0001
0100
,
0010
1000
0001
1000
,
0001
1000
0100
0010
0001
1000
0100
0000
,
2020
0000
3030
0202
0000
0000
0303
0000
;

//---------------dance-single - BEGINNER----------------
#NOTES:
     dance-single:
     BEGINNER:
     Beginner:
     4:
     0.176,0.314,0.058,0.000,0.000,102.000,5.000,0.000,0.000,0.000:
0000
0000
0000
0000
,
0000
0000
0000
0000
,
0000
0000
0000
0000
,
0000
0000
0000
0000
,
1001
0000
0000
0000
,
0100
0000
0000
0000
,
1000
0000
0000
0000
,
0010
0000
0000
0000
,
0001
0000
0000
0000
,
0100
0000
0000
0000
,
0001
0000
0000
0000
,
1000
0000
0000
0000
,
1000
0000
0000
0000
,
0010
0000
0000
0000
,
0010
0000
0000
0000
,
0001
0000
0000
0000
,
0000
0000
0000
0000
,
0001
0000
0000
0000
,
1001
0000
0000
0110
,
0000
0000
0000
0000
,
0100
0000
0000
0000
,
0100
0000
0000
0000
,
0001
0000
0000
0000
,
0001
0000
0000
0000
,
0000
0000
0000
0000
,
1000
0000
0000
0000
,
1000
0000
0000
0000
,
0010
0000
0000
0000
,
0010
0000
0000
0000
,
0000
0000
0000
0000
,
0001
0000
0000
0000
,
0100
0000
0000
0000
,
0010
0000
0000
0000
,
0001
0000
0000
0000
,
0001
0000
0000
0000
,
0100
0000
0000
0000
,
0100
0000
0000
0000
,
1000
0000
0000
0000
,
1001
0000
0000
0000
,
1000
0000
0000
0000
,
0001
0000
0000
0000
,
1000
0000
0000
0000
,
1000
0000
0000
0000
,
0010
0000
0000
0000
,
0100
0000
0000
0000
,
0100
0000
0000
0000
,
0100
0000
0000
0000
,
1000
0000
0000
0000
,
1000
0000
0000
0000
,
1000
0000
0000
0000
,
0001
0000
0000
0000
,
0001
0000
0000
0000
,
0100
0000
0000
0000
,
0001
0000
0000
0000
,
1000
0000
0000
0000
,
0010
0000
0000
0000
,
1000
0000
0000
0000
,
0100
0000
0000
0000
,
1000
0000
0000
0000
,
0001
0000
0000
0000
,
1000
0000
0000
0000
,
0010
0000
0000
0000
,
1000
0000
0000
0000
,
0100
0000
0000
0000
,
0100
0000
0000
0000
,
0100
0000
0000
0000
,
0001
0000
0000
0000
,
1000
0000
0000
0000
,
1001
0000
0000
0000
,
0100
0000
0000
0000
,
0100
0000
0000
0000
,
0100
0000
0000
0000
,
0100
0000
0000
0000
,
0010
0000
0000
0000
,
0010
0000
0000
0000
,
0001
0000
0000
0000
,
0001
0000
0000
0000
,
1000
0000
0000
0000
,
0001
0000
0000
0000
,
0100
0000
0000
0000
,
0010
0000
0000
0000
,
0000
0000
0000
0000
,
0100
0000
0000
0000
,
0010
0000
0000
0000
,
0010
0000
0000
0100
,
0000
0000
0000
0000
,
0001
0000
0000
0000
,
1000
0000
0000
0000
,
0010
0000
0000
0000
,
0100
0000
0000
0000
,
0001
0000
0000
0000
,
0001
0000
0000
0000
,
1000
0000
0000
0000
,
0001
0000
0000
0000
,
1000
0000
0000
0000
,
1000
0000
0000
0000
,
0001
0000
0000
0000
,
1000
0000
0000
0000
,
1000
0000
0000
0000
,
1000
0000
0000
0000
,
0010
0000
0000
0000
,
0001
0000
0000
0000
,
0100
0000
0000
0000
,
0010
0000
0000
0000
,
0001
0000
0000
0000
,
0001
0000
0000
0000
,
1000
0000
0000
0000
,
0001
0000
0000
0000
,
1000
0000
0000
0000
,
0100
0000
0000
0000
;
