#TITLE:Mahoromatic;
#SUBTITLE:- Soreiyu;
#ARTIST:Ayako Kawasumi;
#TITLETRANSLIT:;
#SUBTITLETRANSLIT:;
#ARTISTTRANSLIT:;
#CREDIT:Anime Toshokan;
#BANNER:Mahoromatic - Soreiyu.png;
#BACKGROUND:Mahoromatic - Soreiyu bg.png;
#LYRICSPATH:;
#CDTITLE:dejiko.png;
#MUSIC:Mahoromatic - Soreiyu.mp3;
#OFFSET:0.263;
#SAMPLESTART:36.240;
#SAMPLELENGTH:11.500;
#SELECTABLE:YES;
#BPMS:0.000=164.040,160.000=327.850,296.000=164.040,302.000=144.000,303.000=124.000;
#STOPS:;
#BGCHANGES:1.250=Mahoromatic - Soreiyu.avi=1.000=0=0=1,
304.000=Mahoromatic - Soreiyu bg.png=1.000=0=0=1,
99999=-nosongbg-=1.000=0=0=0 // don't automatically add -songbackground-
;
// cache tags:
#FIRSTBEAT:4.000;
#LASTBEAT:304.000;
#SONGFILENAME:Songs/DDR Anime 5th Mix/Mahoromatic - Soreiyu/Mahoromatic - Soreiyu.sm;
#HASMUSIC:1;
#HASBANNER:1;
#MUSICLENGTH:95.059;
// end cache tags

//---------------dance-single - BASIC----------------
#NOTES:
     dance-single:
     BASIC:
     Easy:
     4:
     0.264,0.360,0.053,0.095,0.000,162.000,5.000,9.000,0.000,0.000:
0000
0000
0000
0000
,
0110
0000
0000
1000
,
0000
0000
0100
0010
,
0100
0000
0000
0001
,
0000
0000
0001
0100
,
0010
0001
1000
0010
,
0100
0001
1000
1000
,
0100
0000
0000
0001
0000
0000
0100
0000
,
0000
0000
0000
0100
,
1000
0010
0000
0100
,
1000
0001
0010
0100
,
0001
0000
0100
1000
,
0001
0010
0100
1000
,
0100
0000
0010
0100
,
1000
0000
0000
0010
,
1000
0001
0000
0001
,
1000
0100
0010
0100
,
0001
0000
0000
0010
,
0100
0010
0100
0010
,
0001
0000
1000
0000
,
0010
0000
1000
0000
,
0010
0000
0100
0000
,
0001
0000
1000
0100
,
0010
0001
0010
0100
,
1000
0000
0010
0001
,
0100
0000
0000
0100
0000
0000
0100
0000
,
0010
0000
0000
0010
0000
0000
0010
0000
,
0001
0000
0000
0001
0000
0000
0001
0000
,
1000
0000
0000
1000
0000
0000
1000
0000
,
0001
0100
0010
1000
,
0001
0010
0100
1000
,
0001
1000
0010
0100
,
0001
0000
0000
0000
,
0001
0000
0000
0100
0000
0000
0010
0000
,
1000
0000
0000
0200
0000
0000
0320
0000
,
1030
0000
0001
0000
,
1000
0000
0010
0200
,
0002
0000
0000
0303
,
0010
0000
0000
0100
0000
0000
1000
0000
,
0001
1000
1000
0001
,
0110
0000
0000
0000
,
0000
0000
0000
0000
,
1000
0000
0000
0001
,
0000
0000
0100
0000
,
0001
0000
0010
0000
,
1000
0000
0100
0000
,
0001
0000
0000
0100
,
0000
0000
0001
0000
,
1000
0000
0100
0000
,
0001
0000
0100
0000
,
0001
0000
0000
0100
,
0000
0000
0001
0000
,
0010
0000
1000
0000
,
0100
0000
0001
0000
,
1100
0000
0000
0010
,
0000
0100
0000
0010
,
0000
0000
0000
0000
,
0000
0000
0001
0000
,
1000
0000
0000
0100
,
0000
0000
0001
0000
,
1000
0000
0100
0000
,
0001
0000
0100
0000
,
0001
0000
0000
0100
,
0000
0000
0020
0000
,
0000
0030
0000
0000
,
0010
0000
0100
0000
,
0010
0000
1000
0000
,
0001
0000
0100
0000
,
0001
0000
0100
0000
,
0001
0000
1000
0000
,
0001
0000
0000
0000
,
0000
0000
0000
0000
,
2002
0000
0000
0000
,
0000
3003
0000
0000
,
0220
0000
0000
0000
,
0000
0000
0000
0000
,
0330
0000
0000
0000
;

//---------------dance-single - ANOTHER----------------
#NOTES:
     dance-single:
     ANOTHER:
     Medium:
     8:
     0.410,0.600,0.147,0.442,0.000,217.000,14.000,42.000,0.000,0.000:
0000
0000
0000
0000
,
1001
0000
0000
0001
0000
0000
1000
0000
,
0000
0010
0000
0000
1000
0000
0010
0000
,
1001
0000
0000
0010
0000
0000
0001
0000
,
0000
0010
0000
0000
0010
0000
1000
0000
,
0100
0000
0010
0100
0000
0000
0010
0000
,
0001
0000
0100
1000
0000
0000
1000
0000
,
0100
0000
0010
0010
0000
0010
0100
0000
,
0000
0000
0000
0000
0000
0010
0100
0010
,
1000
0000
0000
0010
0000
0000
0100
0001
,
2000
3002
2003
3001
,
0001
0000
0000
0000
0200
0000
0310
1000
,
0000
0000
0000
0000
0000
0000
1000
0010
,
0200
0000
0000
0300
0002
0000
1003
0100
,
0000
0000
0000
0000
0000
0000
0010
0100
,
2000
0000
0000
3000
0001
0000
0001
0100
,
0000
0000
0000
0001
1000
0010
0100
0000
,
0001
0000
0000
1000
0000
0000
0010
0001
,
0200
0320
2030
3002
,
0023
0000
0030
0000
0002
0000
1003
0010
,
0000
0000
0000
0000
1000
0000
0100
0010
,
0000
0000
0000
0000
0001
0000
0010
0100
,
0000
0000
0000
0000
0000
0000
1000
0100
,
0010
0000
0100
0000
0010
0000
0100
0001
,
0000
0000
0000
0001
0010
0100
0001
0000
,
0002
0000
0000
0013
0000
0000
1000
0000
,
0200
0000
0000
0301
0000
0000
0010
0000
,
2000
0000
0000
3001
0000
0000
0100
0000
,
0020
0000
0000
0130
0000
0000
2000
0000
,
3001
0000
0000
0100
0000
0000
0020
0000
,
0031
0000
0010
0001
0100
0000
1000
0000
,
0001
0000
0100
1000
0010
0000
0100
0000
,
0001
0000
1000
0100
0010
0000
1000
0000
,
0200
0000
0000
1300
0000
0000
0000
0000
,
1000
0000
0100
0010
0100
0001
1000
0001
,
1000
0000
1001
0000
0010
0001
0100
0000
,
0001
0100
0100
0001
1000
0100
2000
0000
,
0200
0000
0000
0000
0000
3300
0000
0000
,
1010
0000
0000
0110
0000
0000
0101
0000
,
0001
0010
0100
1000
0100
0010
0001
0010
,
0100
0000
0000
0000
,
0000
0000
0000
0000
,
0001
0100
0010
0000
,
0010
1000
0010
0100
,
0001
0000
0010
0100
,
0000
0100
0010
0000
,
2000
0000
0000
0000
0000
0000
0000
3000
0000
0000
0000
0000
0020
0000
0000
0000
,
0000
0000
0000
0030
0000
0000
0000
0000
2002
0000
0000
0000
0000
0000
0000
0000
,
3003
0000
0001
1000
,
0100
0000
0001
0010
,
0200
0000
0000
0300
0000
0000
0002
0000
,
0000
0003
0000
0000
0220
0000
0000
0330
,
0000
0000
0000
0000
,
0000
0002
0000
0013
,
0200
0000
0000
0000
0000
0300
0000
0000
0000
0000
0000
0000
0010
0000
0000
0000
,
0100
0001
0010
1000
,
0000
0000
0000
0000
,
0000
0000
0000
0000
,
2002
3003
0000
0022
,
0033
0000
2200
3300
,
0000
0000
0000
1000
,
0100
0010
0001
1000
,
0200
0000
0000
0320
,
0000
0000
0032
0000
,
0000
0003
0000
0020
,
0000
0031
0010
0100
,
1000
0000
0000
0010
,
0100
0000
0011
0000
,
0110
0000
1100
0000
,
0010
0000
0001
1000
,
0000
0000
0000
0000
,
0000
0000
0000
0000
,
1000
0100
0001
0000
,
1000
0010
0001
0000
,
0001
0000
0000
0010
0000
0000
0100
0000
,
0000
0001
0000
0000
0100
0000
0010
0000
,
1000
0000
0000
0000
;

//---------------dance-single - MANIAC----------------
#NOTES:
     dance-single:
     MANIAC:
     Hard:
     9:
     0.553,0.680,0.442,0.610,0.000,268.000,42.000,58.000,0.000,0.000:
0000
0000
0000
0000
,
1001
0000
0010
0001
0000
1000
0010
0000
,
0100
0010
0000
0000
2000
0000
3010
0000
,
1001
0000
0010
0001
0000
1000
0010
0000
,
0000
1000
0000
0001
0100
0010
0001
0100
,
1001
0001
1000
0010
,
0100
0001
1000
1000
,
0100
0000
0001
0010
0000
1000
0100
0000
,
0000
0000
0000
0000
0000
0000
0100
0100
,
1000
0001
0010
0100
0000
0000
0001
0000
,
0010
0100
1000
0001
0000
0000
0110
0000
,
0001
0010
0000
1000
0100
0000
0001
0010
,
1100
0000
1000
0100
0011
0000
1000
0010
,
0001
0100
0010
1000
0000
0000
0001
0010
,
0001
0100
1000
0010
0000
0000
0010
1000
,
0101
0000
1000
0001
0000
0000
0002
2000
,
0000
0000
3003
0000
0000
0010
1000
0100
,
1000
0100
0010
0100
0000
0000
0001
0100
,
0020
2030
3200
0301
,
1000
0010
0100
0000
0001
0010
0100
1001
,
0000
0000
0000
0000
0020
0000
0130
0001
,
0000
0001
1000
0000
0200
0000
1300
0010
,
0000
1000
0001
0000
0000
0000
1000
0100
,
0010
0100
0001
0000
0010
0100
0010
1001
,
0000
0000
0000
1000
0010
0100
0001
0000
,
2100
0000
0000
0100
0000
0000
3100
0000
,
1020
0000
0000
1000
0000
0000
1030
0000
,
0201
0000
0000
0001
0000
0000
0301
0000
,
1002
0000
0000
1000
0000
0000
1003
0000
,
0100
0001
0100
0010
0000
0000
0010
0100
,
0010
1000
0200
0000
0320
0000
2030
0000
,
3001
0000
0000
0000
0110
0000
2000
0002
,
0000
0000
3003
0000
0000
0010
0100
0001
,
1000
0000
0100
0010
0000
1000
1000
1000
,
0010
0001
0200
0000
0320
0000
0032
0000
,
1003
0000
0001
0010
0100
0010
1001
0000
,
0110
1000
0100
0010
0101
0000
0002
0000
,
0200
0000
0000
0000
0000
0303
0000
2000
,
3010
0000
0002
0013
0000
0000
1010
0000
,
0001
0010
0100
0010
1000
0010
0001
0100
,
1010
0000
0000
0000
,
0000
0000
0000
0000
,
0010
1000
0100
0000
,
0100
0000
0001
0000
0010
0000
1000
0010
,
0100
1000
0001
1000
,
2000
3200
0320
0031
,
2002
0000
3003
0022
,
0000
0033
2002
0000
,
0000
3003
0000
0010
,
1000
0100
1000
0001
,
0202
0000
0303
2200
,
0000
3300
0022
0000
,
0033
0000
0000
0000
,
0000
0202
0303
0010
,
0220
0330
0000
2000
,
0000
0001
3001
1001
,
0000
0000
1000
0001
1000
0000
0100
0000
,
1000
0001
0100
0100
,
0220
0000
0330
2002
,
0000
3003
2200
0000
,
0000
0000
3300
0000
0000
0000
0010
0100
,
1000
0010
0001
0100
,
0202
0000
0303
2020
,
0000
0000
0000
0000
3030
0000
0000
0000
2002
0000
0000
0000
0000
0000
0000
3003
,
0000
0000
0000
2000
,
0000
0100
0010
3010
,
0101
0000
0000
0100
,
0010
0000
0101
0000
,
1100
0000
0011
0000
,
0200
0000
0001
0301
,
0000
0000
0000
0000
,
0000
0000
0000
0000
,
1000
0000
0001
0000
0100
0000
0001
0010
,
0100
0001
1000
0010
,
0110
0000
0000
1100
0000
0000
0011
0000
,
0000
1010
0000
0000
0010
0000
0001
0000
,
0100
0000
0000
0000
;

//---------------dance-single - BEGINNER----------------
#NOTES:
     dance-single:
     BEGINNER:
     Beginner:
     2:
     0.171,0.240,0.053,0.053,0.000,104.000,5.000,5.000,0.000,0.000:
0000
0000
0000
0000
,
0110
0000
0000
1000
,
0000
0000
0100
0000
,
0100
0000
0000
0001
,
0000
0000
0001
0000
,
0010
0000
1000
0000
,
0100
0000
1000
0000
,
0100
0000
0000
0100
,
0000
0000
0000
0100
,
1000
0000
0000
0100
,
1000
0000
0010
0000
,
0001
0000
0100
0000
,
0001
0000
0100
0000
,
0100
0000
0010
0000
,
1000
0000
0000
0010
,
1000
0000
0000
0001
,
1000
0000
0010
0000
,
0001
0000
0000
0010
,
0100
0000
0100
0000
,
0001
0000
1000
0000
,
0010
0000
1000
0000
,
0010
0000
0100
0000
,
0001
0000
1000
0000
,
0010
0000
0010
0000
,
1000
0000
0010
0000
,
0100
0000
0000
0100
,
0010
0000
0000
0010
,
0001
0000
0000
0001
,
1000
0000
0000
1000
,
0001
0000
0010
0000
,
0001
0000
0100
0000
,
0001
0000
0010
0000
,
0001
0000
0000
0000
,
0001
0000
0000
0010
,
1000
0000
0000
0000
,
1000
0000
0001
0000
,
1000
0000
0010
0000
,
0002
0000
0000
0003
,
0010
0000
0000
1000
,
0001
0000
1000
0000
,
0110
0000
0000
0000
,
0000
0000
0000
0000
,
1000
0000
0000
0000
,
0001
0000
0000
0000
,
0001
0000
0000
0000
,
1000
0000
0000
0000
,
0001
0000
0000
0000
,
0100
0000
0000
0000
,
1000
0000
0000
0000
,
0001
0000
0000
0000
,
0001
0000
0000
0000
,
0100
0000
0000
0000
,
0010
0000
0000
0000
,
0100
0000
0000
0000
,
1100
0000
0000
0000
,
0010
0000
0000
0000
,
0010
0000
0000
0000
,
0000
0000
0001
0000
,
1000
0000
0000
0000
,
0100
0000
0000
0000
,
1000
0000
0000
0000
,
0001
0000
0000
0000
,
0001
0000
0000
0000
,
0100
0000
0000
0000
,
0010
0000
0000
0000
,
0010
0000
0000
0000
,
0010
0000
0000
0000
,
0001
0000
0000
0000
,
0001
0000
0000
0000
,
0001
0000
0000
0000
,
0001
0000
0000
0000
,
0000
0000
0000
0000
,
2002
0000
0000
0000
,
0000
3003
0000
0000
,
0220
0000
0000
0000
,
0000
0000
0000
0000
,
0330
0000
0000
0000
;
