#TITLE:Xero-Fire;
#SUBTITLE:;
#ARTIST:Infinity;
#TITLETRANSLIT:;
#SUBTITLETRANSLIT:;
#ARTISTTRANSLIT:;
#CREDIT:;
#BANNER:xerofire-banner.png;
#SONGINFO:xerofire-songinfo.png;
#BACKGROUND:xerofire-bg.png;
#LYRICSPATH:;
#CDTITLE:./CDTITLES/neon.png;
#CHARACTER:./SongCharacters/djpotatoe;
#MUSIC:Xero-Fire.mp3;
#OFFSET:-0.460;
#SAMPLESTART:23.180;
#SAMPLELENGTH:12.000;
#SELECTABLE:YES;
#BPMS:0.000=126.000,114.000=63.000,116.000=126.000,128.000=31.500,129.000=126.000,133.500=110.000,134.000=87.000,136.000=126.000;
#STOPS:76.000=0.240
,76.500=0.240
,77.000=0.240
,77.500=0.240
;
#BGCHANGES:-2.000=visffd320.avi=1.000=1=1=0
;
// cache tags:
#FIRSTBEAT:16.000;
#LASTBEAT:168.000;
#SONGFILENAME:Songs/Neon FM/Xero-Fire/Xero-Fire.sm;
#HASMUSIC:1;
#HASBANNER:1;
#MUSICLENGTH:85.406;
// end cache tags

//---------------pump-single - ----------------
#NOTES:
     pump-single:
     :
     Hard:
     85:
     0.570,0.639,0.422,0.152,0.416,292.000,36.000,13.000,0.000,0.000:
00000
00000
00000
00000
,
00000
00000
00000
00000
,
00000
00000
00000
00000
,
00000
00000
00000
00000
,
00001
00000
10000
00000
10001
00000
00000
00000
01000
00000
00000
01000
00000
00000
01000
00000
,
00010
00000
00100
00000
00101
00000
00000
00000
10000
00000
00000
10000
00000
00000
10000
00000
,
00100
00000
01000
00000
01010
00000
00000
00000
00100
00000
00000
00001
00000
00000
00100
00000
,
00010
10000
00010
10000
10010
00000
10010
00000
,
10000
00000
00001
00000
10001
00000
00000
00000
00010
00000
00000
00010
00000
00000
00010
00000
,
01000
00000
00100
00000
10100
00000
00000
00000
00001
00000
00000
00001
00000
00000
00001
00000
,
00100
00000
00010
00000
01010
00000
00000
00000
00100
00000
00000
10000
00000
00000
00100
00000
,
01000
00001
01000
00001
01001
00000
01001
00000
,
00001
00000
00000
00010
00000
00000
00100
00000
00000
01000
00000
00000
10000
00000
01000
00000
,
00010
00000
00000
01000
00000
00000
00001
00000
10000
00100
00000
10000
00100
00000
10000
00100
,
10000
00000
00000
01000
00000
00000
00100
00000
00000
00010
00000
00000
00001
00000
00010
00000
,
01000
00001
00000
01000
00001
01000
00000
00001
00000
01000
00001
00000
01000
00001
01000
00000
,
00010
00100
00001
00100
00010
01000
00001
10000
,
00100
01000
00100
10000
00010
10000
00001
01000
,
00100
10000
00001
00100
00010
01000
00100
10000
,
10100
00101
10010
01001
00100
00010
01000
00100
,
01000
00010
00100
00100
11000
01000
11000
00000
,
00011
00010
00011
00000
10000
01000
00100
01000
,
10000
00010
00100
00100
00011
00001
00011
00000
,
11000
10000
11000
00000
00100
10000
00001
00100
,
00001
10000
00100
00100
00011
00001
00011
00000
,
11000
10000
11000
00000
00010
00001
00100
00001
,
00010
10000
00100
00100
11000
01000
11000
00000
,
00011
00000
00010
00000
00011
00000
00000
00000
01000
00100
00000
10000
00000
00001
00000
00100
,
00000
00010
00000
00100
00001
00000
00001
00000
20000
00010
00010
00010
30020
01000
01030
00000
,
00100
01000
00000
00001
00000
10000
00000
00100
00000
01000
00000
00100
10000
00000
10000
00000
,
00001
00100
00001
00000
00100
00001
00000
00100
00001
00000
00002
00000
20000
00000
30003
00000
,
01000
00001
00000
10000
00000
00010
00000
01000
00000
10000
00000
01000
00100
00000
00100
00000
,
10000
00010
10000
00010
00000
01000
00100
01000
00100
00000
20000
00000
30001
00000
00000
00000
00010
00000
00000
00000
00001
00000
00000
00000
00000
00000
00000
00000
01000
00000
00000
00000
00000
00000
00000
00000
00100
00000
00000
00000
00000
00000
00000
00000
10000
00000
00000
00000
00000
00000
00000
00000
00010
00000
00000
00000
00000
00000
00000
00000
10000
00000
00000
00000
,
01000
00000
10000
00000
20000
00000
00100
00000
00000
00100
00000
00000
00100
00000
00000
00000
,
30001
00000
00100
00000
00110
00000
00000
00000
10000
00010
00000
00010
10000
00000
00001
00000
,
01000
00000
00010
00000
01000
00001
01000
00000
00100
00000
00000
00100
00000
00000
00100
00000
,
01000
00000
00010
00000
01010
00000
00100
00000
20000
00000
00000
30020
00000
00000
00230
00000
,
00301
00000
10000
00000
00001
00000
01000
00100
01000
00000
00010
00000
10010
00000
00000
00000
,
10000
00000
00100
00000
01100
00000
00000
00000
00001
01000
00000
01000
00001
00000
10000
00000
,
00010
00000
01000
00000
00010
10000
00010
00000
00100
00000
00000
00100
00000
00000
00100
00000
,
00010
00000
01000
00000
01010
00000
00100
00000
00002
00000
00000
02003
00000
00000
03200
00000
,
10300
00000
00001
00000
10000
00000
00010
00100
00020
00000
00000
00000
01030
00000
00000
00000
,
01010
00000
00000
00000
;

//---------------pump-single - ----------------
#NOTES:
     pump-single:
     :
     Medium:
     68:
     0.430,0.443,0.059,0.059,0.328,247.000,5.000,5.000,0.000,0.000:
00000
00000
00000
00000
,
00000
00000
00000
00000
,
00000
00000
00000
00000
,
00000
00000
00000
00000
,
00100
00000
01000
00000
00100
00000
01000
00000
00001
00000
00000
00001
00000
00000
00001
00000
,
10000
00000
00100
00000
10000
00000
00100
00000
01000
00000
00000
01000
00000
00000
01000
00000
,
00010
00000
00100
00000
00010
00000
00100
00000
00001
00000
00000
00001
00000
00000
00001
00000
,
01000
00000
00100
00000
01000
00000
00100
00000
10000
00000
00000
10000
00000
00000
10000
00000
,
00100
00000
01000
00000
00100
00000
01000
00000
00001
00000
00000
00001
00000
00000
00001
00000
,
10000
00000
00100
00000
10000
00000
00100
00000
01000
00000
00000
01000
00000
00000
01000
00000
,
00010
00000
00100
00000
00010
00000
00100
00000
00001
00000
00000
00001
00000
00000
00001
00000
,
01000
00000
00100
00000
01000
00000
00100
00000
10000
00000
00000
10000
00000
00000
10000
00000
,
00010
00000
00000
00010
00000
00000
00010
00000
00000
00010
00000
00000
00010
00000
00100
00000
,
00001
00000
00000
00001
00000
00000
00001
00000
20000
00000
00000
00000
00000
00000
00000
00000
,
31000
00000
00000
01000
00000
00000
01000
00000
00000
01000
00000
00000
01000
00000
10000
00000
,
00100
00000
00000
00100
00000
00000
00000
00100
00000
00000
00000
00000
00100
00000
10000
00000
,
00010
00000
00000
00100
00000
00000
00001
00000
00000
10000
00000
00000
01000
00000
10000
00000
,
00010
00000
00000
01000
00000
00000
00001
00000
00000
00100
00000
00000
00010
00000
01000
00000
,
00001
00000
00000
10000
00000
00000
00100
00000
00000
10000
00000
00000
00010
00000
01000
00000
,
01010
01010
10001
10001
00100
01000
00100
00000
,
00100
00010
00100
00000
00100
10000
00100
00000
,
01000
00010
01000
00000
00001
00100
00001
00000
,
00001
01000
00001
00000
10000
00010
10000
00000
,
10000
00001
10000
00000
01000
10000
01000
00000
,
10000
00100
10000
00000
00010
00100
00010
00000
,
01000
00010
01000
00000
00100
10000
00001
00000
,
01000
00100
10000
00000
00010
01000
00001
01000
,
00010
00000
01000
00000
00001
00000
00000
00000
00100
00010
00000
00100
00000
00010
00000
00100
,
00000
00010
00000
00100
00000
00000
00000
00000
00002
00000
00000
00203
00000
00000
00320
00000
,
10030
01000
00000
10000
00000
01000
00000
10000
00000
01000
00000
10000
00000
00000
00000
00000
,
00010
00100
00000
00010
00100
00000
00010
00100
,
00001
01000
00000
00001
00000
01000
00000
00001
00000
01000
00000
00001
00000
00000
00000
00000
,
10000
00100
10000
00100
01000
00100
00000
01000
00000
00100
00000
01000
00000
00100
00000
01000
,
00000
00020
00000
00000
,
00130
00000
00010
00000
00100
00000
00010
00000
10000
00000
00000
10000
00000
00000
10000
00000
,
00001
00000
00100
00000
00001
00000
00100
00000
00010
00000
00000
00010
00000
00000
00010
00000
,
01000
00000
00100
00000
01000
00000
00100
00000
10000
00000
00000
10000
00000
00000
10000
00000
,
00010
00000
00100
00000
00010
00000
00100
00000
00001
00000
00000
00001
00000
00000
00001
00000
,
00100
00000
00010
00000
00100
00000
00010
00000
10000
00000
00000
10000
00000
00000
10000
00000
,
00001
00000
00100
00000
00001
00000
00100
00000
00010
00000
00000
00010
00000
00000
00010
00000
,
01000
00000
00100
00000
01000
00000
00100
00000
10000
00000
00000
10000
00000
00000
10000
00000
,
00010
00000
00100
00000
00010
00000
00100
00000
00001
00000
00000
00001
00000
00000
00001
00000
,
00101
00000
00000
00000
;

//---------------pump-single - ----------------
#NOTES:
     pump-single:
     :
     Easy:
     30:
     0.222,0.221,0.012,0.000,0.000,132.000,1.000,0.000,0.000,0.000:
00000
00000
00000
00000
,
00000
00000
00000
00000
,
00000
00000
00000
00000
,
00000
00000
00000
00000
,
01000
00001
00100
00010
,
01000
00010
10000
00100
,
01000
00100
10000
00010
,
00100
00010
01000
00100
,
10000
00001
00100
00010
,
01000
00010
00100
00001
,
10000
00100
01000
00100
,
10000
00010
01000
00001
,
00100
00000
00010
00000
,
01000
00000
00001
00001
,
00001
00000
01000
00000
,
00100
00000
00000
00000
,
01000
00100
01000
00100
,
10000
00100
10000
00100
,
01000
00100
01000
00100
,
10000
01001
00010
00000
,
10000
00001
00000
00100
,
00100
00010
00000
10000
,
01000
00100
00000
10000
,
00100
01000
00000
00001
,
00100
00010
00000
10000
,
00100
01000
00000
00001
,
00100
00010
00000
00001
,
01000
00001
00100
00000
,
00100
00000
00000
00000
00010
00010
00010
00010
,
01000
00100
01000
00000
,
00010
00000
10000
00000
,
00001
00100
00001
01000
,
00100
01000
00100
00000
01000
00000
00010
00000
,
10000
00000
00000
00000
,
10000
00100
01000
00100
,
10000
00010
00100
00001
,
00100
00010
01000
00010
,
10000
00001
01000
00010
,
00100
00010
00100
01000
,
00100
00010
01000
00010
,
10000
00001
01000
00001
,
10000
00100
10000
00010
,
00100
00000
00000
00000
;

//---------------pump-single - Copied from----------------
#NOTES:
     pump-single:
     Copied from:
     Beginner:
     22:
     0.130,0.197,0.000,0.000,0.012,78.000,0.000,0.000,0.000,0.000:
00000
00000
00000
00000
,
00000
00000
00000
00000
,
00000
00000
00000
00000
,
00000
00000
00000
00000
,
00100
00000
01000
00000
,
00010
00000
01000
00000
,
00100
00000
01000
00000
,
00010
00000
01000
01000
,
01000
00000
00001
00000
,
00100
00000
00010
00000
,
10000
00000
00100
00000
,
01000
00000
00010
00010
,
00100
00000
00000
00000
,
00001
00000
00000
00000
,
00100
00000
00000
00000
,
00010
00000
00000
00000
,
10000
00000
00100
00000
,
10000
00000
00001
00000
,
00100
00000
00001
00000
,
01000
00001
01000
00001
00000
00000
00100
00000
,
00000
01000
00000
00010
,
00000
00100
00000
00001
,
00000
01000
00000
00001
,
00000
10000
00000
00010
,
00000
00100
00000
00010
,
00000
01000
00000
00001
,
00000
10000
00000
00001
,
00000
00100
00000
00000
,
00000
00000
00010
01000
,
00100
00000
00000
00000
,
00010
00000
10000
00000
,
00001
00000
00000
00000
,
00100
00100
00100
00100
00010
00000
00000
00000
00000
00000
00000
00000
01000
00000
00000
00000
,
00000
00100
00000
00000
,
10000
00100
00000
00000
,
01000
00010
00000
00000
,
00100
00001
00000
00000
,
10000
00001
00000
00000
,
01000
00100
00000
00000
,
10000
00010
00000
00000
,
00100
00001
00000
00000
,
01000
00100
00000
00000
,
01000
00000
00000
00000
;
