#TITLE:Put 'Er In Reverse;
#SUBTITLE:;
#ARTIST:DJ Potatoe feat. Thomas Howard;
#TITLETRANSLIT:;
#SUBTITLETRANSLIT:;
#ARTISTTRANSLIT:;
#CREDIT:;
#BANNER:PEIR-banner.png;
#SONGINFO:PEIR-songinfo.png;
#BACKGROUND:PEIR-bg.png;
#LYRICSPATH:;
#CDTITLE:./CDTITLES/DPSC.png;
#CHARACTER:./SongCharacters/THLnPotatoe;
#MUSIC:Put Er In Reverse.ogg;
#OFFSET:-0.080;
#SAMPLESTART:55.700;
#SAMPLELENGTH:12.000;
#SELECTABLE:YES;
#BPMS:0.000=155.000;
#STOPS:;
#BGCHANGES:;
// cache tags:
#FIRSTBEAT:16.000;
#LASTBEAT:288.000;
#SONGFILENAME:Songs/Neon FM/Put Er In Reverse/Put Er In Reverse.sm;
#HASMUSIC:1;
#HASBANNER:1;
#MUSICLENGTH:113.032;
// end cache tags

//---------------pump-single - ----------------
#NOTES:
     pump-single:
     :
     Hard:
     87:
     0.602,0.573,0.062,0.159,0.226,451.000,7.000,18.000,0.000,0.000:
00000
00000
00000
00000
,
00000
00000
00000
00000
,
00000
00000
00000
00000
,
00000
00000
00000
00000
,
10000
00000
00100
00000
01000
00000
00010
01000
00000
00100
00000
00000
10000
00000
10000
00000
,
00001
00000
00100
00000
00010
00000
01000
00010
00000
00000
10000
00100
20000
00000
00000
00000
,
30010
00000
00100
00000
00001
00000
00100
00001
00000
01000
00000
00000
00010
00000
00010
00000
,
10000
00000
00100
00000
01000
00000
00100
01000
00000
00000
00010
00000
00100
00000
01000
00000
,
10000
00000
00100
00000
01000
00000
00010
01000
00000
00100
00000
00000
10000
00000
10000
00000
,
00001
00000
00100
00000
00010
00000
01000
00010
00000
00000
10000
00100
20000
00000
00000
00000
,
30010
00000
00100
00000
00001
00000
00100
00001
00000
01000
00000
00000
00010
00000
00010
00000
,
10000
00000
00100
00000
01000
00000
00100
01000
00000
00000
00010
00000
00100
00000
01000
00000
,
10000
00100
10000
00000
00001
00100
00001
00000
,
01000
00100
10000
00002
00000
00000
01003
00000
,
00010
00000
10000
00100
00000
00000
10000
00000
00010
00000
00000
00000
00100
00000
00010
00000
,
00100
00000
00100
00001
00000
00001
01000
00000
,
00100
10000
00100
00000
00010
01000
00010
00000
,
10000
00010
00100
00002
00000
00000
01003
00000
,
00000
00100
10000
00010
10000
00000
10100
00000
,
00010
00100
00001
01000
00010
00000
01010
00000
,
00100
00010
01000
00100
00100
00000
10100
00000
,
00101
00000
01000
00010
00000
01000
00010
00000
,
00000
00000
10000
00010
10000
00000
00100
00000
10000
00000
00001
00000
00100
00000
00010
00000
,
00100
00001
10000
00002
00000
00000
00103
00000
,
01000
00100
00000
01000
00100
00000
10000
00100
,
10000
00010
00100
00200
00000
00000
00301
00000
,
00000
01000
00100
10000
00001
00000
00001
00100
,
00000
00100
00010
01000
00200
00000
01300
00000
,
00000
00000
01000
00000
00010
00000
00100
00000
00001
00000
01000
00100
00000
00000
00000
00000
,
00000
00000
10000
00000
00100
00000
01000
00000
00001
00100
00000
00100
00000
00000
00000
00000
,
00000
00000
00001
00000
00100
00000
00010
00000
01000
00000
00010
00100
00000
00000
00000
00000
,
00000
00000
00001
00000
10000
00000
00100
00000
10000
00000
00010
01000
00000
00000
00000
00000
,
00000
00000
00010
00000
01000
00000
00100
00000
10000
00000
00010
00100
00000
00000
00000
00000
,
00000
00000
00001
00000
00100
00000
00010
00000
10000
00100
00000
00100
00000
00000
00000
00000
,
00000
00000
10000
00000
00100
00000
01000
00000
00010
00000
01000
00100
00000
00000
00000
00000
,
00010
00000
01000
00000
00100
00000
00100
00000
00000
00000
10000
00010
10000
00000
00000
00000
,
00001
00100
00010
10000
00100
10000
00010
01000
,
00001
00010
00100
10000
00000
20000
30010
00000
,
01000
00100
10000
00001
10000
00010
00100
00001
,
10000
01000
00100
00001
00000
00002
01003
00000
,
00100
01000
00001
00100
00010
10000
00001
00100
,
00010
00100
01000
10000
00000
20000
30100
00000
,
01000
00010
00100
00001
00010
00100
01000
10000
,
01000
00010
10000
00002
00000
00000
00103
00000
,
00010
00000
01000
00010
01000
00000
00010
00000
00000
00000
00100
00001
00100
00000
00000
00000
,
00010
00100
00001
01000
00000
01000
01000
00000
,
00010
01000
00100
10000
00000
10000
10000
00000
,
00001
01000
00100
01000
00000
00010
00010
00000
,
01000
00100
01000
00000
00010
00000
00000
00000
10100
00000
10100
00000
00000
00000
10100
00000
,
00000
00000
01000
00000
00010
00000
00100
00000
00001
00000
01000
00100
00000
00000
00000
00000
,
00000
00000
10000
00000
00100
00000
01000
00000
00001
00100
00000
00100
00000
00000
00000
00000
,
00000
00000
00001
00000
00100
00000
00010
00000
01000
00000
00010
00100
00000
00000
00000
00000
,
01000
00000
00010
00000
00100
00000
00100
00000
00000
00000
00001
01000
00001
00000
00000
00000
,
10000
00100
01000
00001
00100
00001
01000
00010
,
10000
01000
00100
00001
00000
00002
01003
00000
,
00010
00100
00001
10000
00001
01000
00100
10000
,
00001
00010
00100
10000
00000
20000
30010
00000
,
00100
00010
10000
00100
01000
00001
10000
00100
,
01000
00100
00010
00001
00000
00002
00103
00000
,
00010
01000
00100
10000
01000
00100
00010
00001
,
00010
01000
00001
20000
00000
00000
30100
00000
,
01000
00000
00010
01000
00010
00000
01000
00000
00000
00000
00100
10000
00100
00000
00000
00000
,
10000
00000
00100
00000
01000
00000
00010
01000
00000
00100
00000
00000
10000
00000
10000
00000
,
00001
00000
00100
00000
00010
00000
01000
00010
00000
00000
10000
00100
20000
00000
00000
00000
,
30010
00000
00100
00000
00001
00000
00100
00001
00000
01000
00000
00000
00010
00000
00010
00000
,
10000
00000
00100
00000
01000
00000
00100
01000
00000
00000
00010
00000
00100
00000
01000
00000
,
10000
00000
00100
00000
01000
00000
00010
01000
00000
00100
00000
00000
10000
00000
10000
00000
,
00001
00000
00100
00000
00010
00000
01000
00010
00000
00000
10000
00100
20000
00000
00000
00000
,
30010
00000
00100
00000
00001
00000
00100
00001
00000
01000
00000
00000
00010
00000
00010
00000
,
10000
00000
00100
00000
01000
00000
00100
01000
00000
00000
00010
00000
00100
00000
00100
00000
,
00001
00000
10000
00000
00010
01000
00010
00000
10000
00000
00002
00000
00000
00000
00000
00000
,
00000
00000
00000
00000
,
00003
00000
00000
00000
;

//---------------pump-single - ----------------
#NOTES:
     pump-single:
     :
     Medium:
     63:
     0.474,0.478,0.142,0.150,0.018,342.000,16.000,17.000,0.000,0.000:
00000
00000
00000
00000
,
00000
00000
00000
00000
,
00000
00000
00000
00000
,
00000
00000
00000
00000
,
00100
10000
01000
00000
01000
10000
00100
00100
,
01000
00010
10000
00000
10000
00010
01000
00000
,
00001
00100
00010
00000
00010
00100
00001
00001
,
01000
00000
00010
00000
00100
00000
00000
00100
00000
00000
00010
00000
10000
00000
00010
00000
,
00100
00001
00010
00000
00010
00001
00100
00100
,
00010
01000
00001
00000
00001
01000
00010
00000
,
10000
00100
01000
00000
01000
00100
10000
10000
,
00010
00000
01000
00000
00100
00000
00000
00100
00000
00000
01000
00000
00001
00000
01000
00000
,
00010
10000
00100
01000
,
00001
00100
00010
00200
00000
00000
00310
00000
,
01000
00001
10000
00100
,
01000
00010
00100
00020
00000
00000
00130
00000
,
00001
01000
00100
10000
,
00001
01000
00100
02000
00000
00000
03100
00000
,
10000
00001
01000
00001
,
00100
00010
10000
00200
00000
00000
10300
00000
,
00010
10000
00100
01000
,
00001
00100
00010
00200
00000
00000
00310
00000
,
01000
00001
10000
00100
,
01000
00010
00100
00020
00000
00000
00130
00000
,
00001
01000
00100
10000
,
00001
01000
00100
02000
00000
00000
03100
00000
,
10000
00001
01000
00001
,
00000
00100
00010
10000
00200
00000
10300
00000
,
00000
00100
00000
00100
00000
10000
00000
10000
,
00000
00010
00000
00010
00000
01000
00000
01000
,
00000
00001
00000
00001
00000
01000
00000
01000
,
00000
00010
00000
00010
00000
00100
00000
00100
,
10000
01000
00000
01000
00000
01000
00000
01000
,
10000
00010
00000
00010
00000
00010
00000
00010
,
00100
00001
00000
00001
00000
00001
00000
00001
,
10000
00001
00200
00000
00000
00000
00000
00000
,
00310
10000
00010
10000
00010
00000
00100
00000
,
00001
01000
00001
01000
00000
00000
00110
00000
,
01000
00010
01000
00010
01000
00010
01000
00000
,
00100
00001
10000
00100
00000
00000
01100
00000
,
00100
10000
00100
10000
00100
00000
10100
00000
,
00001
00100
00001
00100
00001
00000
00101
00000
,
01000
11000
00010
00011
,
00100
00010
01000
00100
00000
00000
01010
00000
,
20002
00000
00000
00000
00000
00000
00000
30003
,
00100
00001
10000
00100
,
10000
00001
00100
00001
,
10000
00100
10000
00001
,
20000
00002
00000
30003
,
00001
00010
00000
00010
00000
00010
00000
00010
,
00001
01000
00000
01000
00000
01000
00000
01000
,
00100
10000
00000
10000
00000
10000
00000
10000
,
00001
10000
00200
00000
00000
00000
00000
00000
,
01300
00001
01000
00001
01000
00000
00100
00000
,
10000
00010
10000
00010
00000
00000
01100
00000
,
00010
01000
00010
01000
00010
01000
00010
00000
,
00100
10000
00001
00100
00000
00000
00110
00000
,
00100
00001
00100
00001
00100
00000
00101
00000
,
10000
00100
10000
00100
10000
00000
10100
00000
,
00010
00011
01000
11000
,
00100
01000
00010
00100
00000
00000
01010
00000
,
20002
00000
00000
30003
,
00100
10000
01000
00000
01000
10000
00100
00100
,
01000
00010
10000
00000
10000
00010
01000
00000
,
00001
00100
00010
00000
00010
00100
00001
00001
,
01000
00000
00010
00000
00100
00000
00000
00100
00000
00000
00010
00000
10000
00000
00010
00000
,
00100
00001
00010
00000
00010
00001
00100
00100
,
00010
01000
00001
00000
00001
01000
00010
00000
,
10000
00100
01000
00000
01000
00100
10000
10000
,
00010
00000
01000
00000
00100
00000
00000
00100
00000
00000
01000
00000
00001
00000
00001
00000
,
10000
10000
00010
00010
01000
02000
00000
00000
,
00000
00000
00000
00000
,
03000
00000
00000
00000
;

//---------------pump-single - ----------------
#NOTES:
     pump-single:
     :
     Easy:
     30:
     0.200,0.318,0.027,0.124,0.000,141.000,3.000,14.000,0.000,0.000:
00000
00000
00000
00000
,
00000
00000
00000
00000
,
00000
00000
00000
00000
,
00000
00000
00000
00000
,
00001
10000
00100
10000
,
00001
01000
00010
00100
,
00001
10000
00100
01000
,
00100
10000
00010
00010
,
00001
00100
00001
01000
,
00010
00100
00010
10000
,
00001
01000
00100
10000
,
00100
10000
00001
00100
,
00110
00000
00000
00000
,
00001
00000
00000
00000
,
01000
00000
00000
00000
,
00100
00000
00000
00000
,
10000
00000
00000
00000
,
00100
00000
00000
00000
,
01000
00000
00000
00000
,
00010
00000
00000
00000
,
10000
00000
00000
00000
,
00001
00000
00000
00000
,
00100
00000
00000
00000
,
00001
00000
00000
00000
,
01000
00000
00000
00000
,
00100
00000
00000
00000
,
10000
00000
00000
00000
,
00010
00000
00000
00000
,
00200
00000
00000
00000
,
00302
00000
00000
00000
,
02003
00000
00000
00000
,
03020
00000
00000
00000
,
10030
10000
00000
00000
,
00001
00001
00000
00000
,
10000
10000
00000
00000
,
00020
00000
00000
00000
,
01030
00100
01000
00000
,
00001
00100
00001
00000
,
10000
00010
10000
00000
,
01000
00100
01000
00000
,
00001
10000
00001
00000
,
00100
00010
00100
00000
,
10000
00100
10000
00000
,
01000
00010
01000
00000
,
20002
00000
00000
00000
00000
00000
00000
30003
,
00100
00100
00000
00000
,
00010
00010
00000
00000
,
01000
01000
00000
00000
,
10000
10000
00000
00000
,
00002
00000
00000
00000
,
20003
00000
00000
00000
,
30002
00000
00000
00000
,
00203
00000
00000
00000
,
00310
01000
00100
00000
,
00100
10000
00001
00000
,
00010
01000
00100
00000
,
00100
01000
00010
00000
,
10000
00001
10000
00000
,
00010
00100
00001
00000
,
00001
01000
00100
00000
,
00100
10000
00001
00000
,
20002
00000
00000
30003
,
00010
00000
01000
00000
,
00100
00000
10000
00000
,
00010
00000
00100
00000
,
00001
00000
00100
00000
,
00100
00000
00010
00000
,
00100
00000
00001
00000
,
01000
00000
00100
00000
,
10000
00000
00010
00001
,
00001
10000
20000
00000
,
00000
00000
00000
00000
,
30000
00000
00000
00000
;

//---------------pump-single - Copied from----------------
#NOTES:
     pump-single:
     Copied from:
     Beginner:
     14:
     0.104,0.159,0.009,0.142,0.000,65.000,1.000,16.000,0.000,0.000:
00000
00000
00000
00000
,
00000
00000
00000
00000
,
00000
00000
00000
00000
,
00000
00000
00000
00000
,
00100
00000
00000
00000
,
00001
00000
00000
00000
,
00100
00000
00000
00000
,
00010
00000
00000
00000
,
00100
00000
00000
00000
,
01000
00000
00000
00000
,
00100
00000
00000
00000
,
10000
00000
00000
00000
,
00100
00000
00000
00000
,
00001
00000
00000
00000
,
10000
00000
00000
00000
,
00100
00000
00000
00000
,
10000
00000
00000
00000
,
00001
00000
00000
00000
,
01000
00000
00000
00000
,
00010
00000
00000
00000
,
00100
00000
00000
00000
,
01000
00000
00000
00000
,
00100
00000
00000
00000
,
00010
00000
00000
00000
,
10000
00000
00000
00000
,
00001
00000
00000
00000
,
01000
00000
00000
00000
,
00010
00000
00000
00000
,
00200
00000
00000
00000
,
00302
00000
00000
00000
,
20003
00000
00000
00000
,
30200
00000
00000
00000
,
02300
00000
00000
00000
,
03020
00000
00000
00000
,
02030
00000
00000
00000
,
03020
00000
00000
00000
,
10030
00000
00000
00000
,
00001
00000
00000
00000
,
10000
00000
00000
00000
,
00001
00000
00000
00000
,
01000
00000
00000
00000
,
00100
00000
00000
00000
,
01000
00000
00000
00000
,
00100
00000
00000
00000
,
02000
00000
00000
00000
,
03010
00000
00000
00000
,
00000
00000
00000
00000
,
00010
00000
00000
00000
,
00000
00000
00000
00000
,
20000
00000
00000
00000
,
30200
00000
00000
00000
,
02300
00000
00000
00000
,
03002
00000
00000
00000
,
10003
00000
00000
00000
,
00010
00000
00000
00000
,
10000
00000
00000
00000
,
00010
00000
00000
00000
,
01000
00000
00000
00000
,
00001
00000
00000
00000
,
01000
00000
00000
00000
,
00001
00000
00000
00000
,
00200
00000
00000
00000
,
00310
00000
00000
00000
,
00100
00000
00000
00000
,
00001
00000
00000
00000
,
00100
00000
00000
00000
,
01000
00000
00000
00000
,
00100
00000
00000
00000
,
10000
00000
00000
00000
,
00100
00000
00000
00000
,
20002
00000
00000
00000
,
00000
00000
00000
00000
,
30003
00000
00000
00000
;
