#TITLE:Sexy Sexy Sexy;
#SUBTITLE:;
#ARTIST:Ken Martin;
#TITLETRANSLIT:;
#SUBTITLETRANSLIT:;
#ARTISTTRANSLIT:;
#CREDIT:;
#BANNER:sexysexysexy-banner.png;
#SONGINFO:sexysexysexy-songinfo.png;
#BACKGROUND:sexysexysexy-bg.png;
#LYRICSPATH:;
#CDTITLE:./CDTITLES/neon.png;
#CHARACTER:default;
#MUSIC:Sexy Sexy Sexy.mp3;
#OFFSET:-0.940;
#SAMPLESTART:53.940;
#SAMPLELENGTH:12.000;
#SELECTABLE:YES;
#BPMS:0.000=158.000;
#STOPS:;
#BGCHANGES:;
// cache tags:
#FIRSTBEAT:8.000;
#LASTBEAT:236.000;
#SONGFILENAME:Songs/Neon FM/Sexy Sexy Sexy/Sexy Sexy Sexy.sm;
#HASMUSIC:1;
#HASBANNER:1;
#MUSICLENGTH:94.170;
// end cache tags

//---------------pump-single - ----------------
#NOTES:
     pump-single:
     :
     Hard:
     79:
     0.573,0.533,0.223,0.234,0.021,335.000,21.000,22.000,0.000,0.000:
00000
00000
00000
00000
,
00000
00000
00000
00000
,
00000
00000
00000
00000
,
00010
00000
00000
00000
00100
00000
00000
00010
01000
00000
00001
00000
00000
00000
10000
00000
,
00010
10000
00100
01000
00000
01000
00010
00200
,
00000
00301
01000
00001
10000
00010
10000
00001
,
01000
00100
00010
00100
00000
10000
01000
00100
,
00010
00000
00000
00000
01000
00000
00000
00100
10000
00000
00010
00000
00000
00000
00100
00000
,
00001
00100
00010
00001
00000
00010
10000
00200
,
00000
01300
00010
01000
00001
10000
00001
10000
,
00010
00100
00001
01000
01001
00000
10001
00000
,
01000
00000
00010
01000
00001
00100
00010
00000
,
10000
00010
01000
00000
00001
00000
01000
00000
,
00001
00100
00001
00010
00000
00010
00001
00000
,
10000
00100
01000
00100
01000
00000
01000
00000
,
00010
00100
00010
00000
01000
00100
01000
00000
,
00010
00100
00001
00000
01000
00100
10000
00000
,
00001
00100
00010
00001
00000
00000
00010
00000
,
10000
00000
10100
00000
01000
01010
00000
00000
,
00010
00000
01000
00010
10000
00100
01000
00000
,
00001
01000
00010
00000
10000
00000
00010
00000
,
10000
00100
10000
01000
00000
01000
10000
00000
,
00001
00100
00010
00100
00010
00000
00010
00000
,
01000
00100
01000
00000
00010
00100
00010
00000
,
01000
00100
10000
00000
00010
00100
00001
00000
,
10000
00100
01000
00100
00010
00100
01000
00000
,
00001
00001
00100
00100
00020
01000
00000
00000
,
10030
10001
00001
01010
,
01000
00100
10000
00001
00000
00001
00100
00000
,
00100
00010
00100
00010
00100
00010
00100
00010
,
00100
00110
00000
02100
00000
13000
00010
00000
,
00010
01001
01000
10010
,
00001
00100
00010
01000
00000
01000
00001
00000
,
10100
00000
00000
10100
00000
10100
00000
00100
,
10100
10010
11000
10001
,
00010
00000
01000
00000
00010
00000
10000
00002
,
00000
10000
10000
10003
00000
10000
00100
01000
,
00000
00010
00100
00001
01000
00100
01000
00001
,
10000
10000
00100
00100
00000
01000
00100
00010
,
01000
00000
00010
00000
01000
00000
00001
20000
,
00000
00001
00001
30001
00000
00001
00100
00010
,
00000
01000
00100
10000
00010
00100
00010
10000
,
10001
10001
00000
20002
00000
30003
00000
00200
,
00000
00310
00100
01000
00100
00020
00000
02030
,
00000
03010
00100
00001
00100
00020
00000
20030
,
00000
30100
01000
00001
00100
00002
00000
00000
,
01003
00100
01000
00100
00000
00100
10000
00002
,
00000
01003
00100
00010
00100
02000
00000
03020
,
00000
01030
00100
10000
00100
02000
00000
03002
,
00000
00103
00010
10000
00100
20000
00000
00000
,
30010
00100
00010
00100
00000
00100
00001
00000
,
01000
00000
00000
00000
00100
00000
00000
01000
00010
00000
10000
00000
00000
00000
00001
00000
,
01000
00001
00100
00010
00000
00010
01000
00200
,
00000
10300
00010
10000
00001
01000
00001
10000
,
00010
00100
01000
00100
00000
00001
00010
00100
,
01000
00000
00000
00000
00010
00000
00000
00100
00001
00000
01000
00000
00000
00000
00100
00000
,
10000
00100
01000
10000
00000
01000
00001
00200
,
00000
00310
01000
00010
10000
00001
10000
00001
,
01000
00100
10000
00010
00000
00010
01000
00100
,
10100
00000
00000
00000
;

//---------------pump-single - ----------------
#NOTES:
     pump-single:
     :
     Medium:
     60:
     0.419,0.431,0.021,0.117,0.000,263.000,2.000,11.000,0.000,0.000:
00000
00000
00000
00000
,
00000
00000
00000
00000
,
00010
00000
00100
00000
00001
00100
00000
00000
,
00001
00100
00010
01000
00000
01000
00010
01000
,
00000
00001
10000
00001
10000
00001
10000
00001
,
01000
00000
00010
10000
00000
00000
00000
00000
,
00100
00000
01000
00000
00010
10000
00000
00000
,
00010
10000
00010
01000
00000
00100
10000
00001
,
00000
01000
00010
01000
00010
01000
00010
01000
,
00001
00000
10000
00100
00000
00000
01000
00000
,
00010
01000
00010
01000
,
00001
00100
00001
00100
,
00010
10000
00000
10000
00010
00000
00010
00000
,
01000
00100
01000
00100
,
10000
10000
00100
00100
,
01000
01000
00100
00100
,
01000
00010
01000
00020
00000
00000
01030
00000
,
00000
00000
00001
00000
01000
00100
00000
00000
,
01000
00010
01000
00010
,
10000
00100
10000
00100
,
01000
00001
00000
00001
01000
00000
01000
00000
,
00010
00100
00010
00100
,
00001
00001
00100
00100
,
00010
00010
00100
00100
,
00010
01000
00010
02000
00000
00000
03010
00000
,
10000
00100
10000
00000
10000
00100
10000
00000
,
00001
00010
00100
01000
,
00001
00010
00100
02000
00000
03001
00000
00000
,
10000
00100
10000
00100
,
01000
00010
00000
00010
00000
00000
00010
00000
,
10000
01000
00100
00010
,
10000
01000
00100
00020
00000
10030
00000
00001
,
00000
00001
00100
00010
00000
00010
00000
00010
,
20000
30002
02003
03020
,
00130
00000
00001
00000
00100
00000
00001
00020
,
00000
00000
00031
00000
00001
00000
00001
01000
,
00000
01000
00100
01000
00010
00100
00010
01000
,
00001
00100
00001
01100
,
00100
00000
10000
00000
00100
00000
10000
02000
,
00000
00000
13000
00000
10000
00000
10000
00010
,
00000
00010
00100
00010
01000
00100
01000
00010
,
20000
00000
00000
00000
,
30001
00100
00010
00100
,
00001
00100
00010
00010
,
10000
00100
01000
00100
,
10000
00100
01000
01000
,
00010
00100
01000
10000
,
00001
00010
00100
01000
,
00010
10000
01000
00100
,
00010
01000
00000
01000
00000
01000
00000
01000
,
00010
00000
00100
00000
00001
00100
00000
00000
,
00001
00100
00010
01000
00000
01000
00010
01000
,
00000
00001
10000
00001
10000
00001
10000
00001
,
01000
00000
00010
10000
00000
00000
00000
00000
,
00100
00000
01000
00000
00010
10000
00000
00000
,
00010
10000
00010
01000
00000
00100
10000
00001
,
00000
01000
00010
01000
00010
01000
00010
01000
,
00001
00000
10000
00100
00000
10000
00100
00000
,
10100
00000
00000
00000
;

//---------------pump-single - ----------------
#NOTES:
     pump-single:
     :
     Easy:
     28:
     0.181,0.246,0.000,0.000,0.000,119.000,0.000,0.000,0.000,0.000:
00000
00000
00000
00000
,
00000
00000
00000
00000
,
00100
10000
00001
00000
,
00010
01000
00100
00000
,
10000
00010
00100
00000
,
00001
01000
00001
00000
,
10000
00010
00100
00000
,
00010
01000
00010
00000
,
10000
00001
00100
00000
,
00001
01000
00100
00000
,
10000
00000
00000
00000
,
00001
00000
00000
00000
,
10000
00000
00000
00000
,
00100
00000
00000
00000
,
01000
00000
00000
00000
,
00010
00000
00000
00000
,
01000
00000
00000
00000
,
00001
00000
00000
00100
,
00010
00000
00000
00000
,
10000
00000
00000
00000
,
00001
00000
00000
00000
,
00100
00000
00000
00000
,
00001
00000
00000
00000
,
01000
00000
00000
00000
,
00100
00000
00000
00000
,
10000
00000
00000
00000
,
00010
00000
00010
00000
,
01000
00000
01000
00000
,
00010
00000
00010
00000
,
00100
00000
00100
00000
,
00001
00000
00001
00000
,
10000
00000
10000
00000
,
00100
00000
00000
00000
,
00100
00000
00000
00100
,
00100
01000
00010
00010
,
00010
00000
00000
00000
,
00001
10000
00010
00100
,
00010
01000
00010
00000
,
00001
10000
00100
01000
,
00100
00000
00000
00000
,
10000
00010
00100
00001
,
01000
00001
00100
00000
,
00010
00000
00010
00000
,
01000
00000
01000
00000
,
00001
00000
00001
00000
,
10000
00000
00000
00000
,
10000
00000
10000
00000
,
00100
00000
00100
00000
,
01000
00000
01000
00000
,
00001
00000
00000
00000
,
10000
00010
00100
00000
,
00010
01000
00100
00000
,
10000
00001
01000
00000
,
00100
00001
00100
00000
,
00010
10000
00100
00000
,
10000
00001
01000
00000
,
00010
00100
00010
00000
,
01000
00001
01000
00000
,
00001
00000
00000
00000
;

//---------------pump-single - Copied from----------------
#NOTES:
     pump-single:
     Copied from:
     Beginner:
     14:
     0.085,0.123,0.000,0.000,0.000,56.000,0.000,0.000,0.000,0.000:
00000
00000
00000
00000
,
00000
00000
00000
00000
,
00010
00000
00000
00000
,
01000
00000
00000
00000
,
00001
00000
00000
00000
,
01000
00000
00000
00000
,
00010
00000
00000
00000
,
01000
00000
00000
00000
,
00010
00000
00000
00000
,
10000
00000
00000
00000
,
00100
00000
00000
00000
,
00000
00000
00000
00000
,
00001
00000
00000
00000
,
00000
00000
00000
00000
,
10000
00000
00000
00000
,
00000
00000
00000
00000
,
00100
00000
00000
00000
,
00000
00000
00000
00000
,
01000
00000
00000
00000
,
00000
00000
00000
00000
,
00001
00000
00000
00000
,
00000
00000
00000
00000
,
00010
00000
00000
00000
,
00000
00000
00000
00000
,
10000
00000
00000
00000
,
00000
00000
00000
00001
,
00100
00100
00000
00000
,
00010
00000
00000
00000
,
01000
01000
00000
00000
,
00001
00000
00000
00000
,
10000
10000
00000
00000
,
00100
00000
00000
00000
,
01000
00000
00000
00000
,
00000
00000
00000
00000
,
00100
00001
00100
00000
,
00000
00000
00000
00000
,
01000
00100
01000
00000
,
00000
00000
00000
00000
,
00010
10000
00010
00000
,
00000
00000
00000
00000
,
00100
01000
00100
00000
,
00000
00000
00000
00000
,
00001
00000
00000
00000
,
00001
00000
00000
00000
,
00001
00000
00000
00000
,
00001
00000
00000
00000
,
00100
00000
00000
00000
,
00100
00000
00000
00000
,
00100
00000
00000
00000
,
00100
00000
00000
00000
,
00010
00000
00000
00000
,
10000
00000
00000
00000
,
00001
00000
00000
00000
,
01000
00000
00000
00000
,
00100
00000
00000
00000
,
10000
00000
00000
00000
,
00010
00000
00000
00000
,
01000
00000
00000
00000
,
00010
00000
00000
00000
;
