#TITLE:Crazy 2 Course;
#SUBTITLE:;
#ARTIST:DJ ME!;
#TITLETRANSLIT:;
#SUBTITLETRANSLIT:;
#ARTISTTRANSLIT:;
#CREDIT:;
#BANNER:learning-banner.png;
#SONGINFO:learning-songinfo.png;
#BACKGROUND:learning-bg.png;
#LYRICSPATH:;
#CDTITLE:./CDTITLES/neon.png;
#CHARACTER:./SongCharacters/djpotatoe;
#MUSIC:Learning Course.mp3;
#OFFSET:-0.540;
#SAMPLESTART:53.760;
#SAMPLELENGTH:12.000;
#SELECTABLE:NONSTOP;
#BPMS:0.000=90.000,384.000=104.000,448.000=52.000,464.000=104.000;
#STOPS:;
#BGCHANGES:;
#NONSTOPSONGS:Songs/Neon FM/Ondo/,Songs/Neon FM/Girls Buttz/,Songs/Neon FM/Ondo/,Songs/Neon FM/Girls Buttz/,Songs/Neon FM/Ondo/,Songs/Neon FM/Girls Buttz/,Songs/Neon FM/Ondo/,Songs/Neon FM/Girls Buttz/;
#NONSTOPTITLECHANGES:384.000,448.000,464.000;
// cache tags:
#FIRSTBEAT:8.000;
#LASTBEAT:567.000;
#SONGFILENAME:Songs/Neon FM/Course Crazy 2/Course Crazy 2.sm;
#HASMUSIC:1;
#HASBANNER:1;
#MUSICLENGTH:533.014;
// end cache tags

//---------------pump-single - ----------------
#NOTES:
     pump-single:
     :
     Hard:
     1:
     0.240,0.439,0.049,0.131,0.036,799.000,26.000,70.000,0.000,0.000:
00000
00000
00000
00000
,
00000
00000
00000
00000
,
10000
00100
00000
10000
00000
00000
00000
00000
,
00010
01000
00000
00001
00000
00000
00000
00000
,
00100
00001
10000
00000
00010
00100
01000
00000
,
10000
00010
00100
00000
00001
01000
00001
00010
,
00001
00000
10000
00000
00010
01000
00001
00100
,
00100
00000
00100
00000
00010
01000
00100
10000
,
00001
00000
10000
00000
00001
00010
00001
01000
,
00100
00000
01000
00000
00010
00100
00010
00100
,
00002
00000
01003
00000
00100
01000
00100
10000
,
00100
00000
10000
00000
00010
00100
00010
00000
,
00100
00010
01000
00000
00001
10000
00100
00000
,
01000
00001
00100
00000
00010
10000
00010
00001
,
00010
00000
01000
00000
00001
10000
00010
00100
,
00100
00000
00100
00000
00001
10000
00100
01000
,
00010
00000
01000
00000
00010
00001
00010
10000
,
00100
00000
10000
00000
00001
00100
00001
00100
,
00020
00000
10030
00000
00100
10000
00100
01000
,
00100
00000
01000
00000
00001
00100
00001
00000
,
10000
00100
10000
01000
10000
20000
00000
30001
,
00000
00000
00000
00000
01000
00100
10000
00000
,
00010
00100
00010
10000
00100
00200
00000
01300
,
00000
00000
00001
00000
00010
00100
00010
00000
,
10000
10000
10000
00000
00100
00100
00100
00000
,
01000
01000
01000
00000
00010
00010
00010
00000
,
01000
00001
00100
00010
00100
00001
01000
00002
,
00000
00000
10003
01000
,
20000
00000
00000
00000
,
30100
01000
00010
00100
00010
01000
00100
00000
,
01000
00001
00001
00001
00000
00000
00000
00000
,
01000
00100
00100
00100
00000
00000
00000
00000
,
10000
00010
10000
00010
,
00100
00001
01000
00001
00000
10000
00100
01000
,
00010
01000
00001
10000
,
00100
01000
00100
00000
00100
01000
00100
00000
,
00100
00010
00100
00000
00100
00010
00100
00000
,
00001
00001
10000
10000
,
00100
10000
00001
00100
00010
00100
00001
00000
,
10000
00000
00010
00000
,
01000
01000
00001
00000
,
00100
00000
00010
00000
,
00100
00001
10000
00000
,
00020
00000
10030
00000
,
10000
00100
01000
00010
,
00100
00001
00100
00010
,
01000
00100
10000
01000
,
00100
00010
00001
00010
,
01000
01000
00200
00000
10300
00000
00010
00000
,
01000
01000
00002
00000
00103
00000
00010
00000
,
10000
10000
00200
00000
01300
00000
00010
00000
,
00001
00001
00020
00000
00130
00000
01000
00000
,
10000
00100
10000
00100
00000
00100
01000
00000
,
00001
00100
00001
00010
00000
00010
00001
00000
,
01000
00100
00010
00100
00000
00100
01000
00000
,
00001
00100
00010
00100
00000
00100
00001
00000
,
10000
00100
00100
00100
01000
00000
00001
00000
,
00000
00010
00001
00100
00010
00100
00001
00010
,
00000
00001
00100
00000
00010
00000
00010
00000
,
00010
00100
00001
00000
10000
00000
10000
00000
,
10100
00000
10100
00000
01000
00010
01000
00001
,
00000
10000
00100
01000
00100
00000
00100
00000
,
00000
00100
01000
00001
01000
00010
00100
00010
,
10000
00001
10000
00001
01000
00010
01000
00010
,
02000
03100
01100
00000
,
00020
00130
00000
00110
,
20000
30100
10100
00000
,
00002
00103
00000
00101
,
10000
00100
01000
00100
00000
00000
00000
00000
,
00001
00100
00010
00100
00000
00000
00000
00000
,
01000
00010
00100
00010
00000
00000
00000
00000
,
00010
01000
00100
01000
00000
00000
00000
00000
,
10000
00001
00100
00001
01000
00100
00000
00000
,
01000
00100
00010
00100
01000
00000
00000
00000
,
00001
00100
00010
01000
00001
01000
00000
00000
,
01000
00100
10000
00100
01000
00000
00000
00000
,
00001
00100
00010
00100
00001
00100
00010
00000
,
10000
00100
01000
00100
10000
00100
01000
00000
,
00100
01000
00001
01000
00100
01000
00001
00000
,
00100
00010
10000
00010
00100
00010
10000
00000
,
00010
00010
00200
00000
00301
00000
01000
00000
,
00010
00010
20000
00000
30100
00000
01000
00000
,
00001
00001
00200
00000
00310
00000
01000
00000
,
10000
10000
02000
00000
03100
00000
00010
00000
,
00001
00100
00001
00100
00000
00100
00010
00000
,
10000
00100
10000
01000
00000
01000
10000
00000
,
00010
00100
01000
00100
00000
00100
00010
00000
,
10000
00100
01000
00100
00000
00100
10000
00000
,
00001
00100
00010
00100
00010
01000
00100
01000
,
00001
10000
00100
01000
00010
01000
00001
10000
,
00010
00100
01000
10000
00010
01000
00001
00100
,
00010
00100
00001
10000
00010
01000
00100
01000
,
00001
00010
00100
00010
00001
10000
01000
00100
,
01000
10000
00100
01000
00010
01000
00100
10000
,
00010
00100
01000
00100
00010
01000
00001
00010
,
00001
01000
00001
10000
01000
10000
00100
00100
,
20000
00000
00000
00000
00000
00000
00000
00000
00000
00000
00000
00000
00000
00000
00000
00000
00000
00000
00000
00000
00000
00000
00000
00000
00000
00000
00000
00000
30200
00000
00000
00000
00000
00000
00000
00000
00000
00000
00000
00000
00000
00000
00000
00000
00000
00000
00000
00000
00000
00000
00000
00000
00000
00000
00000
00000
00000
00000
00000
00000
00000
00000
00000
00000
00000
00000
00000
00000
00000
00000
00000
00000
00000
00000
00000
00000
00000
00000
00000
00000
00000
00000
00000
00000
02300
00000
00000
00000
00000
00000
00000
00000
00000
00000
00000
00000
00000
00000
00000
00000
00000
00000
00000
00000
00000
00000
00000
00000
00000
00000
00000
00000
00000
00000
00000
00000
00000
00000
00000
00000
00000
00000
00000
00000
00000
00000
00000
00000
00000
00000
00000
00000
00000
00000
00000
00000
00000
00000
00000
00000
00000
00000
00000
00000
00000
00000
00000
00000
00000
00000
03002
00000
00000
00000
00000
00000
00000
00000
00000
00000
00000
00000
00000
00000
00000
00000
00000
00000
00000
00000
00000
00000
00000
00000
00000
00000
00000
00000
00000
00000
00000
00000
00000
00000
00000
00000
00000
00000
00000
00000
00000
00000
,
00000
00000
00000
00000
00000
00000
00000
00203
00000
00000
00000
00000
00000
00000
00000
00000
00000
00000
00000
00000
00000
00000
00000
00000
00000
00000
00000
00000
00000
00000
00000
00000
,
00310
10000
00000
00010
00100
00000
00001
00000
,
01000
00100
00000
10000
01000
00000
10000
00000
,
00010
01000
00000
00001
00100
00000
00010
00000
,
01000
00100
00000
01000
00010
00000
00100
00000
,
00010
00100
00000
01000
00100
00000
00001
00000
,
10000
00100
00000
01000
00010
00000
10000
00010
,
00200
00000
00301
00010
00001
01000
00100
10000
,
00020
02030
03020
02030
,
03200
00000
10300
00010
01000
00001
00100
00010
,
20000
30002
20003
30002
,
00203
00000
00301
00010
00001
01000
00100
10000
,
00020
02030
03020
02030
,
03200
00000
10300
00010
01000
00001
00100
00010
,
20000
30002
20003
30002
,
10003
01000
10000
00100
01000
00100
10000
00010
00200
00000
00302
00000
00203
00000
00302
00000
,
01003
00100
10000
00010
00100
00001
01000
00010
20000
00000
30200
00000
20300
00000
30200
00000
,
10300
01000
10000
00100
01000
00100
10000
00010
00200
00000
00302
00000
00203
00000
00302
00000
,
01003
00100
10000
00010
00100
00001
01000
00010
20000
00000
30200
00000
20300
00000
30200
00000
,
01300
00010
00000
01000
00010
00000
10000
00000
00001
00000
00000
00000
00001
00000
00000
00000
,
10000
01000
00000
10000
01000
00000
10000
00000
00100
00000
00000
00000
00100
00000
00000
00000
,
01000
00001
00000
00001
00100
00000
00010
00000
01000
00000
00000
00000
01000
00000
00000
00000
,
00010
10000
00000
00001
00000
01000
00100
00000
10000
00000
00100
00000
10000
00000
00100
00000
,
01000
00010
00000
01000
00010
00000
10000
00000
00001
00000
00000
00000
00001
00000
00000
00000
,
10000
01000
00000
10000
01000
00000
10000
00000
00100
00000
00000
00000
00100
00000
00000
00000
,
01000
00001
00000
00001
00100
00000
00010
00000
01000
00000
00000
00000
01000
00000
00000
00000
,
00010
10000
00000
00001
00000
01000
00100
00000
10000
00000
00100
00000
10000
00000
00100
00000
,
01000
00001
01000
00002
00000
00103
00010
00100
,
00001
20000
00000
00100
30000
00100
00000
00100
,
01000
00001
01000
00002
00000
01003
00100
01000
,
01010
01010
01010
01010
,
01000
00001
01000
00002
00000
00103
00010
00100
,
00001
20000
00000
00100
30000
00100
00000
00100
,
01000
00001
01000
00001
10000
00100
10000
00010
,
00110
00110
00110
00110
,
00010
10000
00010
20000
00000
30100
01000
00100
,
10000
00002
00000
00100
00003
00100
00000
00100
,
00010
10000
00010
20000
00000
30010
00100
00010
,
01010
01010
01010
01010
,
00010
10000
00010
20000
00000
30100
01000
00100
,
10000
00002
00000
00100
00003
00100
00000
00100
,
00010
10000
00010
10000
00001
00100
00001
01000
,
01100
01100
01100
01100
,
10000
00100
01000
00010
10000
00100
01000
00010
,
10010
01001
10010
01001
;
