#TITLE:I Gotta Kick My Love Right Now;
#SUBTITLE:;
#ARTIST:Hiro feat. Sakky;
#TITLETRANSLIT:;
#SUBTITLETRANSLIT:;
#ARTISTTRANSLIT:;
#CREDIT:;
#BANNER:kickmylove-banner.png;
#SONGINFO:kickmylove-songinfo.png;
#BACKGROUND:kickmylove-bg.png;
#LYRICSPATH:;
#CDTITLE:./CDTITLES/hiro-ugd.png;
#CHARACTER:./SongCharacters/hiro;
#MUSIC:Kick My Love.ogg;
#OFFSET:-0.100;
#SAMPLESTART:50.960;
#SAMPLELENGTH:12.000;
#SELECTABLE:YES;
#BPMS:0.000=132.000;
#STOPS:;
#BGCHANGES:-2.000=visffd320.avi=1.000=1=1=0
;
// cache tags:
#FIRSTBEAT:16.000;
#LASTBEAT:226.000;
#SONGFILENAME:Songs/Neon FM/Gotta Kick My Love/Kick My Love.sm;
#HASMUSIC:1;
#HASBANNER:1;
#MUSICLENGTH:104.150;
// end cache tags

//---------------pump-single - ----------------
#NOTES:
     pump-single:
     :
     Hard:
     67:
     0.376,0.434,0.010,0.173,0.182,255.000,1.000,18.000,0.000,0.000:
00000
00000
00000
00000
,
00000
00000
00000
00000
,
00000
00000
00000
00000
,
00000
00000
00000
00000
,
10000
00000
00000
00001
00000
10000
00000
00000
00000
00000
00000
00000
,
00000
00000
01000
00010
00000
00000
00000
00000
00000
00000
00000
00000
00100
00000
00000
00000
00000
00000
00001
00000
00000
00000
00000
00000
,
10000
00000
00000
00100
00000
10000
00000
00000
00000
00000
00000
00000
,
00100
01000
00010
10000
00000
00000
00000
00000
,
00010
00000
00000
00000
00000
00000
01000
00000
00000
00000
00000
00000
00000
00000
00010
10000
00000
00000
00001
00000
00000
00000
00000
00000
,
00100
00000
00000
00010
00000
00000
01000
00000
00000
00100
00000
00000
00000
00000
10000
00100
00000
00000
01000
00000
00000
00000
00000
00000
,
00010
00000
00000
00000
00000
00000
00100
00000
00000
00000
00000
00000
00000
00000
00001
10000
00000
00000
00100
00000
00000
00000
00000
00000
,
01000
00000
00000
00100
00000
00000
10000
00000
00000
00001
00000
00000
00000
00000
00100
00010
00000
00000
01000
00000
00000
00000
00000
00000
,
00100
00000
00000
00000
00000
00000
00100
00000
00000
00000
00000
00000
00000
00000
10000
00001
00000
00000
00010
00000
00000
00000
00000
00000
,
00100
00000
00000
00100
00000
00000
00100
00000
00000
00000
00000
00000
00000
00000
01000
00100
00000
00000
10000
00000
00000
00000
00000
00000
,
00010
10000
00001
01000
,
00100
00000
01100
00000
00000
10000
00001
02000
,
00010
00000
00000
00000
00000
00000
03100
00000
00000
00000
00000
00000
00000
00000
10000
00100
00000
00000
10000
00000
00000
00000
00000
00000
,
00001
00000
01000
00001
00000
01000
00100
20000
,
00100
00000
00000
00000
00000
00000
31000
00000
00000
00000
00000
00000
00000
00000
10000
00010
00000
00000
00100
00000
00000
00000
00000
00000
,
00001
00000
01000
00010
00000
00100
00001
02000
,
00010
00000
00000
00000
00000
00000
03100
00000
00000
00000
00000
00000
00000
00000
10000
01000
00000
00000
10000
00000
00000
00000
00000
00000
,
00100
00000
01000
00001
00000
00100
00010
20000
,
00100
00000
00000
00000
00000
00000
30010
00000
00000
00000
00000
00000
00000
00000
10000
00010
00000
00000
01000
00000
00000
00000
00000
00000
,
00200
20300
30002
00203
,
00310
00000
00000
00000
00010
00000
00000
00010
00000
00000
00000
00000
01000
00000
00000
00000
,
00100
00000
00000
10000
00000
00000
00010
00000
00000
00000
00000
00000
00000
00000
01000
00001
00000
00000
01000
00000
00000
00000
00000
00000
,
00010
00000
00000
00000
00010
00000
00000
00010
00000
00000
00000
00000
00100
00000
10000
00000
,
00002
20003
30020
00030
,
00100
00000
00000
00000
00100
00000
00000
00100
00000
00000
00000
00000
10000
00000
00000
00000
,
00010
00000
00000
00100
00000
00000
00001
00000
00000
00000
00000
00000
00000
00000
01000
00100
00000
00000
10000
00000
00000
00000
00000
00000
,
00001
00000
00000
00000
00001
00000
00000
00001
00000
00000
00100
00000
00010
00000
02000
00000
,
00000
00000
00000
00020
00000
00000
03030
00000
,
00100
00000
00000
00000
00100
00000
00000
00100
00000
00000
00000
00000
10000
00000
00000
00000
,
00010
00000
00000
00100
00000
00000
00001
00000
00000
00000
00000
00000
00000
00000
01000
00100
00000
00000
10000
00000
00000
00000
00000
00000
,
10000
00100
01000
00000
01000
00100
10000
00000
,
00001
00100
00010
00000
00010
00100
00001
00000
,
00100
00000
00000
00010
00000
00000
10000
00000
00000
00000
00000
00000
00000
00000
10000
00010
00000
00000
00100
00000
00000
00000
00000
00000
,
00001
00000
00000
10000
00000
00000
00010
00000
00000
00000
00000
00000
00000
00000
00010
10000
00000
00000
00001
00000
00000
00000
00000
00000
,
00100
00000
00000
00010
00000
00000
01000
00000
00000
00000
00000
00000
00000
00000
01000
00010
00000
00000
00100
00000
00000
00000
00000
00000
,
00001
00000
00000
01000
00000
00000
00010
00000
00000
00000
00000
00000
00000
00000
00010
01000
00000
00000
00001
00000
00000
00000
00000
00000
,
10000
10000
00100
00000
,
00000
01000
01000
00001
00100
00000
00000
00000
,
00010
00010
10000
00000
,
00000
00100
00100
01000
00010
00000
00000
00000
,
01000
01000
00001
00000
,
00000
10000
10000
00010
01000
00000
00000
00000
,
00010
00010
01000
00000
,
00001
00000
10000
00001
00000
10000
00001
00000
10000
00001
00000
10000
00010
00000
01000
00000
00010
00000
00100
00000
00000
00000
00000
00000
,
00010
00000
00000
00000
00010
00000
00000
00010
00000
00000
00000
00000
01000
00000
00000
00000
,
00100
00000
00000
10000
00000
00000
00010
00000
00000
00000
00000
00000
00000
00000
01000
00001
00000
00000
01000
00000
00000
00000
00000
00000
,
00010
00000
00000
00000
00010
00000
00000
00010
00000
00000
00000
00000
00100
00000
10000
00000
,
00002
20003
30020
00030
,
00100
00000
00000
00000
00100
00000
00000
00100
00000
00000
00000
00000
10000
00000
00000
00000
,
00010
00000
00000
00100
00000
00000
00001
00000
00000
00000
00000
00000
00000
00000
01000
00100
00000
00000
10000
00000
00000
00000
00000
00000
,
00001
00000
00000
00000
00001
00000
00000
00001
00000
00000
00100
00000
00010
00000
02000
00000
,
00000
00000
00000
00020
00000
00000
03030
00000
,
00100
00000
00000
00000
00100
00000
00000
00100
00000
00000
00000
00000
00000
00000
00000
00000
;

//---------------pump-single - ----------------
#NOTES:
     pump-single:
     :
     Medium:
     46:
     0.299,0.298,0.038,0.154,0.072,198.000,4.000,16.000,0.000,0.000:
00000
00000
00000
00000
,
00000
00000
00000
00000
,
00000
00000
00000
00000
,
00000
00000
00000
00000
,
10000
00000
00000
00000
00001
00000
00000
10000
00000
00000
00000
00000
00000
00000
00000
00000
,
00000
00000
00100
00100
,
01000
00000
00000
00000
00010
00000
00000
01000
00000
00000
00000
00000
00000
00000
00000
00000
,
00010
10000
00001
00000
,
01000
00000
00100
00000
10000
00100
10000
00000
,
00001
00100
00010
00000
,
01000
00000
00100
00000
10000
00010
10000
00000
,
00100
01000
00001
00000
,
01000
00010
01000
00000
00100
00000
10000
00000
,
00002
00000
00000
10003
,
00100
00010
01000
00100
,
00000
00000
00000
00000
00000
01000
00100
02000
,
00000
00100
00000
03001
,
00100
00000
00000
00010
00000
00000
01000
00000
00000
00000
00001
00000
10000
00000
00200
00000
,
00000
01000
00000
10300
,
00010
00000
01000
00001
00000
00001
10000
00020
,
00000
00100
00000
01030
,
00100
00000
00000
10000
00000
00000
01000
00000
00000
00000
10000
00000
00010
00000
02000
00000
,
00000
00010
00000
03001
,
10000
00001
01000
00010
,
01000
00000
00000
00000
00001
00000
00000
01000
00000
00000
00000
00000
01010
00000
00000
00000
,
00000
10000
00010
00000
00000
10000
00010
00000
,
00001
00000
00000
00000
01000
00000
00000
00100
00000
00000
00000
00000
10000
00000
00000
00000
,
00100
01000
00100
00000
,
01000
00000
00000
00000
00010
00000
00000
10000
00000
00000
00000
00000
10010
00000
00000
00000
,
00000
01000
00010
00000
00000
01000
00010
00000
,
00100
00000
00000
00000
00001
00000
00000
01000
00000
00000
00000
00000
00001
00000
10000
00000
,
00002
00000
00000
20003
00000
00000
00000
00000
,
30001
00100
00010
01000
,
00100
00000
10000
00000
00010
00010
01000
00000
,
00001
10000
00010
01000
,
00100
00000
01000
00000
00010
00010
00100
00000
,
00001
00100
00010
01000
,
00100
00000
10000
00000
00010
00010
10000
00000
,
00001
00100
00010
01000
,
00010
00000
00100
00000
00001
00001
10000
10000
,
00020
00100
00130
00000
,
00002
01000
01003
00000
,
00200
10000
10300
00000
,
00020
01000
01030
00000
,
00002
00100
01003
00000
,
00020
01000
10030
00000
,
00200
10000
00310
00000
,
10000
00000
00000
00001
00000
00000
01000
00010
01000
00010
00000
00000
,
01000
00000
00000
00000
00001
00000
00000
01000
00000
00000
00000
00000
01010
00000
00000
00000
,
00000
10000
00010
00000
00000
10000
00010
00000
,
00001
00000
00000
00000
01000
00000
00000
00100
00000
00000
00000
00000
10000
00000
00000
00000
,
00100
01000
00100
00000
,
01000
00000
00000
00000
00010
00000
00000
10000
00000
00000
00000
00000
10010
00000
00000
00000
,
00000
01000
00010
00000
00000
01000
00010
00000
,
00100
00000
00000
00000
00001
00000
00000
01000
00000
00000
00000
00000
00001
00000
10000
00000
,
00002
00000
00000
20003
00000
00000
00000
00000
,
30001
00000
00000
00000
00100
00000
00000
00010
00000
00000
00000
00000
00000
00000
00000
00000
;

//---------------pump-single - ----------------
#NOTES:
     pump-single:
     :
     Easy:
     21:
     0.148,0.217,0.000,0.000,0.000,108.000,0.000,0.000,0.000,0.000:
00000
00000
00000
00000
,
00000
00000
00000
00000
,
00000
00000
00000
00000
,
00000
00000
00000
00000
,
00001
00000
00010
00000
,
00000
00000
00000
00000
,
10000
00000
01000
00000
,
00000
00000
00000
00000
,
00100
00001
10000
00000
,
00100
10000
00001
00000
,
00100
00001
10000
00000
,
00100
10000
00001
00000
,
00010
01000
00100
00000
,
01000
00010
00100
00000
,
00010
01000
00100
00000
,
01000
00010
00100
00000
,
10000
10000
00100
00000
,
00001
00001
00100
00000
,
01000
01000
00100
00000
,
00010
00010
00100
00000
,
10000
00001
10000
00000
,
00001
10000
00001
00000
,
01000
00010
01000
00000
,
00010
01000
00010
01000
,
00001
00000
10000
00000
,
00001
00000
10000
00000
,
00010
00000
01000
00000
,
00010
00000
01000
00000
,
00100
00000
10000
00000
,
00001
00000
00100
00000
,
00010
00000
01000
00000
,
00010
00000
01000
00000
,
00100
00000
00000
00000
,
00001
00000
00000
00000
,
10000
00000
00000
00000
,
00010
00000
00000
00000
,
01000
00000
00000
00000
,
00100
00000
00000
00000
,
10000
00000
00000
00000
,
00001
00000
00000
00000
,
00100
00100
00000
00000
,
00000
00000
00000
00000
,
00010
00010
00000
00000
,
00000
00000
00000
00000
,
01000
01000
00000
00000
,
00000
00000
00000
00000
,
00100
00100
00000
00000
,
00000
00000
00000
00000
,
10000
00001
10000
00000
,
00000
00100
00000
00100
,
10000
00001
10000
00000
,
00000
00100
00000
00100
,
00010
01000
00010
00000
,
00000
00100
00000
00100
,
01000
00010
01000
00000
,
00000
00100
00000
00100
,
00001
01000
00001
00000
;

//---------------pump-single - Copied from----------------
#NOTES:
     pump-single:
     Copied from:
     Beginner:
     10:
     0.064,0.081,0.000,0.000,0.000,47.000,0.000,0.000,0.000,0.000:
00000
00000
00000
00000
,
00000
00000
00000
00000
,
00000
00000
00000
00000
,
00000
00000
00000
00000
,
00010
00000
00000
00000
,
01000
00000
00000
00000
,
00010
00000
00000
00000
,
01000
00000
00000
00000
,
00001
00000
00000
00000
,
00100
00000
00000
00000
,
00001
00000
00000
00000
,
00100
00000
00000
00000
,
00010
00000
00000
00000
,
01000
00000
00000
00000
,
00010
00000
00000
00000
,
01000
00000
00000
00000
,
10000
00000
00000
00000
,
00000
00000
00000
00000
,
10000
00000
00000
00000
,
00000
00000
00000
00000
,
00001
00000
00000
00000
,
00000
00000
00000
00000
,
00001
00000
00000
00000
,
00000
00000
00000
00000
,
00010
00000
00000
00000
,
01000
00000
00000
00000
,
00100
00000
00000
00000
,
00001
00000
00000
00000
,
00010
00000
00000
00000
,
01000
00000
00000
00000
,
00100
00000
00000
00000
,
10000
00000
00000
00000
,
00010
00000
00000
00000
,
00000
00000
00000
00000
,
01000
00000
00000
00000
,
00000
00000
00000
00000
,
00001
00000
00000
00000
,
00000
00000
00000
00000
,
10000
00000
00000
00000
,
00000
00000
00000
00100
,
00100
00000
00000
00000
,
00000
00000
00000
00001
,
00001
00000
00000
00000
,
00000
00000
00000
10000
,
10000
00000
00000
00000
,
00000
00000
00000
00100
,
00100
00000
00000
00000
,
00000
00000
00000
00000
,
00010
00000
00000
00000
,
00010
00000
00000
00000
,
00010
00000
00000
00000
,
00010
00000
00000
00000
,
01000
00000
00000
00000
,
01000
00000
00000
00000
,
01000
00000
00000
00000
,
01000
00000
00000
00000
,
00100
00001
10000
00000
;
