#TITLE:A Bride In Dream;
#SUBTITLE:;
#ARTIST:BeautifulDay;
#TITLETRANSLIT:;
#SUBTITLETRANSLIT:;
#ARTISTTRANSLIT:;
#CREDIT:PopnKO;
#BANNER:A Bride In Dream-banner.png;
#SONGINFO:abrideindream-songinfo.png;
#BACKGROUND:A Bride In Dream-bg.png;
#LYRICSPATH:;
#CDTITLE:./CDTITLES/o2jam.png;
#CHARACTER:default;
#MUSIC:A Bride In Dream.mp3;
#OFFSET:-0.060;
#SAMPLESTART:24.820;
#SAMPLELENGTH:16.000;
#SELECTABLE:YES;
#BPMS:0.000=116.000,80.000=58.000,88.000=116.000,104.000=29.000,105.000=116.000;
#STOPS:;
#BGCHANGES:-2.000=visffd320_2.avi=1.000=1=1=0
;
// cache tags:
#FIRSTBEAT:12.000;
#LASTBEAT:173.000;
#SONGFILENAME:Songs/Neon FM/A Bride In Dream/A Bride In Dream.sm;
#HASMUSIC:1;
#HASBANNER:1;
#MUSICLENGTH:97.253;
// end cache tags

//---------------pump-single - Steps for Mix 2----------------
#NOTES:
     pump-single:
     Steps for Mix 2:
     Hard:
     84:
     0.532,0.734,0.288,0.267,0.617,308.000,28.000,26.000,0.000,0.000:
00000
00000
00000
00000
,
00000
00000
00000
00000
,
00000
00000
00000
00000
,
00000
00000
00000
00000
,
01010
00000
00000
10000
01000
00100
00010
00001
,
00000
00000
00001
00000
00000
00000
00010
00000
00100
00001
00000
00010
00000
00000
00100
00000
,
01000
00000
00000
00000
00100
00000
10000
00000
00000
01000
00000
00100
00000
00000
00010
00000
,
00001
00010
00000
00010
00100
00000
00100
00000
00100
01000
00000
01000
00000
10000
00000
10000
,
01000
00000
00000
00001
00010
00100
01000
10000
,
00000
00000
10000
00000
00000
00000
01000
00000
00100
10000
00000
01000
00000
00000
00100
00000
,
00010
00000
00000
00000
00100
00000
00001
00000
00000
00010
00000
00100
00000
00000
01000
00000
,
00011
00000
00000
00000
01100
00000
00000
00000
11000
00000
00000
00000
00010
01000
00010
00000
,
00001
00000
00001
00010
00000
00010
00100
00000
00000
01000
00000
01000
00000
00000
10000
00000
,
00001
00000
00001
00010
00000
00010
00100
00000
00000
01000
00000
01000
00000
00000
10000
00000
,
00100
00000
10000
01000
00000
01000
00100
00000
00000
00010
00000
00010
00000
00000
00001
00000
,
10000
00000
10000
01000
00000
01000
00100
00000
00000
00010
00000
00010
00001
00010
00000
00001
,
00010
00000
00100
00010
00000
00100
01000
00000
10000
01000
00000
00100
00000
00000
00010
00001
,
00010
00000
00100
00010
00000
00100
01000
00000
10000
01000
00000
00100
00000
00000
00010
00100
,
01000
00000
00100
01000
00000
00100
00010
00000
00001
00010
00000
00100
00000
00000
01000
10000
,
01000
00000
00100
01000
00000
00100
00010
00000
00001
00010
00000
00100
00000
01000
00000
00000
,
10000
01000
00010
00001
00000
00001
00100
10000
10000
01000
00010
00001
00000
10000
00100
00001
,
00010
00000
00001
00000
00100
00000
10000
00000
01000
00000
10000
00000
01000
00000
00100
00000
00001
00000
01000
00000
00001
00000
00100
00000
00001
00000
01000
00000
00010
00100
00010
00100
,
00010
00000
00010
00000
01000
00000
10000
01000
10000
00000
00000
00100
00000
00000
00001
00000
,
00001
00000
00010
00000
01000
00000
10000
01000
10000
00000
00000
00100
00000
00000
00001
00000
,
00001
00000
00001
00010
00001
00000
00100
00010
00100
00000
00100
01000
10000
00000
10000
01000
,
00100
00000
00001
00010
00001
00000
00100
00010
00100
00000
01100
00000
00110
00000
01100
00000
,
10000
00000
00000
00000
00101
00000
00001
00010
00000
00010
00100
00000
00000
01000
00000
01000
,
00000
00000
10100
00000
00101
00000
00001
00010
00000
00010
00100
00000
00000
01000
00000
01000
,
00000
00000
10100
00000
10100
00000
10000
01000
00000
01000
00100
00000
00000
00010
00000
00010
,
00000
00000
00101
00000
10100
00000
10000
01000
00000
01000
00100
00000
00000
00010
00000
00010
,
00000
00001
00000
00001
00010
00000
00100
00010
00000
00100
01000
00000
10000
01000
00000
00100
,
00000
00000
00010
00001
00010
00000
00100
00010
00000
00100
01000
00000
10000
01000
00000
00100
,
00000
00000
00010
00100
01000
00000
00100
01000
00000
00100
00010
00000
00001
00010
00000
00100
,
00000
00000
01000
10000
01000
00000
00100
01000
00000
00100
00010
00000
00001
00010
00000
00100
,
00000
01000
00000
00000
20200
00000
30300
00000
01000
00000
00100
00000
02020
00000
03030
00000
,
00100
00010
00202
00303
00010
01000
20200
30300
,
01000
00010
00202
00303
00001
00010
02020
03030
,
10000
00000
01000
00000
01010
00000
00000
01010
00000
00000
01010
00000
00000
00000
00100
00000
,
00010
00001
00022
00033
00010
00100
00220
00330
,
00100
01000
02200
03300
01000
10000
22000
33000
,
10000
00020
02000
00000
00000
00000
00000
03030
,
00000
20200
00000
00000
00000
00000
00000
30300
,
00000
02000
00020
00000
00000
00000
00000
00000
,
00000
03030
00000
00000
;

//---------------pump-single - ----------------
#NOTES:
     pump-single:
     :
     Medium:
     52:
     0.322,0.464,0.093,0.031,0.118,207.000,9.000,3.000,0.000,0.000:
00000
00000
00000
00000
,
00000
00000
00000
00000
,
00000
00000
00000
00000
,
00000
00000
00000
00000
,
00001
00000
00000
10000
00100
01000
00010
00100
,
00000
00001
00100
00000
00000
00000
00001
00000
,
00000
01000
00000
00010
,
00000
10000
00000
00100
,
10000
00000
00000
00001
01000
00010
00100
00001
,
00000
10000
00100
00000
00000
00000
01000
00000
,
00000
00010
00000
00100
,
01010
01010
01010
01010
,
01010
00000
00000
10000
00100
01000
00010
00100
,
00000
00001
00000
10000
00100
01000
00010
00100
,
00000
00001
00000
10000
00100
01000
00010
00100
,
00000
00000
00001
10000
00001
00000
10000
00000
,
01010
00000
00000
00001
00100
00010
01000
00100
,
00000
10000
00000
00001
00100
00010
01000
00100
,
00000
10000
00000
00001
00100
00010
01000
00100
,
10000
00001
10000
00001
,
10000
00001
10000
00000
00010
01000
00000
00000
10000
00010
10000
00000
01000
00001
00000
00000
,
00001
10000
00001
00000
01000
00010
00000
00000
00001
01000
00001
00000
00010
10000
00000
00000
,
10000
00100
10000
00100
10000
00000
10100
00000
,
00010
01000
00010
01000
00010
00000
01010
00000
,
00001
00100
00001
00100
00001
10000
00100
02000
,
00000
00100
00000
00010
,
03002
00000
01003
00000
00000
10000
00100
01000
,
00010
00100
00000
00001
00000
10000
00100
01000
,
00010
00100
00000
00001
00000
10000
00100
01000
,
00010
00100
00000
00000
00001
10000
00001
00000
,
10000
00000
01010
00000
00000
00001
00100
00010
,
01000
00100
00000
10000
00000
00001
00100
00010
,
01000
00100
00000
10000
00000
00001
00100
00010
,
01000
00100
10000
00000
00001
00000
10000
00000
,
00001
00000
00000
00000
10000
00000
00000
10000
00000
00000
10000
00000
00010
00000
00000
00010
,
00000
00000
00010
00000
01000
00000
00000
01000
00000
00000
01000
00000
00001
00000
00000
00001
,
00000
00000
00001
00000
00100
00000
00000
00100
00000
00000
00100
00000
00010
00000
00000
00010
,
00000
00000
00010
00000
01000
00000
00000
01000
00000
00000
01000
00000
00100
00000
00000
00000
,
01000
00000
00000
00000
10000
00000
00000
10000
00000
00000
10000
00000
00010
00000
00000
00010
,
00000
00000
00010
00000
01000
00000
00000
01000
00000
00000
01000
00000
00001
00000
00000
00001
,
00000
00000
00001
00000
00100
00000
00000
00100
00000
00000
00100
00000
00010
00000
00000
00010
,
00000
00000
00010
00000
01000
00000
00000
01000
00000
00000
01000
00000
00100
00000
00000
00000
,
01000
00000
00000
01000
00020
00000
00000
00000
00000
00000
00000
00000
00000
00000
00000
00000
,
00030
00000
00000
00000
;

//---------------pump-single - ----------------
#NOTES:
     pump-single:
     :
     Easy:
     20:
     0.153,0.221,0.000,0.010,0.000,103.000,0.000,1.000,0.000,0.000:
00000
00000
00000
00000
,
00000
00000
00000
00000
,
00000
00000
00000
00000
,
00000
00000
00000
00000
,
00000
00100
00000
01000
,
00000
00010
00000
00001
,
00000
01000
00000
00100
,
00000
10000
00000
00100
,
00000
00010
00000
01000
,
00000
00001
00000
01000
,
00000
00001
00000
00100
,
10000
10000
00001
00001
,
01000
00010
01000
00000
,
00100
01000
00010
00000
,
00001
10000
00001
00000
,
00100
00010
01000
00000
,
01000
00001
00010
00000
,
00010
10000
01000
00000
,
01000
00010
00100
00000
,
00010
01000
00100
00000
,
00100
10000
00001
00100
,
00010
00000
01000
00000
00010
00000
01000
00100
,
01000
00000
00001
00000
,
10000
00000
00010
00000
,
00100
00000
00100
00000
,
00010
00000
01000
00000
,
00100
01000
00010
01000
,
00000
00100
01000
00010
,
00000
00001
10000
00001
,
00000
00100
00010
01000
,
00000
01000
00001
00010
,
00000
00010
10000
01000
,
00000
01000
00010
00100
,
00000
00010
01000
00100
,
00000
00100
00000
00100
,
00000
00001
00000
00001
,
00000
10000
00000
10000
,
00000
00100
00000
00100
,
00000
00010
00000
00010
,
00000
01000
00000
01000
,
00000
00100
00000
00100
,
00000
00010
00010
00010
,
00010
00020
00000
00000
,
00030
00000
00000
00000
;

//---------------pump-single - Copied from----------------
#NOTES:
     pump-single:
     Copied from:
     Beginner:
     14:
     0.084,0.199,0.000,0.051,0.000,52.000,0.000,5.000,0.000,0.000:
00000
00000
00000
00000
,
00000
00000
00000
00000
,
00000
00000
00000
00000
,
00000
00000
00000
00000
,
00001
00000
00000
00000
,
01000
00000
00000
00000
,
10000
00000
00000
00000
,
00010
00000
00000
00000
,
00100
00000
00000
00000
,
00001
00000
00000
00000
,
01000
00000
00000
00000
,
00100
00100
00100
00100
,
00100
00000
00000
00000
,
01000
00000
00000
00000
,
00010
00000
00000
00000
,
00100
00000
00000
00000
,
00001
00000
00000
00000
,
10000
00000
00000
00000
,
00100
00000
00000
00000
,
10000
00000
00000
00000
,
00020
00000
02030
00000
,
03002
00000
20003
00000
,
30100
00000
00000
00000
,
00100
00000
00000
00000
,
00100
00000
00000
00000
,
00100
00000
00000
00000
,
00010
01000
00000
00001
,
00000
00000
00000
00000
,
00000
01000
00000
00001
,
00000
00000
00000
00000
,
00000
00010
00000
10000
,
00000
00000
00000
00000
,
00000
00010
00000
10000
,
00000
00000
00000
00000
,
00000
00100
00000
00001
,
00000
00100
00000
00001
,
00000
00100
00000
00001
,
00000
00100
00000
00000
,
00000
00100
00000
10000
,
00000
00100
00000
10000
,
00000
00100
00000
10000
,
00000
00100
00000
10000
,
00000
00020
00000
00000
,
00000
00030
00000
00000
00000
00000
00000
00000
00000
00000
00000
00000
00000
00000
00000
00000
00000
00000
00000
00000
00000
00000
00000
00000
00000
00000
00000
00000
00000
00000
00000
00000
00000
00000
00000
00000
00000
00000
00000
00000
00000
00000
00000
00000
00000
00000
00000
00000
00000
00000
00000
00000
00000
00000
00000
00000
00000
00000
00000
00000
00000
00000
00000
00000
00000
00000
00000
00000
00000
00000
00000
00000
00000
00000
00000
00000
00000
00000
00000
00000
00000
00000
00000
00000
00000
00000
00000
00000
00000
00000
00000
00000
00000
00000
00000
00000
00000
00000
00000
00000
00000
00000
00000
00000
00000
00000
00000
00000
00000
00000
00000
00000
00000
00000
00000
00000
00000
00000
00000
00000
00000
00000
00000
00000
00000
00000
00000
00000
00000
00000
00000
00000
00000
00000
00000
00000
00000
00000
00000
00000
00000
00000
00000
00000
00000
00000
00000
00000
00000
00000
00000
00000
00000
00000
00000
00000
00000
00000
00000
00000
00000
00000
00000
00000
00000
00000
00000
00000
00000
00000
00000
00000
00000
00000
00000
00000
00000
00000
00000
00000
00000
00000
00000
00000
00000
00000
00000
00000
00000
00000
00000
00000
;

//---------------pump-double - ----------------
#NOTES:
     pump-double:
     :
     Hard:
     89:
     0.549,0.785,0.422,0.103,0.540,323.000,41.000,10.000,0.000,0.000:
0000000000
0000000000
0000000000
0000000000
,
0000000000
0000000000
0000000000
0000000000
,
0000000000
0000000000
0000000000
0000000000
,
0000000000
0001010000
0000000000
0000100100
,
0000010000
0000000000
0000000100
0000001000
0000010000
0000100000
0000001000
0000020000
,
0000030000
0000010000
0000101000
0000000000
0000100000
0000100000
0001010000
0000000000
,
0001000000
0001000000
0010100000
0000000000
0010000000
0010000000
0101000000
0000000000
,
1000000000
0001000000
0100000000
0000010000
0000100000
0000000010
0000001000
0000000001
,
0000010000
0000001000
0000000000
0000100000
0000010000
0001000000
0000000000
0000000000
0000100000
0010000000
0000000000
0001000000
0010000000
0000100000
0000000000
0000000000
,
0001000000
0010000000
0000000000
1000000000
0100000000
1000000000
0000000000
0000000000
0001000000
0010000000
0000000000
0000010000
0000100000
0000001000
0000000000
0000000000
,
0000010000
0000000100
0000001000
0000110000
0000100000
0010000000
0001000000
0000110000
,
0001010000
0000000000
0010100000
0000000000
0001010000
0000100000
0001010000
0000100000
,
0002010000
0000000000
0000000000
0023000000
0000000000
0000000000
0130000000
0000000000
0000000000
0010000000
0000000000
0011000000
0000000000
0000000000
0000100000
0000000000
,
0010000000
0000000000
0000000000
0000010000
0000000000
0000000000
0000100000
0000000000
0000000000
0000000100
0000000000
0000001000
0000000000
0000000000
0000010000
0000000000
,
0000210000
0000000000
0000000000
0001000000
0000000000
0000000000
0000320000
0000000000
0000000000
0000001000
0000000000
0000001000
0000000000
0000000000
0000130000
0000000000
,
0000001000
0000000000
0000000000
0000010000
0000000000
0000000000
0000000100
0000000000
0000000000
0000001000
0000000000
0000000010
0000000000
0000010100
0000000000
0000000000
,
0000100100
0000000000
0000001000
0000010000
0000000000
0000010000
0000000100
0000000000
0000100000
0000001000
0000000000
0000001000
0001000000
0000000000
0010000000
0000000000
,
0100000000
0000000000
0000100000
0010000000
0000000000
0001000000
0100000000
0000000000
0010000000
1000000000
0000000000
0100000000
0010000000
0000000000
0000100000
0000000000
,
0001000000
0000000000
0000000000
0000001000
0000000000
0000000000
0000010000
0000000000
0000000000
0000001000
0000000000
0000000100
0000000000
0000000000
0000000001
0000000000
,
0000010001
0000000000
0000000000
0000000100
0000000000
0000000000
0000020001
0000000000
0000000000
0000031000
0000000000
0000010100
0000000000
0000101000
0000000000
0000000000
,
0001010000
0010100000
0101000000
0010000000
0000100000
0000000000
0010000000
0001000000
0000100000
0000010000
0000001000
0000000100
0000000010
0000000000
0000000100
0000010000
,
0000001000
0001000000
0000100000
0010000000
0100100000
0000000000
1001000000
0010000000
0100100000
0010000000
0000100000
0001000000
0000010000
0000100000
0000001000
0000010000
,
0000000010
0000000000
0000001000
0000000000
0000001000
0000000100
0000000000
0000000100
0000010000
0000000000
0000001000
0000000000
0000100000
0000000000
0000010000
0000000000
,
0010000000
0000000000
0001000000
0000000000
0001000000
0100000000
0000000000
0100000000
0000100000
0000000000
0001000000
0000000000
0010000000
0000000000
1000000000
0000000000
,
0100000000
0010000000
0000100000
0001000000
0000001000
0000010000
0000001000
0000000100
,
0000000001
0000000010
0000000100
0000010000
0000001000
0001000000
0000100000
0010000000
,
0200100000
0010000000
1000000000
0001000000
0300100000
0000000000
0000000000
0010100000
0000000000
0000000000
0020010000
0000000000
0000000000
0031000000
0000000000
0000100000
,
0000000000
0000000000
0000010000
0000000000
0000001000
0000000000
0000000000
0000000010
0000000000
0000000000
0000000001
0000000000
0000000000
0000000010
0000000000
0000001000
,
0000000000
0000000000
0000000100
0000000000
0000101000
0000000000
0000000000
0001010000
0000000000
0000000000
0020100000
0000000000
0000000000
0130000000
0000000000
1000000000
,
0000000000
0000000000
0010000000
0000000000
0001000000
0000000000
0000000000
0000010000
0000000000
0000000000
0000100000
0000000000
0000000000
0000001000
0000000000
0000010000
,
0000000000
0000010100
0000000000
0000000000
0000001000
0000000000
0000000100
0000001000
0000000000
0000001000
0000010000
0000000000
0000100000
0000001000
0000000000
0000001000
,
0001000000
0000000000
0000100000
0000000000
0001010000
0000000000
0000100000
0010000000
0000000000
0010000000
0001000000
0000000000
0100000000
0010000000
0000000000
0010000000
,
1000000000
0000000000
0001000000
0000000000
0110000000
0000000000
0100000000
0000100000
0000000000
0001000000
0000010000
0000000000
0000001000
0000000100
0000000000
0000000100
,
0000010000
0000000000
0000101000
0000000000
0000000100
0000000000
0000010000
0000000010
0000000000
0000001000
0000000001
0000000000
0000000001
0000001000
0000000000
0000000010
,
0000010000
0000000000
0000010100
0000000000
0000001000
0000000000
0000010000
0000100000
0000000000
0000100000
0001000000
0000000000
0000100000
0000010000
0000000000
0000010000
,
0000001000
0000000000
0000010000
0000000000
0000100000
0000000000
0000001000
0001000000
0000000000
0000100000
0010000000
0000000000
0001000000
0100000000
0000000000
0010000000
,
1000000000
0000000000
1010000000
0000000000
1000000000
0000000000
0010000000
0100000000
0000000000
0000100000
0001000000
0000000000
0000001000
0000010000
0000000000
0000000010
,
0000000100
0000000000
0000000101
0000000000
0000000001
0000000000
0000001000
0000000100
0000000000
0000000100
0000100000
0000000000
0000010000
0010000000
0000000000
0010000000
,
0001000000
1000000000
0110000000
0001000000
0010000000
0000100000
0001000000
0010000000
,
0001000000
0000010000
0000100000
0001000000
0000010000
0000001000
0000100000
0000010000
,
0000001000
0000000100
0000010000
0000001000
0000000100
0000001000
0000100000
0000010000
,
0000001000
0000000010
0000000100
0000001000
0000000100
0000000001
0000000010
0000000100
,
0000100000
0000000000
0000010000
0000000000
0002000000
0000000000
0000000000
0003000100
0000000000
0000000000
0000000000
0000000000
0000000000
0000000000
0000000000
0000000000
;

//---------------pump-double - ----------------
#NOTES:
     pump-double:
     :
     Medium:
     66:
     0.370,0.374,0.226,0.093,0.041,221.000,22.000,9.000,0.000,0.000:
0000000000
0000000000
0000000000
0000000000
,
0000000000
0000000000
0000000000
0000000000
,
0000000000
0000000000
0000000000
0000000000
,
0000000000
0001010000
0000000000
0010100000
,
1000000000
0000000000
0000000000
0010000000
1000000000
0010000000
1000000000
2010000000
,
0000000000
3001000000
0000000000
0000000000
0000000000
0000000000
0100100000
0010000000
,
0000000000
0000000000
0001010000
0000100000
0000000000
0000000000
0000010100
0000001000
,
0000000000
0000000000
0000001001
0000000100
0000000000
0000000000
0000100100
0000010000
,
0000010000
0000000000
0000000000
0001000000
0000010000
0001000000
0000010000
0001020000
,
0000000000
0000031000
0000000100
0000000000
0000010000
0000000100
0000010000
0000000000
,
0000000010
0000010000
0000000010
0000000000
0000001000
0000000001
0000001000
0000000000
,
0000001001
0000000000
0000010010
0000000000
0000001001
0000000100
0000010010
0000000000
,
0000002000
0000000000
0000003000
0000000100
0000100000
0000010000
0010000000
0001000000
,
0000000000
0010100000
0000000000
0010000000
0000010000
0000100000
0000000100
0000001000
,
0000000000
0000010100
0000000000
0000000100
0000100000
0000010000
0010000000
0001000000
,
0000000000
0001000000
0100000000
0010000000
1000000000
1000000000
0000100000
0000000000
,
0010010000
0000000000
0000000000
0001000000
0000010000
0000100000
0000001000
0000010000
,
0000000000
0000100100
0000000000
0000001000
0000100000
0000010000
0001000000
0000100000
,
0000000000
0010010000
0000000000
0001000000
0000010000
0000100000
0000001000
0000010000
,
0000010000
0000000000
0000000000
0000010010
0000000000
0000000000
0000101000
0000010000
,
0000000100
0000001000
0000010000
0000100000
0001000000
0010000000
0100000000
1000000000
,
0100000000
0010000000
0001000000
0000100000
0000010000
0000001000
0000000100
0000000010
,
0000000001
0000000100
0000000010
0000001000
,
0000000100
0000010000
0000001000
0001000000
,
0000100000
0010000000
0001000000
0100000000
,
0010000000
0000000000
1000000000
0000000000
0100000000
0010000000
0001000000
2000000000
,
0000200000
3000000000
1000300000
0000000000
0000000000
0001000000
0100000000
0000100000
,
0010000000
0000020000
0000000000
0000100000
0000000000
0000031000
0000000100
0000010000
,
0000000001
0000000200
0000000000
0000000010
0000000000
0000001300
0000100000
0000010000
,
0010000000
0020000000
0000000000
0031000000
0100000000
0010000000
1010000000
0000000000
,
0010100000
0000000000
1000000000
0010000000
1000000000
0000000000
0001000000
0010000000
,
0001000000
0000000000
0010000000
0000010000
0000100000
0000000000
0000000100
0000100000
,
0000010000
0000000000
0001000000
0000010000
0000100000
0000000000
0000001000
0000100000
,
0000010000
0000000000
0001000000
0000010000
0001000000
0000010000
0010000000
0001000000
,
0010000000
0000000000
0001000000
0000000000
0100000000
0000000000
0000000000
0100000000
0000000000
0000000000
0100000000
0000000000
0010000000
0000000000
0000000000
0010000000
,
0000000000
0000000000
0010000000
0000000000
1000000000
0000000000
0000000000
1000000000
0000000000
0000000000
1000000000
0000000000
0000100000
0000000000
0000000000
0000100000
,
0000000000
0000100000
0001000000
0010000000
0100000000
0000000000
0010000000
0001000000
,
0000100000
0000000000
0001000000
0001000000
0001000000
0000000000
0000010000
0000010000
,
0000010000
0000000000
0000000000
0000000000
0000100000
0000000000
0000000000
0000100000
0000000000
0000000000
0000100000
0000000000
0000001000
0000000000
0000000000
0000001000
,
0000000000
0000000000
0000001000
0000000000
0000000100
0000000000
0000000000
0000000100
0000000000
0000000000
0000000100
0000000000
0000000010
0000000000
0000000000
0000000010
,
0000000000
0000000010
0000001000
0000000100
0000000010
0000000000
0000000100
0000010000
,
0000001000
0000000000
0001000000
0000100000
0010000000
0000000000
0001000000
0000100000
,
0000010000
0000000000
0000010000
0000000000
0000020000
0000000000
0000000000
0000000000
0000000000
0000000000
0000000000
0000000000
0000000000
0000030000
0000000000
0000000000
;

//---------------pump-double - ----------------
#NOTES:
     pump-double:
     :
     Beginner:
     16:
     0.088,0.152,0.010,0.010,0.000,58.000,1.000,1.000,0.000,0.000:
0000000000
0000000000
0000000000
0000000000
,
0000000000
0000000000
0000000000
0000000000
,
0000000000
0000000000
0000000000
0000000000
,
0000000000
0000000000
0000000000
0000000000
,
0001000000
0000000000
0000000000
0000000000
,
0000010000
0000000000
0000000000
0000000000
,
0000100000
0000000000
0000000000
0000000000
,
0000000100
0000000000
0000000000
0000000000
,
0000001000
0000000000
0000000000
0000000000
,
0000000010
0000000000
0000000000
0000000000
,
0000000100
0000000000
0000000000
0000000000
,
0000000001
0000000001
0000000001
0000000001
,
0000000001
0000000000
0000000000
0000000000
,
0000010000
0000000000
0000000000
0000000000
,
0000001000
0000000000
0000000000
0000000000
,
0001000000
0000000000
0000000000
0000000000
,
0000100000
0000000000
0000000000
0000000000
,
0100000000
0000000000
0000000000
0000000000
,
0010000000
0000000000
0000000000
0000000000
,
1000000000
0000000000
0001000000
0000000000
,
0010000000
0000000000
0000100000
0000000000
,
0001000000
0000001000
0000010000
0000000100
,
0000000100
0000000000
0000000000
0000000000
,
0000010000
0000000000
0000000000
0000000000
,
0000110000
0000000000
0000000000
0000000000
,
0001000000
0000000000
0000000000
0000000000
,
0002000000
0003010000
0000000000
0000000000
,
0000000000
0001000000
0000000000
0000000000
,
0000000000
0000100000
0000000000
0000000000
,
0000000000
1000000000
0000000000
0010000000
,
0000000000
0100000000
0000000000
0000000000
,
0000000000
0000100000
0000000000
0000000000
,
0000000000
0001000000
0000000000
0000000000
,
0000000000
0000001000
0000000000
0000010000
,
0000000000
0000000010
0000000000
0000001000
,
0000000000
0000010000
0000000000
0000100000
,
0000000000
0001000000
0000000000
0100000000
,
0000000000
0010000000
0000000000
1000000000
,
0000000000
0010000000
0000000000
0100000000
,
0000000000
0001000000
0000000000
0000100000
,
0000000000
0000010000
0000000000
0000001000
,
0000000000
0000000010
0000000000
0000000100
,
0000000000
0000000001
0000000000
0000000000
;

//---------------pump-double - ----------------
#NOTES:
     pump-double:
     :
     Easy:
     41:
     0.239,0.327,0.175,0.021,0.005,144.000,17.000,2.000,0.000,0.000:
0000000000
0000000000
0000000000
0000000000
,
0000000000
0000000000
0000000000
0000000000
,
0000000000
0000000000
0000000000
0000000000
,
0000100000
0000100000
0000100000
0000100000
,
0000001000
0000000000
0000010000
0000000100
,
0000001000
0000000000
0000000010
0000000100
,
0000000001
0000000000
0000010000
0000000100
,
0000100000
0000010000
0010000000
0000100000
,
1000000000
0000000000
0001000000
0010000000
,
0000100000
0000000000
0000010000
0000100000
,
0000001000
0000000000
0000010000
0000000100
,
0000001100
0000010010
0000001001
0000000110
,
0000000001
0000000000
0000010000
0000000100
,
0000001000
0000000000
0000100000
0010000000
,
0001000000
0000000000
0000010000
0001000000
,
0000100000
0000000000
0100000000
0100000000
,
0100000000
0000000000
0000100000
0010000000
,
0001000000
0000000000
0000010000
0000100000
,
0000000100
0000000000
0000010000
0000001000
,
0000100000
0000000000
0000010000
0000000000
,
0001000000
0001000000
0001000000
0000000000
0000100000
0000000000
0000000000
0000000000
,
0010000000
0010000000
0010000000
0000000000
0001000000
0000000000
0000000000
0000000000
,
1000000000
1010000000
1010000000
1010000000
,
0000100000
0010100000
0010100000
0010100000
,
0000010000
0000110000
0000110000
0000110000
,
0000000100
0000010100
0000010100
0000010100
,
0000002000
0000103000
0000010000
0000100000
,
0000010000
0001000000
0000100000
0001000000
,
0000100000
0010000000
0001000000
0010000000
,
0001000000
0100000000
0010000000
1000000000
,
0010000000
0100000000
0001000000
0100000000
,
0001000000
0010000000
0000100000
0010000000
,
0000100000
0001000000
0000001000
0001000000
,
0000001000
0000010000
0000000100
0000001000
,
0000000010
0000000100
0000000100
0000000100
,
0000000001
0000001000
0000001000
0000001000
,
0000000010
0000010000
0000010000
0000010000
,
0000000100
0000000010
0000000010
0000000010
,
0000000100
0000010000
0000001000
0001000000
,
0000100000
0010000000
0000100000
0001000000
,
0000001000
0000010000
0000000100
0000010000
,
0000001000
0001000000
0000100000
0010000000
,
0001000000
0000000000
0000000000
0000000000
0120000000
0000000000
0000000000
0130000000
0000000000
0000000000
0000000000
0000000000
0000000000
0000000000
0000000000
0000000000
;
