#TITLE:Get Drunk;
#SUBTITLE:;
#ARTIST:Moon Gyu Hyuk;
#TITLETRANSLIT:;
#SUBTITLETRANSLIT:;
#ARTISTTRANSLIT:;
#CREDIT:;
#BANNER:getdrunk-banner.png;
#SONGINFO:getdrunk-songinfo.png;
#BACKGROUND:getdrunk-bg.png;
#LYRICSPATH:;
#CDTITLE:./CDTITLES/o2jam.png;
#CHARACTER:./SongCharacters/default;
#MUSIC:Get Drunk.mp3;
#OFFSET:-0.220;
#SAMPLESTART:81.460;
#SAMPLELENGTH:12.000;
#SELECTABLE:YES;
#BPMS:0.000=118.000;
#STOPS:;
#BGCHANGES:-2.000=visffd320.avi=1.000=1=1=0
;
// cache tags:
#FIRSTBEAT:16.000;
#LASTBEAT:192.000;
#SONGFILENAME:Songs/Neon FM/Get Drunk/Get Drunk.sm;
#HASMUSIC:1;
#HASBANNER:1;
#MUSICLENGTH:100.126;
// end cache tags

//---------------pump-single - ----------------
#NOTES:
     pump-single:
     :
     Hard:
     69:
     0.451,0.503,0.370,0.130,0.095,266.000,37.000,13.000,0.000,0.000:
00000
00000
00000
00000
,
00000
00000
00000
00000
,
00000
00000
00000
00000
,
00000
00000
00000
00000
,
10000
00000
00010
00000
10000
00100
10000
00002
,
00000
00000
00103
00000
00000
00000
00010
00000
00200
00000
00000
00301
00000
00000
00000
00000
,
01000
00001
00000
01000
00000
00100
10000
01000
,
10000
00010
00100
00010
01000
00001
10000
00100
,
10100
00000
01010
00000
00101
00000
00000
10000
,
00010
00100
00010
01000
00000
01000
00001
00000
,
00101
00000
01010
00000
10100
00000
00000
10000
,
01000
00100
00010
10000
01000
10000
00010
00010
,
01010
00000
10100
00000
00101
00000
00000
10000
,
00001
00100
00010
00100
00000
00010
01000
00000
,
10100
00000
00101
00000
01010
00000
00000
00001
,
00010
00000
00001
00000
00100
00000
00000
00000
00000
00000
00100
00000
00010
01000
00000
00000
,
00100
00000
00100
00000
10000
00000
10000
00000
00010
00000
00000
00000
00000
00000
01000
00100
,
01000
00000
01000
00000
00001
00000
00001
00000
00100
00000
00000
00000
00000
00000
00010
00100
,
00010
00000
00010
00000
10000
00000
10000
00000
00001
00000
00000
00000
00000
00000
01000
00100
,
01000
00000
01000
00000
00010
00000
00010
00000
00100
00000
00000
00000
00000
00000
00010
01000
,
00010
00000
00010
00000
10000
00000
10000
00000
01000
00000
00000
00000
00000
00000
10000
00010
,
10000
00000
10000
00000
00100
00000
00100
00000
01000
00000
00000
00000
00000
00000
00001
00100
,
00001
00000
10000
00000
00010
00000
00100
00001
00000
00000
01000
00000
00100
00000
10000
00010
,
00000
00100
00010
01000
00100
10000
00001
00000
,
00101
00000
01010
00000
20100
00000
00000
30001
,
01000
00100
01000
00010
00000
00010
10000
00000
,
10100
00000
01010
00000
00201
00000
00000
00301
,
00010
00100
01000
00001
00010
00001
01000
01000
,
01010
00000
00101
00000
20100
00000
00000
30001
,
10000
00100
01000
00100
00000
01000
00010
00000
,
00101
00000
10100
00000
01020
00000
00000
10030
,
01000
00000
10000
00000
00100
00000
00000
00000
00000
00000
00100
00000
01000
00010
00000
00000
,
00100
00000
00100
00000
00100
00000
00100
00000
00001
00000
00100
00000
00000
00000
00010
01000
,
00010
00000
10000
00000
00000
00000
00010
01000
00010
00000
10000
00000
00000
00000
00000
00000
,
00001
00000
00001
00000
00001
00000
00001
00000
01000
00000
00001
00000
00000
00000
10000
00100
,
10000
00000
00010
00000
00000
00000
10000
00100
10000
00000
00010
00000
00000
00000
00000
00000
,
01000
00000
01000
00000
01000
00000
01000
00000
00010
00000
01000
00000
00000
00000
00001
00010
,
00001
00000
00100
00000
00000
00000
00001
00010
00001
00000
00100
00000
00000
00000
00000
00000
,
00010
00000
00010
00000
00010
00000
00010
00000
10000
00000
00010
00000
00000
00000
01000
00100
,
01000
02000
03010
00020
10030
20000
30001
00001
,
10100
00000
01010
00000
00102
00000
00000
10003
,
00010
00100
00010
01000
00000
01000
00001
00000
,
00101
00000
01010
00000
10200
00000
00000
10300
,
01000
00100
00010
10000
01000
10000
00010
00010
,
01010
00000
10100
00000
00102
00000
00000
10003
,
00001
00100
00010
00100
00000
00010
01000
00000
,
10100
00000
00101
00000
02010
00000
00000
03001
,
00010
00000
00001
00000
00100
00000
00000
00000
00000
00000
00100
00000
00010
01000
00000
00000
,
00101
00000
00000
00000
;

//---------------pump-single - ----------------
#NOTES:
     pump-single:
     :
     Medium:
     38:
     0.213,0.240,0.000,0.000,0.000,149.000,0.000,0.000,0.000,0.000:
00000
00000
00000
00000
,
00000
00000
00000
00000
,
00000
00000
00000
00000
,
00000
00000
00000
00000
,
00001
00000
01000
00000
00010
10000
00010
00000
,
01000
00100
10000
00000
,
00010
00000
00100
00000
00001
01000
00001
00000
,
00100
00010
00100
00000
,
00001
00001
00001
00000
,
01000
00100
10000
00010
,
00000
00001
00001
00000
,
10000
00100
01000
00100
,
00000
00001
00001
00000
,
10000
00100
00010
00100
,
00000
00001
00001
00000
,
10000
01000
10000
00010
,
00100
00100
00001
00000
,
10000
10000
00010
00000
,
01000
01000
00100
00000
,
10000
00010
00100
00000
00000
00000
00000
00000
,
10000
00001
01000
00000
,
00010
10000
00100
00000
,
01000
00001
00100
00000
,
00010
10000
00010
10000
00010
00000
00000
00000
,
00100
00100
00100
00000
,
10000
00000
00010
00100
00001
00000
00000
00000
,
01000
00010
00010
00000
,
10000
00001
00100
00000
00001
01000
00100
00000
,
10000
01000
01000
00000
,
10000
00100
10000
00000
00010
00000
00100
00000
,
00000
00001
00001
00000
,
01000
00100
10000
00000
00000
00000
00000
00000
,
00010
00010
00010
00000
,
00010
00000
00010
00000
,
01000
01000
01000
00000
,
01000
00000
01000
00000
,
00001
00001
00001
00000
,
00001
00000
00001
00000
,
10000
10000
10000
00000
,
10000
10000
10000
00100
,
10000
10000
10000
00000
,
00000
00010
00100
00001
01000
00000
01000
00000
,
00000
00010
00010
00000
,
00000
10000
00100
01000
00100
00000
10000
00000
,
00001
00100
00010
00000
,
00000
01000
00100
10000
00010
00000
00000
00000
,
00001
00001
00001
00000
,
10000
01000
10000
00000
00000
00010
00100
00000
,
00010
00000
00000
00000
;

//---------------pump-single - ----------------
#NOTES:
     pump-single:
     :
     Easy:
     20:
     0.140,0.168,0.000,0.000,0.000,98.000,0.000,0.000,0.000,0.000:
00000
00000
00000
00000
,
00000
00000
00000
00000
,
00000
00000
00000
00000
,
00000
00000
00000
00000
,
00010
01000
00010
00000
,
10000
00100
10000
00000
,
00001
00100
00001
00000
,
01000
00010
00000
00000
,
00100
10000
00000
00000
,
00100
00001
00000
00000
,
00100
01000
00000
00000
,
00100
00010
00000
00000
,
00100
00001
00100
00000
,
00100
10000
00100
00000
,
00100
01000
00100
00000
,
00100
00010
00100
00000
,
10000
00000
00000
00000
,
00001
00000
00000
00000
,
10000
10000
00000
00000
,
00010
00010
00000
00000
,
01000
01000
01000
00000
,
00010
00010
00010
00000
,
10000
00100
00100
00000
,
00010
00100
00100
00000
,
10000
00000
00001
00000
,
01000
00000
00010
00000
,
00100
00000
00010
00000
,
10000
00000
00001
00000
,
01000
01000
00100
00000
,
10000
10000
00001
00000
,
01000
01000
00010
00000
,
00100
00100
00001
00000
,
00010
00010
00000
00000
,
00010
00000
00010
00000
,
01000
01000
00000
00000
,
01000
00000
01000
00000
,
10000
10000
00000
00000
,
10000
00000
10000
00000
,
00100
00100
00000
00000
,
00100
00000
00000
00000
,
00100
01000
00010
00000
,
00000
00000
00000
00000
,
00010
01000
00001
00000
,
00000
00000
00000
00000
,
10000
00100
01000
00000
,
00000
00000
00000
00000
,
00010
00100
01000
00000
,
00000
00000
00000
00001
,
10000
00000
00000
00000
;

//---------------pump-single - Copied from----------------
#NOTES:
     pump-single:
     Copied from:
     Beginner:
     16:
     0.111,0.168,0.000,0.000,0.000,78.000,0.000,0.000,0.000,0.000:
00000
00000
00000
00000
,
00000
00000
00000
00000
,
00000
00000
00000
00000
,
00000
00000
00000
00000
,
01000
00000
00001
00000
,
01000
00000
00100
00000
,
10000
00000
00010
00000
,
10000
00000
00100
00000
,
00000
00001
00000
01000
,
00000
00010
00000
10000
,
00000
00001
00000
01000
,
00000
00100
00000
10000
,
00000
00100
00000
01000
,
00000
00010
00000
10000
,
00000
00100
00000
01000
,
00000
00001
00000
00001
,
00100
00000
00000
00000
,
00010
00000
00000
00000
,
01000
00000
00000
00000
,
00100
00000
00000
00000
,
10000
00000
00000
00000
,
00001
00000
00000
00000
,
01000
00000
00000
00000
,
00010
00000
00000
00000
,
00100
00100
00000
00000
,
00010
00010
00000
00000
,
10000
10000
00000
00000
,
00001
00001
00100
00100
,
00001
00000
00001
00000
,
01000
00000
01000
00000
,
00010
00000
10000
00000
,
00100
00000
01000
00000
,
00001
00000
00000
00000
,
00001
00000
00001
00000
,
10000
00000
00000
00000
,
10000
00000
10000
00000
,
00100
00000
00000
00000
,
00100
00000
00100
00000
,
01000
00000
00000
00000
,
01000
00000
00000
00000
,
00010
00100
00000
00000
,
01000
00100
00000
00000
,
10000
00100
00000
00000
,
00001
00100
00000
00000
,
10000
00010
00000
00000
,
01000
00001
00000
00000
,
00100
00001
00000
00000
,
10000
00100
00000
00000
,
00010
00000
00000
00000
;
