#TITLE:Electro8;
#SUBTITLE:;
#ARTIST:Pop'nKO;
#TITLETRANSLIT:;
#SUBTITLETRANSLIT:;
#ARTISTTRANSLIT:;
#CREDIT:;
#BANNER:electro8-banner.png;
#SONGINFO:electro8-songinfo.png;
#BACKGROUND:Electro8-bg.png;
#LYRICSPATH:;
#CDTITLE:./CDTITLES/PopnkoCD.png;
#CHARACTER:./SongCharacters/popnko;
#MUSIC:Electro8 (For NE0N).ogg;
#OFFSET:0.000;
#SAMPLESTART:38.260;
#SAMPLELENGTH:12.000;
#SELECTABLE:YES;
#BPMS:0.000=144.000,40.000=132.000,44.000=120.000,48.000=108.000,80.000=144.000;
#STOPS:;
#BGCHANGES:-2.000=visffd320.avi=1.000=1=1=0
;
// cache tags:
#FIRSTBEAT:8.000;
#LASTBEAT:234.000;
#SONGFILENAME:Songs/Neon FM/Electro8/Electro8.sm;
#HASMUSIC:1;
#HASBANNER:1;
#MUSICLENGTH:104.929;
// end cache tags

//---------------pump-single - ----------------
#NOTES:
     pump-single:
     :
     Hard:
     84:
     0.649,0.753,0.457,0.152,0.243,413.000,48.000,16.000,0.000,0.000:
00000
00000
00000
00000
,
00000
00000
00000
00000
,
10000
01000
00100
01000
00100
00010
00100
00010
,
00001
00010
00100
00010
00100
01000
10000
00100
,
00010
00001
00010
00001
01000
00100
01000
00100
,
00010
00100
00010
00100
01000
10000
01000
00100
,
10000
00100
10000
00100
01000
00010
01000
00010
,
00100
00001
00100
00001
01000
00010
01000
01000
,
00100
10000
00100
10000
00010
01000
00010
01000
,
00001
00000
00100
00000
00001
00000
00100
00000
00010
00000
01000
00000
00010
01000
00010
01000
,
00010
00100
01000
10000
,
01000
00100
00010
00001
,
00011
00100
01100
00010
,
11000
00000
00000
00000
00100
00000
00000
00000
00011
00000
00001
00010
00100
01000
10000
00000
,
11000
00100
00110
01000
,
00011
00000
00000
00000
00100
00000
00000
00000
11000
00000
10000
01000
00100
00010
00001
00000
,
00011
00100
01100
01000
,
11000
00000
00100
00000
00110
01010
00110
00011
,
00110
00001
00110
10000
,
10000
01000
10000
01000
00100
01000
00100
01000
10000
00100
01000
00010
00100
00001
01000
00000
,
10100
00000
01010
00000
00100
00001
00010
00001
,
01010
00000
10100
00000
00010
00001
00010
00100
,
00101
00000
01010
00000
00100
10000
01000
10000
,
00010
00000
00010
00000
00100
00001
00100
00001
00100
00001
00000
00000
00010
01000
00010
01000
,
00010
00100
00001
00100
00001
00100
00001
00010
,
00001
00100
00010
00100
00010
00100
00010
01000
,
00010
01000
00100
01000
00100
01000
00100
10000
,
00100
00000
10000
00000
01000
00000
10000
00000
01000
00100
00000
00000
01000
00100
00010
00100
,
02000
03100
00200
00310
00020
00031
00002
00013
,
00020
00130
00200
01300
02000
13000
20000
30100
,
00200
00310
00020
00031
00002
00013
00020
00130
,
00200
01300
02000
13000
20000
31000
02000
03100
,
01100
00000
10100
00000
01000
00000
00010
00100
,
00110
00000
00000
00000
00101
00000
00000
00000
00010
00000
00000
00100
01000
00000
01000
00000
,
11000
00000
10100
00000
01000
00000
00010
00100
,
00110
00000
00000
00000
00101
00000
00000
00000
00010
00001
00010
00100
00010
00001
00010
00100
,
00000
00000
00000
00000
00000
00000
00000
00011
,
00001
00000
00000
00100
00000
00000
00010
00000
00100
00000
00000
01000
00000
00000
00100
00000
,
00001
00000
00000
00100
00000
00000
01000
00000
10000
00000
00000
00100
00000
00000
00010
00000
,
00001
00000
00000
01000
00000
00000
00010
00000
10000
00000
00000
00001
00000
00000
10000
00000
,
10000
00000
00001
00000
10000
00001
00000
00000
10000
00000
00001
00000
10000
00001
10000
00001
,
10000
00001
10000
00001
10000
00001
10000
00001
01000
00010
01000
00010
01000
00010
01000
00010
,
01000
00000
01010
00000
00100
10000
01000
10000
,
01010
00000
00101
00000
01000
10000
01000
00100
,
10100
00000
01010
00000
00100
00001
00010
00001
,
00101
00000
00000
00000
01010
00000
00000
00000
00100
00000
00010
00000
01000
00010
01000
00010
,
01000
00100
10000
00100
10000
00100
10000
01000
,
10000
00000
00100
00000
01000
00000
00100
00000
01000
00000
00100
00000
01000
00010
01000
00010
,
01000
00010
00100
00010
00100
00010
00100
00001
,
00100
00000
00001
00000
00010
00000
00001
00000
00010
00000
00001
00000
00100
00001
00100
00001
,
00100
00010
01000
00010
01000
00010
01000
00100
,
01000
00000
00010
00000
00100
00000
00010
00000
00100
00000
00010
00000
00100
00001
00100
00001
,
00100
00001
00010
00001
00010
00001
00010
00100
,
00010
00100
01000
00100
01000
00100
01000
00100
,
00000
00000
10100
10100
,
01000
00100
00010
00000
00101
00000
00101
00000
,
00010
00100
01000
10000
10100
00000
10100
00000
,
01000
00100
00010
00000
00101
00000
00101
00000
,
00010
00100
01000
10000
11000
00000
00000
00000
;

//---------------pump-single - ----------------
#NOTES:
     pump-single:
     :
     Medium:
     58:
     0.410,0.418,0.086,0.057,0.000,286.000,9.000,6.000,0.000,0.000:
00000
00000
00000
00000
,
00000
00000
00000
00000
,
10000
00100
10000
00000
00010
01000
00010
00000
,
00001
00100
00001
00000
00010
01000
00010
00000
,
10000
00010
10000
00000
00001
01000
00001
00000
,
10000
00001
10000
00000
01000
00010
01000
00000
,
10000
00100
01000
00000
00001
00100
00010
00000
,
10000
00010
00100
00000
00001
01000
00100
00000
,
01000
00010
00100
00000
00100
00010
01000
00000
,
10000
00001
00100
00000
00100
00001
10000
00000
,
00200
00001
00001
00301
,
20000
00100
00100
30100
,
01000
00000
00010
00010
00010
00000
00000
00000
,
10000
00000
00100
00100
00100
00000
00000
00000
,
01000
00000
00001
00001
00001
00000
00000
00000
,
01000
00000
00010
00010
00010
00000
00000
00000
,
00100
00000
00010
00010
00010
00000
00000
00000
,
10000
00000
01000
01000
01000
00000
00000
00000
,
10000
00000
00100
00100
00100
00000
00000
00000
,
02000
00000
00001
00000
00001
00000
03001
00100
,
00010
10000
00100
01000
,
00010
00000
00100
00000
00001
00000
10000
00010
,
00100
00001
01000
00100
,
10000
00000
00001
00000
10000
00000
00010
01000
,
00010
10010
10000
10001
,
00001
00000
01001
00000
01000
00000
01100
00100
,
10000
10010
00010
00110
,
00100
00000
00101
00000
00001
00000
01001
01000
,
00010
00010
00010
00000
10000
00010
10000
00010
,
01000
01000
01000
00000
00001
01000
00001
01000
,
00100
00100
00100
00000
10000
00100
10000
00100
,
01000
01000
01000
00000
00010
01000
00010
01000
,
00001
10000
00100
01000
,
00010
01000
00001
00100
,
00010
10000
00001
01000
,
00010
00000
00100
00000
00010
01000
00010
00000
,
02020
00000
00000
03030
,
10000
00000
00010
00000
10000
00010
10000
00000
,
00001
00000
01000
00000
00001
01000
00001
00000
,
10000
00000
00100
00000
10000
00100
10000
00000
,
00001
00000
00100
00000
00001
00100
00001
00100
,
00020
00000
00000
00000
,
10030
00100
10000
00000
00100
10000
00100
00000
,
01000
00010
01000
00000
00010
01000
00010
00000
,
00100
00001
00100
00000
00001
00100
00001
00000
,
00010
01000
00010
01000
00010
01000
00010
00000
,
10000
00100
10000
00000
00100
10000
00100
00000
,
01000
00010
01000
00000
00010
01000
00010
00000
,
00100
00001
00100
00000
00001
00100
00001
00000
,
00001
10000
00001
10000
00001
10000
00001
00000
,
10000
00010
10000
00000
00010
10000
00010
00000
,
01000
00001
01000
00000
00001
01000
00001
00000
,
00100
00001
10000
00000
10000
00001
00100
00000
,
00100
10000
00001
00000
00001
10000
00100
10000
,
00000
00000
10000
00001
,
10000
00010
10000
00100
,
10000
01000
10000
00001
,
10000
00010
10000
00100
,
10000
00000
01000
10000
00001
00000
00000
00000
;

//---------------pump-single - ----------------
#NOTES:
     pump-single:
     :
     Easy:
     30:
     0.214,0.251,0.000,0.019,0.000,155.000,0.000,2.000,0.000,0.000:
00000
00000
00000
00000
,
00000
00000
00000
00000
,
00001
00001
00001
00000
,
10000
10000
10000
00000
,
00001
00001
00001
00000
,
10000
10000
10000
00000
,
01000
01000
01000
00000
,
00010
00010
00010
00000
,
01000
01000
01000
00000
,
00010
00010
00010
00000
,
10000
00000
00001
00000
,
00100
00000
00010
00000
,
01000
00000
00001
00000
,
10000
00000
00100
00000
,
10000
00000
00001
00000
,
00010
00000
00001
00000
,
10000
00000
00100
00000
,
01000
00000
00010
00000
,
00100
00000
00001
00000
,
10000
00000
00002
00000
,
10003
00100
10000
00100
,
10000
00010
10000
00010
,
10000
00001
10000
00001
,
10000
00100
10000
00100
,
00001
10000
00001
10000
,
00001
01000
00001
01000
,
00001
00100
00001
00100
,
00001
01000
00010
01000
,
00010
00000
00000
00000
,
10000
00000
00000
00100
,
00100
00000
00000
00000
,
00001
00000
00000
00010
,
00010
00000
00000
00000
,
01000
00000
00000
00100
,
00100
00000
00000
00000
,
10000
00000
00001
10000
,
00001
10000
00001
10000
,
00001
00000
00000
00000
,
00100
00000
00000
00000
,
00010
00000
00000
00000
,
02000
00000
00000
00000
,
00000
00000
00000
00000
,
03010
00010
10000
10000
,
00010
00010
01000
01000
,
00001
00001
01000
01000
,
00100
00100
10000
10000
,
00010
00010
10000
10000
,
00001
00001
01000
01000
,
00010
00010
00100
00100
,
00001
00001
01000
01000
,
00100
00100
10000
10000
,
00010
00010
01000
01000
,
00100
00100
01000
01000
,
00010
00010
00100
00100
,
00001
00000
00000
10000
,
00000
00001
00000
10000
,
00000
00100
00000
10000
,
00000
00001
00000
00100
,
00000
00001
00001
00000
;

//---------------pump-single - Copied from----------------
#NOTES:
     pump-single:
     Copied from:
     Beginner:
     12:
     0.082,0.112,0.000,0.010,0.000,59.000,0.000,1.000,0.000,0.000:
00000
00000
00000
00000
,
00000
00000
00000
00000
,
00100
00000
00000
00000
,
00100
00000
00000
00000
,
00001
00000
00000
00000
,
00001
00000
00000
00000
,
00100
00000
00000
00000
,
00100
00000
00000
00000
,
00001
00000
00000
00000
,
00001
00000
00000
00000
,
10000
00000
00000
00000
,
10000
00000
00000
00000
,
01000
00000
00000
00000
,
01000
00000
00000
00000
,
10000
00000
00000
00000
,
10000
00000
00000
00000
,
01000
00000
00000
00000
,
01000
00000
00000
00000
,
10000
00000
00000
00000
,
10000
00000
00000
00000
,
00010
00000
00000
00000
,
00010
00000
00000
00000
,
01000
00000
00000
00000
,
01000
00000
00000
00000
,
00001
00000
00000
00000
,
00001
00000
00000
00000
,
10000
00000
00000
00000
,
10000
00000
00000
00000
,
00100
00000
00000
00000
,
00100
00000
00000
00000
,
01000
00000
00000
00000
,
01000
00000
00000
00000
,
00010
00000
00000
00000
,
00010
00000
00000
00000
,
00100
00000
00000
00000
,
00100
00000
00000
00000
,
00000
00000
00000
00000
,
00001
00000
00000
00000
,
00100
00000
00000
00000
,
00001
00000
00000
00000
,
00200
00000
00000
00000
,
00000
00000
00000
00000
,
00301
00000
00000
00000
,
10000
00000
00000
00000
,
00010
00000
00000
00000
,
01000
00000
00000
00000
,
00001
00000
00000
00000
,
10000
00000
00000
00000
,
00010
00000
00000
00000
,
01000
00000
00000
00000
,
00001
00000
00000
00000
,
10000
00000
00000
00000
,
00100
00000
00000
00000
,
10000
00000
00000
00000
,
00000
00000
00000
00001
,
00000
00100
00000
00100
,
00000
00001
00000
10000
,
00000
00100
00000
00100
,
00000
10000
10000
00000
;
