#TITLE:Satisfy U;
#SUBTITLE:;
#ARTIST:Hiro;
#TITLETRANSLIT:;
#SUBTITLETRANSLIT:;
#ARTISTTRANSLIT:;
#CREDIT:;
#BANNER:satisfyu-banner.png;
#SONGINFO:satisfyu-songinfo.png;
#BACKGROUND:satisfyu-bg.png;
#LYRICSPATH:;
#CDTITLE:./CDTITLES/hiro-ugd.png;
#CHARACTER:./SongCharacters/hiro;
#MUSIC:Satisfy U.mp3;
#OFFSET:0.960;
#SAMPLESTART:23.340;
#SAMPLELENGTH:12.000;
#SELECTABLE:YES;
#BPMS:0.000=128.000;
#STOPS:;
#BGCHANGES:-2.000=visffd320.avi=1.000=1=1=0
;
// cache tags:
#FIRSTBEAT:20.000;
#LASTBEAT:228.000;
#SONGFILENAME:Songs/Neon FM/Satisfy U/Satisfy U.sm;
#HASMUSIC:1;
#HASBANNER:1;
#MUSICLENGTH:107.192;
// end cache tags

//---------------pump-single - ----------------
#NOTES:
     pump-single:
     :
     Hard:
     80:
     0.517,0.585,0.317,0.205,0.341,332.000,34.000,22.000,0.000,0.000:
00000
00000
00000
00000
,
00000
00000
00000
00000
,
00000
00000
00000
00000
,
00000
00000
00000
00000
,
00000
00000
00000
00000
,
01000
00000
00000
00000
00000
00000
00010
00000
00000
00000
00000
00000
10000
00000
00000
00000
00000
00000
00000
00000
00000
00010
00000
00000
00000
00000
00000
00000
01000
00000
00001
00000
00000
00000
00000
00000
10000
00000
00000
00000
00000
00000
00000
00000
00000
00000
00000
00000
,
00100
00000
00000
00000
00000
00000
01000
00000
00000
00000
00000
00000
00001
00000
00000
00000
00000
00000
00000
00000
00000
10000
00000
00000
00000
00000
00000
00000
00100
00000
01000
00000
00000
00000
00000
00000
00010
00000
00000
00000
00000
00000
00000
00000
00000
00000
00000
00000
,
01000
00000
00000
00000
00000
00000
00001
00000
00000
00000
00000
00000
00010
00000
00000
00000
00000
00000
00000
00000
00000
00001
00000
00000
00000
00000
00000
00000
10000
00000
00100
00000
00000
00000
00000
00000
10000
00000
00000
00000
00000
00000
00000
00000
00000
00000
00000
00000
,
00001
01000
00001
01000
00010
10000
00010
10000
,
20000
00000
00000
00000
00000
00000
30010
00010
,
10000
00000
00000
00001
00000
00000
02000
00000
00000
00000
00000
00000
00000
00000
00000
00000
,
03001
00000
00000
10000
00000
00000
00200
00000
00000
00000
00000
00000
01000
00000
01300
00000
,
00010
00000
00000
00200
00000
00000
00301
00000
00000
00000
10000
00000
10000
00000
00000
00000
,
00010
00000
00000
00000
00000
00000
00000
00000
00000
01000
00000
00000
00000
00000
00000
00000
00000
00000
00001
00000
00000
00000
00000
00000
00000
00000
00000
00000
00001
00000
10000
00000
00000
00000
00000
00000
00100
00000
00000
00000
00000
00000
10000
00000
00000
00000
00000
00000
,
00001
00000
00000
00000
00000
00000
00000
00000
00000
01000
00000
00000
00000
00000
00000
00000
00000
00000
00100
00000
00000
00000
00000
00000
00000
00000
00000
00000
10000
00000
01000
00000
00000
00000
00000
00000
10000
00000
00000
00000
00000
00000
00100
00000
00000
00000
00000
00000
,
01000
00000
00000
00000
00000
00000
00000
00000
00000
00001
00000
00000
00000
00000
00000
00000
00000
00000
10000
00000
00000
00000
00000
00000
00000
00000
00000
00000
10000
00000
00010
00000
00000
00000
00000
00000
00100
00000
00000
00000
00000
00000
00010
00000
00000
00000
00000
00000
,
01000
00000
00000
00000
00000
00000
00000
00000
00000
00001
00000
00000
00000
00000
00000
00000
00000
00000
00100
00000
00000
00000
00000
00000
00000
00000
00000
00000
00100
00000
00010
00000
00000
00000
00000
00000
01000
00000
00000
00000
00000
00000
00001
00000
00000
00000
00000
00000
,
01001
00000
00000
00000
00000
00000
00000
00000
00000
10010
00000
00000
00000
00000
00000
00000
00000
00000
11000
00000
00000
00000
00000
00000
00000
00000
00000
00000
10000
00000
00001
00000
00000
00000
00000
00000
00100
00000
00000
00000
00000
00000
00001
00000
00000
00000
00000
00000
,
10100
00000
00000
00000
00000
00000
00000
00000
00000
01010
00000
00000
00000
00000
00000
00000
00000
00000
10100
00000
00000
00000
00000
00000
00000
00000
00000
00000
00001
00000
00010
00000
00000
00000
00000
00000
00001
00000
00000
00000
00000
00000
00100
00000
00000
00000
00000
00000
,
00110
00000
00000
00000
00000
00000
00000
00000
00000
10010
00000
00000
00000
00000
00000
00000
00000
00000
00101
00000
00000
00000
00000
00000
00000
00000
00000
00000
00001
00000
01000
00000
00000
00000
00000
00000
00100
00000
00000
00000
00000
00000
01000
00000
00000
00000
00000
00000
,
01010
00000
00000
00000
00000
00000
00000
00000
00000
10010
00000
00000
00000
00000
00000
00000
00000
00000
01100
00000
00000
00000
00000
00000
00000
00000
00000
00000
00100
00000
01000
00000
00000
00000
00000
00000
00010
00000
00000
00000
00000
00000
10000
00000
00000
00000
00000
00000
,
10001
20000
30000
00000
01010
00020
00030
00000
,
01001
02000
03000
00000
00020
00000
10030
00000
,
01100
00200
00300
00000
10010
00020
00030
00000
,
00110
00200
00300
00000
00001
01000
00010
00000
,
10001
00002
00003
00000
01010
02000
03000
00000
,
10010
00020
00030
00000
02000
00000
03001
00000
,
00110
00200
00300
00000
01001
02000
03000
00000
,
01100
00200
00300
00000
10001
00000
01010
00000
,
10100
00000
00000
00100
00000
00000
00000
00000
00000
01000
00000
00000
00000
00000
00000
00010
00000
00000
00000
00000
00010
00100
00000
00000
,
00000
00000
00000
00001
00000
00000
00000
00000
00000
00100
00000
00000
00000
00000
00000
00010
00000
00000
00000
00000
00010
10000
00000
00000
,
00000
00000
00000
00100
00000
00000
00000
00000
00000
01000
00000
00000
00000
00000
00000
00001
00000
00000
00000
00000
00001
00100
00000
00000
,
00000
00000
00000
00010
00000
00000
00000
00000
00000
10000
00000
00000
00000
00000
00000
00001
00000
00000
00000
00000
00001
01000
00000
00000
,
00000
00000
00000
00100
00000
00000
00000
00000
00000
10000
00000
00000
00000
00000
00000
00010
00000
00000
00000
00000
00010
10000
00000
00000
,
00000
00000
00000
00001
00000
00000
00000
00000
00000
00010
00000
00000
00000
00000
00000
00001
00000
00000
00000
00000
00001
01000
00000
00000
,
00000
00000
00000
00010
00000
00000
00000
00000
00000
00100
00000
00000
00000
00000
00000
00001
00000
00000
00000
00000
00001
10000
00000
00000
,
10000
00001
00100
00010
00100
00001
10000
00100
01000
00100
10000
00010
,
00100
00000
00000
00000
00000
00000
00010
00000
00000
01000
00000
00000
00000
00000
00010
00100
00000
00000
00001
00000
00000
00000
00000
00000
,
00000
00000
00000
10000
00000
00000
00100
00000
00000
01000
00000
00000
00000
00000
00010
01000
00000
00000
00001
00000
00000
00000
00000
00000
,
10000
00000
00000
00000
00000
00000
00010
00000
00000
01000
00000
00000
00000
00000
00010
10000
00000
00000
00001
00000
00000
00000
00000
00000
,
20000
32000
03200
00320
,
01030
00000
00000
00000
00000
00000
00000
00000
00000
01000
00000
00000
00000
00000
00000
00000
00000
00000
00001
00000
00000
00000
00000
00000
00000
00000
00000
00000
00001
00000
10000
00000
00000
00000
00000
00000
00100
00000
00000
00000
00000
00000
10000
00000
00000
00000
00000
00000
,
00001
00000
00000
00000
00000
00000
00000
00000
00000
01000
00000
00000
00000
00000
00000
00000
00000
00000
00100
00000
00000
00000
00000
00000
00000
00000
00000
00000
10000
00000
01000
00000
00000
00000
00000
00000
10000
00000
00000
00000
00000
00000
00100
00000
00000
00000
00000
00000
,
01000
00000
00000
00000
00000
00000
00000
00000
00000
00001
00000
00000
00000
00000
00000
00000
00000
00000
10000
00000
00000
00000
00000
00000
00000
00000
00000
00000
10000
00000
00010
00000
00000
00000
00000
00000
00100
00000
00000
00000
00000
00000
00010
00000
00000
00000
00000
00000
,
01000
00000
00000
00000
00000
00000
00000
00000
00000
00001
00000
00000
00000
00000
00000
00000
00000
00000
00100
00000
00000
00000
00000
00000
00000
00000
00000
00000
00100
00000
00010
00000
00000
00000
00000
00000
01000
00000
00000
00000
00000
00000
00001
00000
00000
00000
00000
00000
,
10000
00000
00000
00000
00000
10000
00010
00000
00000
00100
00000
00000
00001
00000
10000
00010
00000
00000
01000
00000
00000
00000
00000
00000
,
00010
00000
00000
00000
00000
01000
00001
00000
00000
00100
00000
00000
00010
00000
10000
00001
00000
00000
01000
00000
00000
00000
00000
00000
,
00100
00000
00000
00000
00000
10000
00100
00000
00000
01000
00000
00000
00001
00000
01000
00010
00000
00000
10000
00000
00000
00000
00000
00000
,
00001
00000
00000
00000
00000
01000
00100
00000
00000
10000
00000
00000
01000
00000
10000
00010
00000
00000
00100
00000
00000
00000
00000
00000
,
00011
00000
00000
00000
00000
00001
01000
00000
00000
00100
00000
00000
10000
00000
00001
01000
00000
00000
00010
00000
00000
00000
00000
00000
,
01001
00000
00000
00000
00000
00010
10000
00000
00000
00100
00000
00000
01000
00000
00001
10000
00000
00000
00010
00000
00000
00000
00000
00000
,
01100
00000
00000
00000
00000
00001
00100
00000
00000
00010
00000
00000
10000
00000
00010
01000
00000
00000
00001
00000
00000
00000
00000
00000
,
10100
00000
00000
00000
00000
00010
00100
00000
00000
00001
00000
00000
00010
00000
00001
01000
00000
00000
00100
00000
00000
00000
00000
00000
,
10010
00000
00000
01000
00000
00000
00001
00000
00000
00100
00000
00010
01000
00000
00010
01000
00000
00000
00001
00000
00000
00000
00000
00000
,
11000
00000
00000
10000
00000
00000
00010
00000
00000
00100
00000
00001
01000
00000
00001
01000
00000
00000
00010
00000
00000
00000
00000
00000
,
01001
00000
00000
00100
00000
00000
00001
00000
00000
10000
00000
00010
01000
00000
00010
01000
00000
00000
00100
00000
00000
00000
00000
00000
,
10000
10000
00010
00010
01000
01000
00001
00001
,
00100
00000
00000
00000
;

//---------------pump-single - ----------------
#NOTES:
     pump-single:
     :
     Medium:
     58:
     0.428,0.452,0.084,0.438,0.037,265.000,9.000,47.000,0.000,0.000:
00000
00000
00000
00000
,
00000
00000
00000
00000
,
00000
00000
00000
00000
,
00000
00000
00000
00000
,
00000
00000
00000
00000
,
10000
00100
01000
00010
00000
00000
00000
00000
,
10000
00100
01000
00010
00000
00000
00000
00000
,
00010
01000
00100
10000
00000
00000
00000
00000
,
00010
01000
00100
10000
10000
00100
01000
00010
,
00020
00000
02030
00000
,
03002
00000
20003
00000
,
30200
00000
02300
00000
,
03020
00000
00000
00000
00000
00130
00100
00000
,
00001
00000
00010
00000
00001
01000
00001
00200
,
00000
00310
00010
00000
01000
00100
10000
00100
,
02000
00000
03010
02000
00000
03010
02000
00000
,
03010
10000
00100
10000
00001
00000
00011
00000
,
10000
00000
01000
00000
10000
00010
10000
00200
,
00000
01300
01000
00000
00010
00100
00001
00100
,
00020
00000
01030
00020
00000
01030
00020
00000
,
01030
00001
00100
00001
10000
00000
11000
00000
,
00100
00200
00300
00000
01000
02000
03000
00000
,
00100
00200
00300
00000
02000
00000
03020
00000
,
00130
00200
00300
00000
00001
00002
00003
00000
,
00100
00200
00300
00000
00101
00000
00101
00000
,
00100
00200
00300
00000
00010
00020
00030
00000
,
00100
00200
00300
00000
00020
00000
02030
00000
,
03100
00200
00300
00000
10000
20000
30000
00000
,
00100
00200
00300
00000
10100
00000
10100
00000
,
00000
01000
00000
00010
00000
00100
00000
01000
,
00000
10000
00000
00001
00000
00010
00000
00100
,
00000
00010
00000
00001
00000
01000
00000
00100
,
00000
10000
00000
00010
00000
10000
00000
00001
,
00000
01000
00000
00100
00000
00010
00000
00100
,
00000
10000
00000
00001
00000
00100
00000
00010
,
00000
01000
00000
00100
00000
00010
00000
00100
,
10000
00100
10000
00001
00100
00001
01000
00010
01000
00001
10000
00001
,
00100
00000
00000
00010
01000
01000
00010
00000
,
00000
10000
00100
00000
01000
00010
01000
00000
,
00001
00000
00000
01000
00100
00100
01000
00000
,
00010
10000
00010
10000
00010
01000
00010
01000
,
00001
00000
00010
00000
00001
01000
00001
00200
,
00000
00310
00010
00000
01000
00100
10000
00100
,
02000
00000
03010
02000
00000
03010
02000
00000
,
03010
10000
00100
10000
00001
00000
00011
00000
,
10000
00000
01000
00000
10000
00010
10000
00200
,
00000
01300
01000
00000
00010
00100
00001
00100
,
00020
00000
01030
00020
00000
01030
00020
00000
,
01030
00001
00100
00001
10000
00000
11000
00000
,
00001
00000
00010
00000
00001
01000
00001
00200
,
00000
00310
00010
00000
01000
00100
10000
00100
,
02000
00000
03010
02000
00000
03010
02000
00000
,
03010
10000
00100
10000
00001
00000
00011
00000
,
10000
00000
01000
00000
10000
00010
10000
00200
,
00000
01300
01000
00000
00010
00100
00001
00100
,
00020
00000
01030
00020
00000
01030
00020
00000
,
01030
00001
00100
00001
01000
00001
00100
00001
,
10000
00000
00000
00000
;

//---------------pump-single - ----------------
#NOTES:
     pump-single:
     :
     Easy:
     28:
     0.189,0.239,0.000,0.000,0.000,142.000,0.000,0.000,0.000,0.000:
00000
00000
00000
00000
,
00000
00000
00000
00000
,
00000
00000
00000
00000
,
00000
00000
00000
00000
,
00000
00000
00000
00000
,
00001
00100
00000
00000
,
10000
00100
00000
00000
,
00001
00100
00000
00000
,
10000
00100
00000
00000
,
00010
00000
00000
00000
,
01000
00000
00000
00000
,
00010
00000
00000
00000
,
01000
00000
00000
00001
,
10000
00001
00100
00001
,
10000
00010
01000
00100
,
01000
00010
00100
00010
,
10000
00001
00001
00001
,
10000
00100
01000
00100
,
10000
00010
00100
00001
,
01000
00001
10000
00100
,
01000
00100
10000
00010
,
00010
00000
10000
00000
,
00010
00000
00100
00100
,
00010
00000
10000
00000
,
00010
00000
00100
00100
,
00010
00000
10000
00000
,
00010
00000
00100
00100
,
10000
00000
00010
00000
,
10000
00000
00001
00001
,
00100
00000
00000
00000
,
00001
00000
00000
00000
,
00010
00000
00000
00000
,
00100
00000
00000
00000
,
10000
00000
00000
00000
,
00001
00000
00000
00000
,
10000
00000
00000
00000
,
00010
00010
00010
00010
,
00010
00000
01000
00000
,
00100
00000
10000
00000
,
00001
00000
00100
00000
,
00001
00000
00001
00001
,
00010
00000
00010
00000
,
01000
00000
01000
00000
,
00100
00000
00100
00000
,
10000
00000
10000
00000
,
00001
10000
00100
10000
,
00001
00100
00001
01000
,
00010
10000
00001
01000
,
00100
10000
00010
00100
,
00010
00010
10000
10000
,
00001
00001
01000
01000
,
00100
00100
10000
10000
,
00100
00100
01000
01000
,
00010
00010
10000
10000
,
00001
00001
01000
01000
,
00100
00100
10000
10000
,
00010
10000
00001
01000
,
00100
00000
00000
00000
;

//---------------pump-single - Copied from----------------
#NOTES:
     pump-single:
     Copied from:
     Beginner:
     19:
     0.119,0.160,0.000,0.000,0.000,89.000,0.000,0.000,0.000,0.000:
00000
00000
00000
00000
,
00000
00000
00000
00000
,
00000
00000
00000
00000
,
00000
00000
00000
00000
,
00000
00000
00000
00000
,
00100
00000
00001
00000
,
10000
00000
00010
00000
,
10000
00000
00100
00000
,
01000
00000
00001
00000
,
00100
00000
00000
00000
,
00010
00000
00000
00000
,
00100
00000
00000
00000
,
00010
00000
00000
00100
,
00001
00000
00000
00000
,
10000
00000
00000
00000
,
00001
00000
00000
00000
,
10000
00000
00000
00000
,
00010
00000
00000
00000
,
00100
00000
00000
00000
,
00010
00000
00000
00000
,
01000
00000
00000
00000
,
00100
00000
00100
00000
,
00100
00000
00100
00100
,
00100
00000
00100
00000
,
00100
00000
00100
00100
,
00100
00000
00100
00000
,
00100
00000
00100
00100
,
00100
00000
00100
00000
,
00100
00000
00000
00100
,
00001
00000
00000
00000
,
10000
00000
00000
00000
,
00010
00000
00000
00000
,
00010
00000
00000
00000
,
01000
00000
00000
00000
,
00001
00000
00000
00000
,
00001
00000
00000
00000
,
10000
10000
10000
10000
,
10000
00000
00000
00000
,
00000
00000
00000
00000
,
00010
00000
00000
00000
,
00000
00000
00000
00001
,
00001
00100
00000
00000
,
10000
00100
00000
00000
,
01000
00001
00000
00000
,
00010
00100
00000
00000
,
10000
00010
00000
00000
,
00100
01000
00000
00000
,
00001
01000
00000
00000
,
00010
10000
00000
00000
,
00100
00100
00000
00000
,
10000
10000
00000
00000
,
00001
00001
00000
00000
,
00010
00010
00000
00000
,
00100
00100
00000
00000
,
01000
01000
00000
00000
,
00001
00001
00000
00000
,
10000
00100
10000
00100
,
10000
00000
00000
00000
;
