#TITLE:Complete Shot;
#SUBTITLE:P N K 5;
#ARTIST:Pop'nKO;
#TITLETRANSLIT:;
#SUBTITLETRANSLIT:;
#ARTISTTRANSLIT:;
#CREDIT:;
#BANNER:CompleteShot-banner.png;
#SONGINFO:completeshot-songinfo.png;
#BACKGROUND:CompleteShot-bg.png;
#LYRICSPATH:;
#CDTITLE:./CDTITLES/PopnkoCD.png;
#CHARACTER:./SongCharacters/popnko;
#MUSIC:Complete Shot.mp3;
#OFFSET:-0.080;
#SAMPLESTART:25.161;
#SAMPLELENGTH:12.000;
#SELECTABLE:YES;
#BPMS:0.000=154.000;
#STOPS:264.000=0.584
;
#BGCHANGES:-2.000=visffd320.avi=1.000=1=1=0
;
// cache tags:
#FIRSTBEAT:16.000;
#LASTBEAT:296.500;
#SONGFILENAME:Songs/Neon FM/Complete Shot/Complete Shot.sm;
#HASMUSIC:1;
#HASBANNER:1;
#MUSICLENGTH:116.897;
// end cache tags

//---------------pump-single - TaQ-style----------------
#NOTES:
     pump-single:
     TaQ-style:
     Hard:
     92:
     0.605,0.665,0.163,0.103,0.432,464.000,19.000,12.000,0.000,0.000:
00000
00000
00000
00000
,
00000
00000
00000
00000
,
00000
00000
00000
00000
,
00000
00000
00000
00000
,
00010
00010
00000
00000
00000
00000
00000
00000
,
00000
00000
00000
00000
,
00010
00010
00000
00000
00000
00000
00000
00000
,
01010
00101
01010
10100
,
01000
00000
10000
01000
00000
00000
10000
01000
00000
00000
00100
01000
00000
00000
00100
01000
,
00000
00000
00100
00010
00000
00000
00100
00010
00000
00000
00001
00010
00000
00000
00001
00010
,
00000
00000
10000
01000
00000
00000
00001
00010
00000
00000
10000
01000
00000
00000
00001
00010
,
00001
00010
00000
00100
00010
00001
00000
00100
00010
00000
00010
00000
10000
01000
10000
01000
,
10000
00000
00000
01000
00100
00000
00000
00100
00010
00000
00000
00010
00001
00000
00001
00000
,
00001
00000
00000
00001
00010
00000
00000
01000
10000
00000
00000
10000
01000
00000
01000
00000
,
01000
00000
00000
01000
00100
00000
00000
00100
00010
00000
00000
00010
00001
00000
00001
00000
,
00001
00000
00000
00001
00010
00000
00000
00100
01000
00000
00000
00001
00010
00000
00010
00000
,
00010
00000
00000
00010
01000
00000
00000
01000
10000
00000
00000
00010
00100
00000
00100
00000
,
00100
00000
00000
00100
10000
00000
00000
10000
00010
00000
00000
00010
01000
00000
01000
00000
,
01000
00000
00000
01000
00001
00000
00000
00001
00100
00000
00000
00100
10000
00000
10000
00000
,
10000
00000
00000
10000
01000
00000
00000
01000
00010
00000
00000
00010
00001
00000
00001
00000
,
00020
00032
00200
00303
,
02000
23000
00020
30030
,
00100
00010
00100
00001
00100
00010
00001
00001
,
00010
00100
01000
10000
00100
01000
10000
10000
,
01000
00010
00100
00010
00001
00010
01000
01000
,
10000
00010
00100
00001
00100
00010
00100
00100
,
01000
00100
10000
01000
00100
00010
00001
00001
,
00010
01000
10000
01000
00100
00010
00001
00001
,
00010
00100
00001
00100
01000
00100
10000
10000
,
01000
00100
00010
00100
00001
00100
00010
00010
,
00200
00000
00000
00000
00000
00000
00000
01000
,
01000
01000
01300
00000
10000
00000
00110
00000
,
00002
00010
00010
00010
00010
00000
00103
00000
,
00011
00110
11000
01100
,
00020
00100
00000
00130
,
00100
00001
00010
00100
01000
00010
00100
00001
,
00020
00100
00000
00130
,
00100
10000
01000
00100
00010
00001
00010
01000
,
10000
00000
00000
01000
10000
00000
00000
01000
10000
00000
00000
01000
10000
00000
10000
00000
,
10000
00000
00000
00010
00100
00000
00000
00010
00100
00000
00000
00010
00100
00000
00100
00000
,
00100
01000
00000
00010
00100
00000
00001
00000
,
01000
00000
00010
00000
00000
00000
10000
00000
01000
00000
00000
00000
00100
00000
00000
00010
,
00001
00010
00000
00001
00010
00000
01010
00000
,
00100
00000
10000
00000
00000
00000
01000
00000
00100
00000
00000
00010
00001
00000
00000
00010
,
00001
00000
00000
00000
,
00000
00000
00000
00000
00000
00010
01000
10000
,
01000
00000
10000
01000
00000
00000
10000
01000
00000
00000
00100
01000
00000
00000
00100
01000
,
00000
00000
00100
00010
00000
00000
00100
00010
00000
00000
00001
00010
00000
00000
00001
00010
,
00000
00000
10000
01000
00000
00000
00001
00010
00000
00000
10000
01000
00000
00000
00001
00010
,
00001
00010
00000
00100
00010
00001
00000
00100
00010
00000
00010
00000
10000
01000
10000
01000
,
10000
00000
00000
01000
00100
00000
00000
00100
00010
00000
00000
00010
00001
00000
00001
00000
,
00001
00000
00000
00001
00010
00000
00000
01000
10000
00000
00000
10000
01000
00000
01000
00000
,
01000
00000
00000
01000
00100
00000
00000
00100
00010
00000
00000
00010
00001
00000
00001
00000
,
00001
00000
00000
00001
00010
00000
00000
00100
01000
00000
00000
00001
00010
00000
00010
00000
,
00010
00000
00000
00010
01000
00000
00000
01000
10000
00000
00000
00010
00100
00000
00100
00000
,
00100
00000
00000
00100
10000
00000
00000
10000
00010
00000
00000
00010
01000
00000
01000
00000
,
01000
00000
00000
01000
00001
00000
00000
00001
00100
00000
00000
00100
10000
00000
10000
00000
,
22000
00000
00000
00000
00000
00000
00000
33000
,
10000
01000
00100
00001
00010
00100
10000
01000
,
00100
00001
00010
00100
10000
01000
00100
00010
,
00001
01000
10000
00001
00010
00001
10000
01000
,
10000
00001
00010
00001
10000
01000
10000
00001
,
00010
00100
01100
10000
01000
00100
00110
00001
,
00010
00100
01100
10000
01000
00100
00110
00001
,
00100
00010
00011
10000
00100
01000
11000
00001
,
00100
00000
00010
00000
00011
00000
10000
00000
00100
00000
01000
00000
10000
01000
10000
01000
,
00000
00011
00000
00010
00000
00100
00000
01000
,
00000
00000
00000
00000
00000
00000
00000
01000
,
00000
10000
01000
00000
00000
01000
00100
00000
00000
00100
00010
00000
00000
00010
01000
00000
,
00000
01000
10000
00000
00000
01000
00010
00000
00000
00010
00001
00000
00000
00000
00010
00000
,
00000
00100
01000
10000
00000
01000
00000
00100
,
00000
00010
00001
00100
00000
00010
00000
00001
,
00000
00010
00100
01000
00000
00100
00000
00010
,
00000
00000
10000
00000
01000
00000
00100
00000
00000
00000
01000
00000
00000
00000
10000
00100
,
10000
00100
00000
00000
00000
00000
00000
00000
00000
00000
00000
00000
00000
00000
00000
00000
;

//---------------pump-single - ----------------
#NOTES:
     pump-single:
     :
     Medium:
     60:
     0.433,0.538,0.325,0.120,0.000,302.000,38.000,14.000,0.000,0.000:
00000
00000
00000
00000
,
00000
00000
00000
00000
,
00000
00000
00000
00000
,
00000
00000
00000
00000
,
01000
01000
00000
00000
00000
00000
00000
00000
,
00000
00000
00000
00000
,
01000
01000
00000
00000
00000
00000
00000
00000
,
10100
10100
01010
01010
,
00100
00000
00100
00010
00001
00000
00010
00000
,
01000
01000
00100
00100
,
00100
00000
00100
01000
10000
00000
01000
00000
,
00010
00000
00010
00000
00100
00000
00001
00100
,
00001
00011
00010
00110
,
00100
01100
01000
11000
,
01000
01100
00100
00110
,
00010
00011
00100
00101
,
01000
00010
00100
01100
,
00010
01000
00100
00110
,
00001
00100
00010
00110
,
00100
10000
01000
01100
,
20002
00000
00000
00000
,
00000
00000
00000
00000
00000
00000
00000
30003
,
01000
00100
00010
00000
00100
00000
01100
00000
,
00010
00100
01000
00000
00100
00000
00110
00000
,
00001
00010
00100
00000
00010
00000
00110
00000
,
00100
01000
10000
00000
01000
00000
01100
00000
,
10000
01000
00100
00000
01000
00000
01100
00000
,
01000
00100
00010
00000
00100
00000
00110
00000
,
00100
00010
00001
00000
00010
00000
00011
00000
,
00001
00010
00100
01000
10000
01000
00100
00010
,
00002
00010
00000
00013
,
00200
01000
00000
01300
,
20000
01000
00000
31000
,
00200
00010
00000
00310
,
00002
00100
00000
00103
,
00020
01000
00000
01030
,
00200
10000
00000
10300
,
20000
31000
00200
00310
,
00001
00001
00010
00001
,
00100
00100
00010
00100
,
00100
01000
00000
01000
10000
00000
10000
00000
,
10000
01000
00000
01000
00100
00000
00100
00000
,
00100
00010
00000
00010
00001
00000
00001
00000
,
00001
00010
00000
00010
00100
00000
00100
00000
,
00100
00000
00000
00000
,
00000
00000
00000
00000
00000
01000
01000
01000
,
00100
00000
00100
00010
00001
00000
00010
00000
,
01000
01000
00100
00100
,
00100
00000
00100
01000
10000
00000
01000
00000
,
00010
00000
00010
00000
00100
00000
00001
00100
,
00001
00011
00010
00110
,
00100
01100
01000
11000
,
01000
01100
00100
00110
,
00010
00011
00100
00101
,
01000
00010
00100
01100
,
00010
01000
00100
00110
,
00001
00100
00010
00110
,
02020
00000
00000
00000
00000
00000
00000
03030
,
10000
01000
10000
01000
10000
01000
10000
01000
,
00100
01000
00100
01000
00100
01000
00100
01000
,
00100
00010
00100
00010
00100
00010
00100
00010
,
00001
00010
00001
00010
00001
00010
00001
00010
,
00100
00010
00100
00010
00100
00010
00100
00010
,
00100
01000
00100
01000
00100
01000
00100
01000
,
10000
01000
10000
01000
10000
01000
10000
01000
,
10000
01000
00100
00010
00001
00010
00100
01000
,
00000
10000
00000
01000
00000
00100
00000
00020
,
00000
00000
00000
00000
00000
00000
00000
00030
,
00000
00001
00000
00010
00100
01000
00000
10000
,
00000
01000
00000
00100
00000
01000
00000
10000
,
00000
10000
00000
01000
00000
00100
00000
00010
,
00000
00001
00000
00010
00000
00100
00000
00010
,
00000
00001
00000
00010
00000
00100
00000
01000
,
00000
10000
00000
01000
00000
00100
00000
10100
,
10100
00000
00000
00000
;

//---------------pump-single - ----------------
#NOTES:
     pump-single:
     :
     Easy:
     30:
     0.251,0.442,0.308,0.342,0.000,129.000,36.000,40.000,0.000,0.000:
00000
00000
00000
00000
,
00000
00000
00000
00000
,
00000
00000
00000
00000
,
00000
00000
00000
00000
,
00100
00000
00000
00000
,
00000
00000
00000
00000
,
00100
00000
00000
00000
,
00100
00100
10000
10000
,
01000
00000
00100
00000
,
00001
00001
00010
00010
,
00001
00000
00100
00000
,
10000
10000
01000
01000
,
20000
30000
02000
03000
,
00200
00300
02000
03000
,
00200
00300
00020
00030
,
00002
00003
00020
00030
,
00200
00300
00020
00030
,
00200
00300
02000
03000
,
20000
30000
00200
00300
,
00002
00003
00200
00300
,
02020
00000
00000
00000
,
00000
00000
00000
03030
,
10000
00000
10100
00000
,
01000
00000
01100
00000
,
00010
00000
00110
00000
,
00001
00000
00011
00000
,
10000
00000
10100
00000
,
00001
00000
00101
00000
,
01000
00000
01010
00000
,
00010
00000
01010
00000
,
20000
00000
00000
00000
,
00000
00000
00000
30000
,
00200
00000
00000
00000
,
00000
00000
00000
00300
,
20000
00000
00000
00000
,
00000
00000
00000
30000
,
02000
00000
00000
00000
,
00000
00000
00000
03000
,
00002
00000
00000
00000
,
00000
00000
00000
00003
,
00200
00000
00000
00000
,
00000
00000
00000
00300
,
00002
00000
00000
00000
,
00000
00000
00000
00003
,
00000
00000
00000
00000
,
00000
00000
00000
00000
,
01000
00000
00100
00000
,
00001
00001
00010
00010
,
00001
00000
00100
00000
,
10000
10000
01000
01000
,
20000
30000
02000
03000
,
00200
00300
02000
03000
,
00200
00300
00020
00030
,
00002
00003
00020
00030
,
00200
00300
00020
00030
,
00200
00300
02000
03000
,
20000
30000
00200
00300
,
00002
00000
00000
00003
,
00101
00101
00000
01010
,
01010
01010
00000
10100
,
10100
10100
00000
10001
,
10001
10001
00000
00011
,
00011
00011
00000
01100
,
01100
01100
00000
11000
,
11000
11000
00000
00110
,
00110
00110
00000
01010
,
00000
01010
00000
00000
00000
01010
00000
00000
,
00000
01010
00000
00000
00000
00000
00000
00000
,
00000
10000
00000
10000
00000
10000
00000
10000
,
00000
00100
00000
00100
00000
00100
00000
00100
,
00000
00001
00000
00000
00000
00010
00000
00000
,
00000
00100
00000
00000
00000
00010
00000
00000
,
00000
00100
00000
00000
00000
01000
00000
00000
,
00000
10000
00000
00000
00000
01000
00000
00100
;

//---------------pump-single - ----------------
#NOTES:
     pump-single:
     :
     Beginner:
     20:
     0.208,0.441,0.299,0.086,0.000,125.000,35.000,10.000,0.000,0.000:
00000
00000
00000
00000
,
00000
00000
00000
00000
,
00000
00000
00000
00000
,
00000
00000
00000
00000
,
00100
00000
00000
00000
,
00000
00000
00000
00000
,
00100
00000
00000
00000
,
00100
00100
00100
00100
,
00100
00000
01000
00000
,
00001
00001
00001
00001
,
00001
00000
00100
00000
,
10000
10000
10000
10000
,
10000
00000
01000
00000
,
00100
00000
01000
00000
,
00100
00000
00010
00000
,
00001
00000
00010
00000
,
00100
00000
00010
00000
,
00100
00000
01000
00000
,
10000
00000
00100
00000
,
00001
00000
00100
00000
,
02020
00000
00000
00000
,
00000
00000
03030
00000
,
10000
00000
10100
00000
,
01000
00000
01010
00000
,
00010
00000
01010
00000
,
00001
00000
00101
00000
,
10000
00000
10100
00000
,
00001
00000
00101
00000
,
01000
00000
01010
00000
,
00010
00000
01010
00000
,
20000
00000
00000
00000
,
00000
00000
30000
00000
,
00200
00000
00000
00000
,
00000
00000
00300
00000
,
20000
00000
00000
00000
,
00000
00000
30000
00000
,
02000
00000
00000
00000
,
00000
00000
03000
00000
,
00002
00000
00000
00000
,
00000
00000
00003
00000
,
00200
00000
00000
00000
,
00000
00000
00300
00000
,
00002
00000
00000
00000
,
00000
00000
00000
00000
,
00003
00000
00000
00000
,
00000
00000
00000
00000
,
01000
00000
00100
00000
,
00001
00001
00001
00001
,
00001
00000
00100
00000
,
10000
10000
10000
10000
,
10000
00000
01000
00000
,
00100
00000
01000
00000
,
00100
00000
00010
00000
,
00001
00000
00010
00000
,
00100
00000
00010
00000
,
00100
00000
01000
00000
,
10000
00000
00100
00000
,
00002
00000
00003
00000
,
00101
00101
00000
01010
,
01010
01010
00000
10100
,
10100
10100
00000
10001
,
10001
10001
00000
00101
,
00101
00101
00000
01010
,
01010
01010
00000
10100
,
10100
10100
00000
00101
,
00101
00101
00000
00000
,
00000
00000
00000
00000
00000
01010
00000
00000
,
00000
01010
00000
00000
00000
01010
00000
00000
,
00000
10000
00000
10000
00000
10000
00000
00000
,
00000
00100
00000
00100
00000
00100
00000
00000
,
00000
00001
00000
00000
00000
00010
00000
00000
,
00000
00100
00000
00000
00000
00010
00000
00000
,
00000
00100
00000
00000
00000
01000
00000
00000
,
00000
10000
00000
00000
00000
01000
00000
00000
;

//---------------pump-double - ----------------
#NOTES:
     pump-double:
     :
     Hard:
     94:
     0.725,0.729,0.402,0.094,0.364,535.000,47.000,11.000,0.000,0.000:
0000000000
0000000000
0000000000
0000000000
,
0000000000
0000000000
0000000000
0000000000
,
0000000000
0000000000
0000000000
0000000000
,
0000000000
0000000000
0000000000
0000000000
,
0001020000
0000130000
0000000000
0000000000
0000000000
0000000000
0000000000
0000000000
,
0000000000
0000000000
0000000000
0000000000
,
0000201000
0000310000
0000000000
0000000000
0000000000
0000000000
0000000000
0000000000
,
0001001000
0000000000
0010010000
0000000000
0100100000
0000000000
1001000000
0010000000
,
0100000000
0000000000
0010000000
0000000000
1000000000
0000000000
0001000000
0010000000
0000000000
0000010000
0000100000
0000000000
0000001000
0000000000
0000010000
0000000000
,
0000000100
0000000000
0000001000
0000000000
0000010000
0000000000
0000100000
0001000000
0000000000
0000100000
0000010000
0000000000
0000001000
0000000000
0000000100
0000000000
,
0000010000
0000000000
0000000010
0000000000
0000000001
0000000000
0000000010
0000001000
0000000000
0000001000
0000010000
0000000000
0000001000
0000000000
0000010000
0000000000
,
0000001000
0000000010
0000000001
0000000010
0000001000
0000010000
0000100000
0001000000
,
0100000000
0000000000
0000100000
0010000000
0000000000
0000000000
0000010000
0001000000
0000000000
0000000000
0000001000
0000100000
0000000000
0000000000
0000000100
0000010000
,
0000000000
0000000000
0000000010
0000001000
0000000000
0000000000
0000010000
0000001000
0000000000
0000000000
0000000010
0000001000
0000000000
0000000000
0000010000
0000001000
,
0000000000
0000000000
0000000010
0000010000
0000000000
0000000000
0000001000
0000100000
0000000000
0000000000
0001000000
0010000000
0000000000
0000000000
0000100000
0100000000
,
0000000000
0000000000
0000010000
0000100000
0000000000
0000000000
0000000100
0000001000
0000000000
0000000000
0000000010
0000010000
0000000000
0000000000
0000000010
0000000100
,
0000000001
0000000000
0000010000
0000000000
0000010000
0000000000
0000000100
0000001000
0000000100
0000000000
0000100000
0000000000
0000100000
0000000000
0000010000
0001000000
,
0000010000
0000000000
0010000000
0000000000
0010000000
0000000000
0000100000
0100000000
0000100000
0000000000
1000000000
0000000000
1000000000
0000000000
0100000000
0000000000
,
0010000000
0001000000
0000100000
0000010000
0000001000
0000000100
0000000010
0000000001
,
0000000101
0000010100
0000110000
0010100000
,
1020000000
0032000000
0003020000
0020030000
,
0030002000
0000000000
0000003200
0000000000
0000000320
0000000000
0000100030
0000010000
,
0000101000
0000000000
0000010000
0000000000
0000001000
0000000000
0000100000
0000010000
0000000000
0000010000
0001000000
0000000000
0010000000
0000000000
1000000000
0000000000
,
0100000000
0000000000
0010000000
0000000000
0000100000
0000000000
0001000000
0010000000
0000000000
0010000000
1000000000
0000000000
0100000000
0000000000
0010000000
0000000000
,
0000100000
0000000000
0001000000
0000000000
0000001000
0000000000
0000010000
0000000010
0000000000
0000001000
0000000001
0000000000
0000000100
0000000000
0000001000
0000000000
,
0000100000
0000000000
0000010000
0000000000
0001000000
0000000000
0010000000
1000000000
0000000000
1000000000
0100000000
0000000000
0010000000
0000000000
0000100000
0000000000
,
0001000000
0010000000
0001000000
0000001000
0000000100
0000001000
0001000000
0010000000
,
0001000000
0000010000
0000100000
0001000000
0000100000
0000010000
0000001000
0000010000
,
0000100000
0000000100
0000001000
0000000010
0000100000
0000010000
0010000000
0000010000
,
0000100000
0000000100
0000100000
0000010000
0001000000
0000100000
0001000000
0000010000
,
0000100000
0000010000
0000110000
0000100000
0000000100
0000010000
0000010100
0000000010
,
0000001000
0000000100
0000001001
0000000010
0000010000
0000001000
0000010100
0000001000
,
0000100000
0000010000
0001010000
0001000000
0010000000
1000000000
1000100000
0000100000
,
0100000000
0001000000
0011000000
0010000000
0000010000
0000100000
0000100100
0000000100
,
0000001000
0000010000
0001010000
0001000000
0000001000
0000100000
0000100100
0000010000
,
0000000010
0000001000
0000000101
0000001000
0000000010
0000000100
0000010010
0000001000
,
0000000100
0000100000
0000011000
0000100000
0000010000
0010000000
0001100000
0010000000
,
0001000000
1000000000
0100100000
0000000000
0001010000
0000000000
0000001100
0000000000
,
0000010000
0000000000
0000000000
0000000010
0000010000
0000000000
0000000000
0000000010
0000010000
0000000000
0000000000
0000000010
0000010000
0000000000
0000001000
0000000000
,
0000100000
0000000000
0000000000
0000010000
0001000000
0000000000
0000000000
0000010000
0001000000
0000000000
0000000000
0000010000
0001000000
0000000000
0000100000
0000000000
,
1001000000
0100100000
0010010000
0001001000
,
0000100100
0000010010
0000001001
0000000110
,
0000010000
0000000000
0000010000
0000000000
0000010000
0000000000
0000001000
0001000000
0000000000
0000001000
0001000000
0000000000
0000100000
0000000000
0010000000
0000000000
,
0000100000
0000000000
0000100000
0000000000
0000100000
0000000000
0001000000
0000001000
0000000000
0001000000
0000001000
0000000000
0000010000
0000000000
0000000100
0000000000
,
0000010000
0000001000
0000100000
0000010000
0000001000
0000010000
0010000000
0001000000
,
0010200000
0000000000
0000000000
0000000000
0000000000
0010000000
0010000000
0010300000
,
0010010000
0000000000
0000100000
0000000000
0000000100
0000000000
0000001000
0000010000
0000000000
0000010000
0001000000
0000000000
0000100000
0000000000
0010000000
0000000000
,
0001000000
0000000000
0010000000
0000000000
0001000000
0000000000
0000100000
0000010000
0000000000
0000100000
0000010000
0000000000
0000010000
0000000000
0000001000
0000000000
,
0000000100
0000000000
0000001000
0000000000
0000000100
0000000000
0000100000
0000001000
0000000000
0001000000
0000010000
0000000000
0000010000
0000000000
0000100000
0000000000
,
0000001000
0000000000
0000010000
0000000000
0000000100
0000000000
0000001000
0000000010
0000000000
0000010000
0000000100
0000000000
0000100000
0000000000
0000001000
0000000000
,
0001000000
0000000000
0000010000
0000000000
0010000000
0000000000
0001000000
0000100000
0000000000
0000100000
0000010000
0000000000
0010000000
0000000000
0001000000
0000000000
,
1000000000
0000000000
0010000000
0000000000
0100000000
0000000000
0100000000
0000100000
0000000000
0001000000
0000010000
0000000000
0000100000
0000000000
0000000100
0000000000
,
0000011000
0000100100
0000001010
0000010100
,
0000010001
0000000001
0000010000
0000000100
0000100000
0000010000
0010000000
0000100000
,
1000100000
0000000000
0010000000
0000100000
0000000000
0000000000
0001000000
0000010000
0000000000
0000000000
0000100000
0000001000
0000000000
0000000000
0000001000
0000010000
,
0000000000
0000000000
0000010000
0000000010
0000000000
0000000000
0000000010
0000001000
0000000000
0000000000
0000001000
0000100000
0000000000
0000000000
0000100000
0010000000
,
0000000000
0000000000
0010000000
0100000000
0000000000
0000000000
0100000000
1000000000
0000000000
0000000000
1000000000
0001000000
0000000000
0000000000
0001000000
0020000000
,
0000100000
0000000000
0000100000
0000000000
0000100000
0000000000
0000000000
0000001000
0000000000
0000000000
0000100000
0000000000
0000100000
0000000000
0000100000
0000000000
,
0030100000
0010000000
0000100000
0010000000
0100000000
0010000000
0100000000
0010000000
,
0000100000
0001000000
0000010000
0000100000
0000001000
0000010000
0000000100
0000000100
,
0000010000
0000000100
0000010000
0000000100
0000000010
0000000100
0000000010
0000000100
,
0000010000
0000001000
0000100000
0000010000
0001000000
0000100000
0001000000
0000010000
,
0000100000
0000001000
0000000100
0000001000
0000100000
0000001000
0000000100
0000001000
,
0000100000
0001000000
0000100000
0000001000
0000100000
0001000000
0000100000
0000001000
,
0001000000
0010000000
0001000000
0000010000
0001000000
0010000000
0001000000
0000010000
,
0000100000
0001000000
0000100000
0000001000
0000100000
0001000000
0000100000
0000001000
,
0001010000
0000000000
0000000000
0000000000
0000010000
0001000000
0000000000
0000000000
0000001000
0000100000
0000000000
0000000000
0000010000
0010000000
0000000000
0000000000
,
0000000100
0000100000
0000000000
0000000000
0000000000
0000000000
0000010000
0001000000
0000010000
0001000000
0000010000
0001000000
0000010000
0001000000
0000010000
0001000000
,
0000010000
0001000000
0000100000
0000000000
0010000000
0000000000
0001000000
0000000000
0100000000
0010000000
0000000000
0100000000
0010000000
0000000000
0001000000
0000000000
,
0000100000
0000000000
0010000000
0000000000
0000000000
0000000000
0010000000
0000100000
0010000000
0000100000
0010000000
0000100000
0010000000
0000100000
0010000000
0000100000
,
0010000000
0000000000
0000000000
0010000000
0000010000
0000100000
0000010000
0010000000
,
0000100000
0001000000
0010000000
0001000000
0010000000
0001000000
0000010000
0000100000
,
0000100000
0000001000
0000000100
0000001000
0000000100
0000001000
0000100000
0000010000
,
0000010000
0000001000
0000010000
0000100000
0001000000
0000100000
0000010000
0000001000
,
0000010000
0000101000
0000000000
0000000000
0000000000
0000000000
0000000000
0000000000
;

//---------------pump-double - ----------------
#NOTES:
     pump-double:
     :
     Medium:
     74:
     0.497,0.539,0.274,0.188,0.068,353.000,32.000,22.000,0.000,0.000:
0000000000
0000000000
0000000000
0000000000
,
0000000000
0000000000
0000000000
0000000000
,
0000000000
0000000000
0000000000
0000000000
,
0000000000
0000000000
0000000000
0000000000
,
0010000000
0010000000
0000000000
0000000000
0000000000
0000000000
0000000000
0000000000
,
0000000000
0000000000
0000000000
0000000000
,
0000000100
0000000100
0000000000
0000000000
0000000000
0000000000
0000000000
0000000000
,
0000101000
0001010000
0010100000
0101000000
,
1000000000
0010000000
1000000000
0000000000
1010000000
0000000000
0101000000
0000000000
,
0010000000
0000100000
0010000000
0000000000
0010100000
0000000000
0001010000
0000000000
,
0000100000
0000001000
0000100000
0000000000
0000101000
0000000000
0000010100
0000000000
,
0000001000
0000000010
0000001000
0000000000
0000001010
0000000000
0000000101
0000000000
,
0000000001
0000001000
0000000100
0000000000
0000100000
0000001000
0000010000
0000000000
,
0000000100
0001000000
0000010000
0000000000
0000100000
0000001000
0001000000
0000000000
,
0000100000
1000000000
0010000000
1000000000
0000100000
0000000000
0000000000
0000000000
,
0100000000
0001000000
0010000000
0000010000
0000100000
0000000000
0000000000
0000000000
,
0000100000
0000000100
0000001000
0000000010
0000000100
0000000000
0000000000
0000000000
,
0000000010
0000010000
0000001000
0000100000
0001000000
0000000000
0000000000
0000000000
,
1000000000
0010000000
1000000000
0010000000
0100000000
0001000000
0100000000
0001000000
,
0010000000
0000010000
0010000000
0000010000
0001000000
0000001000
0001000000
0000001000
,
0000020000
0000000000
0000001000
0000000000
,
0000001000
0000000000
0000001000
0000000000
,
0000030200
0000000000
0000000000
0000000000
0000100300
0000000000
0000000000
0000000000
0001000000
0000000000
0000000000
0100000000
0010000000
0000000000
0000000000
0000000000
,
2000000000
0000000000
0000000000
0000000000
3001000000
0000000000
0000000000
0000000000
0000100000
0000000000
0000000000
0000001000
0000010000
0000000000
0000000000
0000000000
,
0000000020
0000000000
0000000000
0000000000
0000000130
0000000000
0000000000
0000000000
0000001000
0000000000
0000000000
0000100000
0000010000
0000000000
0000000000
0000000000
,
0002000000
0000000000
0000000000
0000000000
0003100000
0000000000
0000000000
0000000000
0100000000
0000000000
0000000000
0010000000
1000000000
0000000000
0000000000
0000000000
,
0002000000
0000000000
0000000000
0000000000
0013000000
0000000000
0000000000
0000000000
0000010000
0000000000
0000000000
0000100000
0000010000
0000000000
0000000000
0000000000
,
0000002000
0000000000
0000000000
0000000000
0000003100
0000000000
0000000000
0000000000
0000000001
0000000000
0000000000
0000000100
0000000010
0000000000
0000000000
0000000000
,
0000002000
0000000000
0000000000
0000000000
0000003100
0000000000
0000000000
0000000000
0000100000
0000000000
0000000000
0001000000
0010000000
0000000000
0000000000
0000000000
,
0020000000
0000000000
0000000000
0000000000
0031000000
0000000000
0000000000
0000000000
0000100000
0000000000
0000000000
0000000100
0000100000
0000000000
0000000000
0000000000
,
0000000100
0000000000
0000000000
0000010000
0000000100
0000000000
0000000000
0000000000
0000100000
0000000000
0000000000
0000000000
0000010000
0000000000
0000000000
0000000000
,
0010000000
0000000000
0000000000
0000100000
0001000000
0000000000
0000000000
0000000000
0000001000
0000000000
0000000000
0000000000
0000010000
0000000000
0000000000
0000000000
,
0000000010
0000000000
0000000000
0000001000
0000000100
0000000000
0000000000
0000000000
0000100000
0000000000
0000000000
0000000000
0000010000
0000000000
0000000000
0000000000
,
0010000000
0000000000
0000000000
0000010000
0001000000
0000000000
0000000000
0000000000
0000100000
0000000000
0000000000
0000000000
0001000000
0000000000
0000000000
0000000000
,
1000000000
0000000000
0000000000
0001000000
0010000000
0000000000
0000000000
0000000000
0100100000
0000000000
0000000000
0000000000
0001000000
0000000000
0000000000
0000000000
,
0000001000
0000000000
0000000000
0000010000
0000000010
0000000000
0000000000
0000000000
0000001001
0000000000
0000000000
0000000000
0000000100
0000000000
0000000000
0000000000
,
0000100000
0000000000
0000000000
0000010000
0010000000
0000000000
0000000000
0000000000
0010100000
0000000000
0000000000
0000000000
0000001000
0000000000
0000000000
0000000000
,
0000100000
0000000000
0000000000
0000100000
0000001000
0000000000
0000000000
0000000000
0001010000
0000000000
0000000000
0000000000
0001100000
0000000000
0000000000
0000000000
,
0001010000
0000000000
0001000000
0000000000
0001000000
0000000000
0001000000
0010000000
,
0100000000
0000000000
0100000000
0000000000
0100000000
0000000000
0100000000
0001000000
,
0000200000
0000020000
0000300000
0000130000
0000010000
0000000000
0000001000
0000000000
,
0000000020
0000000200
0000000030
0000000310
0000000100
0000000000
0000000001
0000000000
,
0000010000
0000000100
0000000000
0000020000
0000000100
0000000000
0000031000
0000000000
,
0002000000
0000200000
0003000000
0001300000
0000100000
0000000000
0100000000
0000000000
,
0002000000
2000000000
0003000000
3001000000
1000000000
0000000000
1010000000
0000000000
,
0000210000
0000000000
0000000000
0000000000
0000000000
0001000000
0001000000
0001300000
,
0000100000
0000010000
0000100000
0000000000
0000001000
0000100000
0000001000
0000000000
,
0001000000
0000010000
0001000000
0000000000
0000001000
0001000000
0000001000
0000000000
,
0010000000
0000001000
0010000000
0000000000
0000000100
0001000000
0000000100
0000000000
,
0010000000
0000000100
0010000000
0000000000
0001001000
0000000000
0000110000
0000000000
,
0000001000
0000010000
0000000100
0000000000
0000100000
0000010000
0001000000
0000000000
,
0001000000
0000100000
0010000000
0000000000
0000010000
0000100000
0000001000
0000000000
,
0000101000
0000010100
0000010010
0000001100
,
0000001001
0000010100
0000101000
0000010000
,
0000001000
0001000000
0010000000
1000000000
,
0000100000
0001000000
0000001000
0000010000
,
0000000001
0000000000
0000000100
0000000010
0000001000
0000000000
0000010000
0000000000
,
0000200000
0000001000
0000001000
0000000000
0000010000
0000010000
0000010000
0000000000
,
0000310000
0001000000
0000010000
0001000000
0000010000
0001000000
0000010000
0000000000
,
0000100000
0000001000
0000010000
0000000010
,
0000001000
0000000100
0000001000
0000000100
0000001000
0000000100
0000001000
0000000000
,
0000000001
0000010000
0000000100
0000001000
,
0000000010
0000010000
0000000010
0000010000
0000000010
0000010000
0000000010
0000000000
,
0000100000
0000010000
0010000000
0001000000
,
1000000000
0010000000
1000000000
0010000000
0100000000
0010000000
1000000000
0000000000
,
1001000000
0000000000
0010000000
0000000000
0100100000
0000000000
0010000000
0001000000
,
0000000000
0100000000
0000000000
0001000000
0000000000
0010000000
0000000000
0000010000
,
0000000000
0002000000
0000000000
0000100000
0000100000
0000100000
0000100000
0003100000
,
0000000000
0010000000
0000010000
0010000000
0000100000
0010000000
0000010000
0010000000
,
0000000000
0020000000
0000000000
0001000000
0001000000
0001000000
0001000000
0031000000
,
0000000000
0000010000
0010000000
0000010000
0000100000
0000010000
0010000000
0000010000
,
0000100000
0000010000
0000000000
0001000000
0000000000
0000001000
0000000000
0000010000
,
0000000000
0000000100
0000000000
0000001000
0000000100
0000001000
0000000000
0000000100
,
0000000000
0000100000
0000000000
0000010000
0001000000
0000010000
0000000000
0010000000
,
0001000000
0011000000
0000000000
0000000000
0000000000
0000000000
0000000000
0000000000
;

//---------------pump-double - ----------------
#NOTES:
     pump-double:
     :
     Beginner:
     26:
     0.221,0.284,0.145,0.017,0.000,162.000,17.000,2.000,0.000,0.000:
0000000000
0000000000
0000000000
0000000000
,
0000000000
0000000000
0000000000
0000000000
,
0000000000
0000000000
0000000000
0000000000
,
0000000000
0000000000
0000000000
0000000000
,
0000100000
0000000000
0000000000
0000000000
,
0000000000
0000000000
0000000000
0000000000
,
0000010000
0000000000
0000000000
0000000000
,
0000110000
0000000000
0000000000
0000000000
,
0001000000
0001000000
0001000000
0000000000
,
0000100000
0000000000
0000100000
0000000000
,
0100000000
0100000000
0100000000
0000000000
,
0010000000
0000000000
0010000000
0000000000
,
1000000000
1000000000
1000000000
0000000000
,
0000100000
0000000000
0010000000
0000000000
,
0000010000
0000010000
0000010000
0000000000
,
0000100000
0000000000
0000000100
0000000000
,
0000001000
0000001000
0000001000
0000000000
,
0000000010
0000000000
0000000100
0000000000
,
0000000001
0000000001
0000000001
0000000000
,
0000000100
0000000000
0000000010
0000000000
,
0000002000
0000000000
0000000000
0000000000
,
0000000000
0000000000
0000000000
0000003000
,
0000000100
0000000000
0000100000
0000000000
,
0000001000
0000000000
0001000000
0000000000
,
0000100000
0000100000
0000100000
0000000000
,
0010000000
0000000000
0010100000
0000000000
,
1000000000
0000000000
0001000000
0000000000
,
0100000000
0000000000
0000100000
0000000000
,
0001000000
0001000000
0001000000
0000000000
,
0000010000
0000000000
0001010000
0000000000
,
0000000000
0000110000
0000000000
0000010000
,
0000000000
0000010100
0000000000
0000000100
,
0000000000
0000000101
0000000000
0000000010
,
0000000000
0000010010
0000000000
0000010000
,
0000000000
0000010100
0000000000
0000010000
,
0000000000
0000110000
0000000000
0000100000
,
0000000000
0010100000
0000000000
0010000000
,
0000000000
0101000000
0101000000
0101000000
,
0000000000
0100000000
0000000000
0000100000
,
0000000000
0001000000
0000000000
0000001000
,
0000000000
0000010000
0000000000
0000000010
,
0000000000
0000001000
0000000000
0000000100
,
0000000000
0000001000
0000000000
0000000010
,
0000000000
0000010000
0000000000
0000001000
,
0000000000
0001000000
0000000000
0000100000
,
0000200000
0000000000
0000000000
0000000000
,
1000300000
1000000000
1000000000
1000000000
,
1000000000
0000000000
0000100000
0000000000
,
0001000000
0001000000
0001000000
0001000000
,
0001000000
0000000000
0000001000
0000000000
,
0000010000
0000010000
0000010000
0000010000
,
0000010000
0000000000
0000000100
0000000000
,
0000001000
0000001000
0000001000
0000000000
,
0000000010
0000000010
0000000010
0000000000
,
0000000100
0000000100
0000000100
0000000100
,
0000000100
0000000000
0000000001
0000000000
,
0000000010
0000000010
0000000010
0000000010
,
0000000010
0000000000
0000000001
0000000000
,
0000010000
0000010000
0000010000
0000010000
,
0000010000
0000000000
0000001000
0000000000
,
0001000000
0001000000
0001000000
0001000000
,
0001000000
0000000000
0000100000
0000000000
,
0000000000
1000000000
0000000000
1010000000
,
0000000000
0010000000
0000000000
0010100000
,
0000000000
0000100000
0000000000
0000110000
,
0000000000
0000010000
0000000000
0000010100
,
0000000000
0000000000
0000000000
0000000100
0000000000
0000000000
0000000000
0000010000
,
0000000000
0000000000
0000000000
0000001000
0000000000
0000000000
0000000000
0001000000
,
0000000000
0000000000
0000000000
0000100000
0000000000
0000000000
0000000000
0100000000
,
0000000000
0000000000
0000000000
0001000000
0000000000
0001000000
0000000000
0001000000
,
0000000000
0001000000
0000000000
0000000000
0000000000
0000100000
0000000000
0000000000
,
0000000000
0010000000
0000000000
0000000000
0000000000
0000010000
0000000000
0000010000
,
0000000000
0000010000
0000000000
0000010000
0000000000
0000010000
0000000000
0000010000
,
0000000000
0000010000
0000000000
0000010000
0000000000
0000010000
0000000000
0000010000
;

//---------------pump-double - ----------------
#NOTES:
     pump-double:
     :
     Easy:
     45:
     0.319,0.380,0.222,0.086,0.000,225.000,26.000,10.000,0.000,0.000:
0000000000
0000000000
0000000000
0000000000
,
0000000000
0000000000
0000000000
0000000000
,
0000000000
0000000000
0000000000
0000000000
,
0000000000
0000000000
0000000000
0000000000
,
0000110000
0000000000
0000000000
0000000000
,
0000000000
0000000000
0000000000
0000000000
,
0001010000
0000000000
0000000000
0000000000
,
0010010000
0000010000
0000010000
0000010000
,
0000100000
0000010000
0000100000
0000010000
,
0000100000
0000010000
0000100000
0000010000
,
0001000000
0000001000
0001000000
0000001000
,
0001000000
0000001000
0001000000
0000001000
,
0000010000
0000000100
0000001000
0000000100
,
0000010000
0000000100
0000001000
0000000100
,
0000100000
0000010000
0000100000
0000000100
,
0000100000
0000010000
0000100000
0000001000
,
0001000000
0000001000
0000100000
0000001000
,
0000010000
0000001000
0000100000
0000001000
,
0010000000
0000010000
0010000000
0000100000
,
0010000000
0001000000
0010000000
0000200000
,
0200000000
0000000000
0000000000
0000000000
,
0000000000
0000000000
0000000000
0300300000
,
0010000000
1000000000
0000100000
0010000000
,
0000010000
0000100000
0000000100
0000010000
,
0000000001
0000001000
0000000010
0001000000
,
0000001000
0100000000
0001000000
1000000000
,
0010000000
1000000000
0000100000
0010000000
,
0000010000
0000100000
0000000100
0000010000
,
0000000001
0000001000
0000000010
0001000000
,
0000001000
0100000000
0001000000
1000000000
,
0010000000
1010000000
0000000000
0010000000
,
0000010000
0010010000
0000000000
0000100000
,
0000000100
0000100100
0000000000
0000010000
,
0000000001
0000000101
0000000000
0000000010
,
0000010000
0000010010
0000000000
0000001000
,
0000100000
0000101000
0000000000
0000010000
,
0001000000
0001010000
0000000000
0000100000
,
0100000000
0100100000
0100100000
0100100000
,
1000000000
1000000000
1000000000
1000000000
,
0001000000
0010000000
0000100000
0001000000
,
0000010000
0000010000
0000010000
0000010000
,
0000100000
0000001000
0000010000
0000000010
,
0000000100
0000000100
0000000100
0000000100
,
0000000001
0000001000
0000000010
0000010000
,
0000000100
0000000100
0000000100
0000000100
,
0000020000
0000000000
0000000000
0000001000
,
0000030100
0000000100
0000010100
0000000100
,
0000000200
0000000000
0000200300
0000000000
,
0000310000
0000010000
0001010000
0000010000
,
0000020000
0000000000
0020030000
0000000000
,
0030100000
0000100000
0100100000
0000100000
,
0000200000
0000000000
2000300000
0000000000
,
3010000000
0010000000
0101000000
0010000000
,
0020000000
0000000000
0031000000
0000000000
,
1000000000
0100000000
0000000000
0001000000
,
0000000000
0000100000
0000000000
0000010000
,
0000000000
0000001000
0000000000
0000000010
,
0000000000
0000000001
0000000000
0000000010
,
0000000000
0000001000
0000000000
0000010000
,
0000000000
0000100000
0000000000
0001000000
,
0000000000
0100000000
0000000000
1000000000
,
0000000000
0001000000
0000000000
0000100000
,
0010100000
0010100000
0000000000
0001010000
,
0000000000
0000101000
0000000000
0000010100
,
0000000000
0000001010
0000000000
0000000101
,
0000000000
0000001001
0000000000
0000010010
,
0000000000
0000000000
0000000000
0000001000
0000000000
0000010000
0000000000
0000000100
,
0000000000
0000100000
0000000000
0000010000
0000000000
0001000000
0000000000
0000100000
,
0000000000
0010000000
0000000000
0001000000
0000000000
0000100000
0000000000
0000010000
,
0000000000
0001000000
0000000000
0000001000
0000000000
0000010000
0000000000
0000000100
,
0000000000
0000001000
0000000000
0000000010
0000000000
0000010000
0000000000
0000001000
,
0000000000
0000100000
0000000000
0001000000
0000000000
0010000000
0000000000
0000100000
,
0000000000
0010000000
0000000000
0001000000
0000000000
1000000000
0000000000
0001000000
,
0000000000
0100000000
0000000000
0010000000
0000000000
1000000000
0000000000
0000100000
,
0010000000
0000100000
0000000000
0000000000
0000000000
0000000000
0000000000
0000000000
;
