#TITLE:Enough Of You;
#SUBTITLE:;
#ARTIST:Thomas Howard;
#TITLETRANSLIT:;
#SUBTITLETRANSLIT:;
#ARTISTTRANSLIT:;
#CREDIT:PopnKO;
#BANNER:enoughofyou-banner.png;
#SONGINFO:enoughofyou-songinfo.png;
#BACKGROUND:enoughofyou-bg.png;
#LYRICSPATH:;
#CDTITLE:;
#CHARACTER:./SongCharacters/THL;
#MUSIC:Enough Of You.mp3;
#OFFSET:-0.460;
#SAMPLESTART:58.880;
#SAMPLELENGTH:16.000;
#SELECTABLE:YES;
#BPMS:0.000=82.000,124.000=76.000,125.000=62.000,125.500=50.000,126.000=38.000,126.500=26.000,126.750=14.000;
#STOPS:;
#BGCHANGES:-2.000=visffd320.avi=1.000=1=1=0
;
// cache tags:
#FIRSTBEAT:8.000;
#LASTBEAT:128.000;
#SONGFILENAME:Songs/Neon FM/Enough Of You/Enough Of You.sm;
#HASMUSIC:1;
#HASBANNER:1;
#MUSICLENGTH:105.390;
// end cache tags

//---------------pump-single - Steps for Mix 2----------------
#NOTES:
     pump-single:
     Steps for Mix 2:
     Hard:
     54:
     0.308,0.304,0.095,0.123,0.005,204.000,10.000,13.000,0.000,0.000:
00000
00000
00000
00000
,
00000
00000
00000
00000
,
10000
00010
00000
10000
00000
00000
00000
00000
,
00001
01000
00000
00001
00000
00000
00000
00000
,
00100
10000
00100
01000
00100
10000
00100
01000
,
00001
00100
00010
00100
00001
00100
00010
00100
,
00001
10000
00010
01000
00001
10000
00010
01000
,
00001
00100
00010
01000
00100
10000
00001
10000
,
00001
00010
00100
01000
10000
01000
00100
00010
,
00001
01000
00100
10000
00010
00100
00001
10000
,
00002
01000
01000
01003
00020
00100
00100
00000
,
10030
00000
01010
00000
00100
01000
00020
00000
,
10030
01000
00100
00001
00010
00100
10000
01000
,
00100
01000
10000
00010
01000
00100
00010
00100
,
10000
00001
01000
00010
10000
01000
00100
00010
,
00001
00010
00100
00001
01000
00010
10000
00100
,
01000
01000
00001
00001
10000
00010
10000
00001
,
01000
00100
00010
00100
10000
01000
00100
00002
,
00010
00010
00010
00013
00200
00000
00310
10000
,
10010
00000
01001
00000
10000
00001
00100
00000
,
10001
00001
00100
00010
10000
00100
10000
00010
,
01010
01000
00001
00100
00010
10000
00100
10000
,
10010
00010
00100
00001
01000
00100
00010
00100
,
10100
10000
00010
10000
00001
01000
00001
00100
,
00110
00010
01000
00010
10000
00001
00100
00010
,
01010
01000
00001
00100
00001
10000
00001
01000
,
01001
00001
00100
00010
10000
01000
00100
00010
,
00002
00023
00000
00230
00000
02300
00000
00000
,
23000
00000
00000
00000
,
30001
01000
00010
10000
00100
10000
00001
00010
,
00100
00010
00001
10000
01000
00200
00000
01300
,
20000
00000
00000
00000
00000
00000
00000
00000
00000
00000
00000
00000
00000
00000
00000
00000
00000
00000
00000
00000
00000
00000
30000
00002
00000
00000
00000
00000
00000
00000
00000
00000
,
00003
00000
00000
00000
;

//---------------pump-single - ----------------
#NOTES:
     pump-single:
     :
     Medium:
     34:
     0.205,0.196,0.000,0.152,0.005,135.000,0.000,16.000,0.000,0.000:
00000
00000
00000
00000
,
00000
00000
00000
00000
,
01000
00010
00000
01000
00000
00000
00000
00000
,
00001
10000
00000
00001
00000
00000
00000
00000
,
10000
00000
00010
00000
01000
00100
01000
00100
,
00000
00000
10000
00010
10000
00001
00000
00001
,
00000
00000
00000
00000
01000
00100
10000
00200
,
00000
00000
01300
00000
00001
00100
00100
00001
,
00000
00000
00000
00000
00100
00010
01000
00200
,
00000
00000
10300
00000
00010
01000
00000
00020
,
10000
01000
00130
00010
,
00001
00000
00010
00000
00100
01000
10000
00000
,
10000
00000
00001
00000
01000
00100
10000
02000
,
00000
00000
13000
00000
00010
00100
00010
00100
,
00000
00000
10000
00000
00100
00001
00010
00020
,
00000
00000
00031
00000
01000
00010
10000
00010
,
00000
00000
00100
00000
00100
01000
00100
20000
,
00000
00000
30010
00000
00100
00001
00100
00002
,
10000
00000
10000
00000
01003
00100
01000
00010
,
00000
00000
00010
00000
10000
01000
10000
00000
,
00200
00000
01300
00010
01000
00001
00000
00001
,
10000
00010
10000
00010
,
02000
00001
03001
00100
00010
01000
00000
00100
,
01000
00000
00001
00000
01000
00000
00000
00001
,
01000
00100
00000
00100
01000
00001
00000
10000
,
00100
01000
00000
01000
00000
01000
01000
00000
,
00002
20003
00000
30020
00000
02030
00000
03200
,
00000
00000
00000
00000
,
20300
00000
00000
00000
,
30100
01000
00100
00000
10000
00010
10000
00000
,
00000
00001
00100
00001
00100
00010
00000
00020
,
00000
00000
00000
00000
00000
00000
00000
00000
00000
00000
00000
00000
00030
00000
00000
00000
00000
00000
00000
00000
00000
00000
00000
01000
00000
00000
00000
00000
00000
00000
00000
00000
;

//---------------pump-single - ----------------
#NOTES:
     pump-single:
     :
     Easy:
     9:
     0.069,0.090,0.000,0.009,0.005,50.000,0.000,1.000,0.000,0.000:
00000
00000
00000
00000
,
00000
00000
00000
00000
,
01000
00000
00000
00000
,
00010
00000
00000
00000
,
10000
00000
00100
00000
,
10000
00000
00100
00000
,
01000
00000
00010
00000
,
01000
00000
00010
00000
,
00100
00000
00001
00000
,
00100
00000
00001
00000
,
01000
00000
00010
00000
,
01000
00000
00010
00000
,
10000
00000
00001
00000
,
10000
00000
00001
00000
,
01000
00000
00001
00000
,
01000
00000
00001
00000
,
10000
00000
00010
00000
,
10000
00000
00010
00000
,
01000
00000
00010
00000
,
01000
00000
00010
00000
,
00100
00100
00000
00000
,
00000
00000
00000
00000
,
00001
00001
00000
00000
,
00000
00000
00000
00000
,
10000
10000
00000
00000
,
00000
00000
00000
00000
,
00100
00100
00000
00000
,
00000
00000
00000
00000
,
01000
00010
01000
00010
,
10000
00000
00000
00000
,
00001
00000
00000
00000
,
00200
00000
00000
00000
00000
00000
00000
00000
00000
00000
00000
00000
00000
00000
00000
00000
00000
00000
00000
00000
00000
00000
00000
10300
00000
00000
00000
00000
00000
00000
00000
00000
;

//---------------pump-single - Copied from----------------
#NOTES:
     pump-single:
     Copied from:
     Beginner:
     7:
     0.041,0.060,0.000,0.009,0.005,29.000,0.000,1.000,0.000,0.000:
00000
00000
00000
00000
,
00000
00000
00000
00000
,
00100
00000
00000
00000
,
00100
00000
00000
00000
,
10000
00000
00000
00000
,
00001
00000
00000
00000
,
10000
00000
00000
00000
,
00001
00000
00000
00000
,
10000
00000
00000
00000
,
00001
00000
00000
00000
,
10000
00000
00000
00000
,
00001
00000
00000
00000
,
01000
00000
00000
00000
,
00010
00000
00000
00000
,
01000
00000
00000
00000
,
00010
00000
00000
00000
,
01000
00000
00000
00000
,
00010
00000
00000
00000
,
01000
00000
00000
00000
,
00010
00000
00000
00000
,
00100
00000
00000
00000
,
00100
00000
00000
00000
,
00100
00000
00000
00000
,
00100
00000
00000
00000
,
10000
00000
00000
00000
,
00000
00000
00000
00000
,
00001
00000
00000
00000
,
00000
00000
00000
00000
,
00100
00000
00000
00000
,
00010
00000
00000
00000
,
01000
00000
00000
00000
,
00020
00000
00000
00000
00000
00000
00000
00000
00000
00000
00000
00000
00000
00000
00000
00000
00000
00000
00000
00000
00000
00000
00000
00000
00000
00000
00000
00000
00000
00000
00000
00000
00000
00000
00000
00000
00000
00000
00000
00000
00000
00000
00000
00000
00000
00000
00000
00000
00000
00000
00000
00000
00000
00000
00000
00000
00000
00000
00000
00000
00000
00000
00000
00000
00000
00000
00000
00000
00000
00000
00000
00000
00000
00000
00000
00000
00000
00000
00000
00000
00000
00000
00000
00000
00000
00000
00000
00000
00000
00000
00000
00000
00000
00000
00000
00000
00000
00000
00000
00000
00000
00000
00000
00000
00000
00000
00000
00000
00000
00000
00000
00000
00000
00000
00000
00000
00000
00000
00000
00000
00000
00000
00000
00000
00000
00000
00000
00000
00000
00000
00000
00000
00000
00000
00000
00000
00000
00000
00100
00030
00000
00000
00000
00000
00000
00000
00000
00000
00000
00000
00000
00000
00000
00000
00000
00000
00000
00000
00000
00000
00000
00000
00000
00000
00000
00000
00000
00000
00000
00000
00000
00000
00000
00000
00000
00000
00000
00000
00000
00000
00000
00000
00000
00000
00000
00000
00000
00000
00000
00000
00000
00000
;
