#TITLE:Party 4 U;
#SUBTITLE:(holy night mix);
#ARTIST:Cranky;
#TITLETRANSLIT:;
#SUBTITLETRANSLIT:;
#ARTISTTRANSLIT:;
#CREDIT:;
#BANNER:p4u-banner.png;
#SONGINFO:p4u-songinfo.png;
#BACKGROUND:p4u-bg.png;
#LYRICSPATH:;
#CDTITLE:;
#CHARACTER:default;
#MUSIC:Party 4 U.mp3;
#OFFSET:-0.060;
#SAMPLESTART:52.800;
#SAMPLELENGTH:12.000;
#SELECTABLE:YES;
#BPMS:0.000=159.000;
#STOPS:;
#BGCHANGES:3.400=Party 4 U vid.mpg=1.000=1=1=0
;
// cache tags:
#FIRSTBEAT:20.000;
#LASTBEAT:267.000;
#SONGFILENAME:Songs/Neon FM/Party 4 U/Party 4 U.sm;
#HASMUSIC:1;
#HASBANNER:1;
#MUSICLENGTH:105.471;
// end cache tags

//---------------pump-single - ----------------
#NOTES:
     pump-single:
     :
     Hard:
     91:
     0.666,0.665,0.446,0.199,0.465,424.000,47.000,21.000,0.000,0.000:
00000
00000
00000
00000
,
00000
00000
00000
00000
,
00000
00000
00000
00000
,
00000
00000
00000
00000
,
00000
00000
00000
00000
,
20000
00000
00000
00000
,
30020
00000
00000
00000
,
02030
00000
00000
00000
,
03002
00000
00000
00000
10000
00000
10003
10000
,
00010
00000
01000
00000
00001
00000
01000
00100
00000
00000
10000
00000
00010
00000
10000
00000
,
10000
00100
00000
00000
00100
00001
00000
00000
10000
00010
00000
00000
01000
00001
00000
00000
,
10000
00010
00100
00001
10000
00100
01000
00001
,
00001
10000
00000
00000
00001
00100
00000
00000
00010
01000
00000
00000
00010
10000
00000
00000
,
01000
00000
00010
00000
10000
00000
00010
00100
00000
00000
00001
00000
01000
00000
00001
00000
,
00001
00100
00000
00000
00100
10000
00000
00000
00001
01000
00000
00000
00010
10000
00000
00000
,
00001
01000
00100
10000
00001
00100
00010
10000
,
10001
10100
01010
02002
,
00000
00000
00000
03003
,
10000
01000
00000
00000
10000
00100
00000
00000
10000
00010
00000
00000
10000
00001
00000
00000
,
00100
00000
00010
01000
00010
00000
10000
00000
00100
00000
01000
00000
00001
00000
00100
00000
,
00110
00000
01010
00000
01100
00000
01010
01000
,
00001
00000
10000
00100
10000
00000
00010
00000
00100
00000
00001
00000
01000
00000
00100
00000
,
01001
00000
10010
00000
10100
00000
00101
00001
,
00100
00000
00010
01000
00010
00000
10000
00000
00100
00000
01000
00000
00001
00000
00100
00000
,
00010
00010
01010
01000
01001
00001
01010
01000
,
00001
00000
10000
00100
10000
00000
00010
00000
00100
00000
00001
00000
01000
00000
00100
00000
,
10000
00010
00000
00000
10000
00100
00000
00000
01000
00010
00000
00000
01000
00001
00000
00000
,
10020
00000
00000
10000
00000
00000
10000
00000
00000
10000
00000
00000
01030
00000
00001
00000
,
20000
00000
00000
00100
00000
00000
00100
00000
30000
00010
00000
00000
01000
00000
00100
00000
,
02000
00000
00000
00010
00000
00000
00010
00000
00000
00010
03000
00000
00001
00000
00100
00000
,
10010
10000
10001
00001
00101
00100
00110
00010
,
10020
00000
00000
10000
00000
00000
10000
00000
00030
10000
00000
00000
00100
00000
01000
00000
,
00002
00000
00000
00010
00000
00000
00010
00000
00003
01000
00000
00000
00010
00000
01000
00000
,
00200
00000
00000
10000
00000
00000
10000
00000
00300
10000
00000
00000
00100
00000
00100
00000
,
02000
00000
00000
00000
00000
00000
00000
00000
03000
00001
00000
00000
00010
00000
00100
00000
,
10000
00100
00000
00100
10000
00000
10000
00100
00000
00100
10000
00000
00100
00000
00100
00000
,
01000
00010
01000
00010
01000
00000
00001
00000
00100
00000
00010
00000
00110
00000
00000
00000
,
00100
00001
00000
00001
00100
00000
00100
00001
00000
00001
00100
00000
00001
00000
00001
00000
,
01000
00100
01000
00100
01000
00000
00001
00000
00100
00000
00100
00000
00002
00000
00000
00000
,
10003
00100
00000
00100
10000
00000
10000
00100
00000
00100
10000
00000
00100
00000
00100
00000
,
01000
00010
01000
00010
01000
00000
00001
00000
00100
00000
00010
00000
00110
00000
00000
00000
,
00100
00001
00000
00001
00100
00000
00100
00001
00000
00001
00100
00000
00001
00000
00001
00000
,
00100
00000
00010
00000
00001
00000
00010
00000
01100
00000
00000
00110
00000
00000
00101
00000
,
10000
00000
00010
00000
00100
00000
00010
00000
01000
00000
00001
00000
10000
00000
00010
01000
,
00010
00000
00100
00000
00001
00000
10000
00000
00010
00000
10000
00000
00100
00000
10000
00100
,
10000
00000
00001
00000
10000
00000
01000
00000
00100
00000
01000
00000
10000
00000
00001
00100
,
00001
01000
00000
00000
00010
01000
00000
00000
00100
00000
01000
00000
01100
00000
00000
00000
,
00001
00000
00010
00000
00100
00000
00010
00000
00001
00000
01000
00000
00010
00000
00100
00001
,
00100
00000
00010
00000
10000
00000
00100
00000
01000
00000
00010
00000
00100
00000
00010
01000
,
00010
00000
10000
00000
00100
00000
01000
00010
01000
00000
00001
00000
00100
00000
00010
00100
,
00010
00000
01000
00100
01000
00000
00010
00100
00010
00000
00010
00000
01000
00000
01000
00000
,
00001
00000
00000
00001
00100
00000
00001
00000
10000
00010
00000
00000
01000
00000
00001
00000
,
11000
00000
00000
00011
00000
00000
11000
00000
00000
00000
00000
00000
00000
00000
00000
00000
,
01000
00000
00000
00100
10000
00000
00001
00000
01000
00100
00000
00000
10000
00000
00010
00000
,
00110
00000
00000
01100
00000
00000
00110
00000
00000
00000
00000
00000
00000
00000
00000
00000
,
10000
00000
00000
10000
00100
00000
10000
00000
00001
01000
00000
00000
00010
00000
10000
00000
,
00011
00000
00000
11000
00000
00000
00011
00000
00000
00000
00000
00000
00000
00000
00000
00000
,
00010
00000
00000
00100
00001
00000
10000
00000
00010
00100
00000
00000
00001
00000
01000
00000
,
01100
00000
00000
00110
00000
00000
01100
00000
00000
00110
00000
00000
01000
00000
00010
00000
,
10020
00000
00000
10000
00000
00000
10000
00000
00000
10000
00000
00000
01030
00000
00001
00000
,
20000
00000
00000
00100
00000
00000
00100
00000
30000
00010
00000
00000
01000
00000
00100
00000
,
02000
00000
00000
00010
00000
00000
00010
00000
00000
00010
03000
00000
00001
00000
00100
00000
,
10010
10000
10001
00001
00101
00100
00110
00010
,
10020
00000
00000
10000
00000
00000
10000
00000
00030
10000
00000
00000
00100
00000
01000
00000
,
00002
00000
00000
00010
00000
00000
00010
00000
00003
01000
00000
00000
00010
00000
01000
00000
,
00200
00000
00000
10000
00000
00000
10000
00000
00300
10000
00000
00000
00100
00000
00100
00000
,
02000
00000
00000
00000
00000
03000
10010
00000
;

//---------------pump-single - ----------------
#NOTES:
     pump-single:
     :
     Medium:
     76:
     0.595,0.601,0.521,0.190,0.299,364.000,55.000,20.000,0.000,0.000:
00000
00000
00000
00000
,
00000
00000
00000
00000
,
00000
00000
00000
00000
,
00000
00000
00000
00000
,
00000
00000
00000
00000
,
00200
00000
00000
00000
,
20300
00000
00000
00000
,
30002
00000
00000
00000
,
00203
00000
00010
00010
,
00301
00000
10000
00000
00001
00000
01000
00010
00000
00000
00100
00000
00001
00000
10000
00000
,
10100
00101
10100
00101
,
00100
01000
00010
00100
00001
10000
00010
10000
,
10100
01010
00101
01010
,
10000
00000
00001
00000
10000
00000
00010
01000
00000
00000
00100
00000
10000
00000
00001
00000
,
00101
10100
00101
10100
,
00100
00010
01000
00100
10000
00001
01000
00001
,
00101
00000
01010
00000
02000
00020
00000
00000
,
00000
00000
00000
03030
,
00100
10000
00000
00000
10000
00100
00000
00000
00100
10000
00000
00000
10000
00100
00000
00000
,
01000
01000
00001
00100
00001
01000
00010
00000
,
00010
10000
00001
00100
00010
00000
00010
00000
,
01000
01000
00100
10000
00001
00100
00001
00000
,
10000
10000
00010
00000
01000
00000
00010
00000
,
00010
00010
10000
00100
10000
00010
01000
00000
,
01000
00001
10000
00100
01000
00000
01000
00000
,
00010
00010
00100
00001
10000
00100
10000
00000
,
00001
10000
00000
00000
10000
00001
00000
00000
01000
00010
00000
00000
00010
01000
00000
00000
,
02001
00000
00000
00001
00000
00000
00001
00000
00000
03001
00000
00000
10000
00000
10000
00000
,
10020
00000
00000
01000
00000
00000
01000
00000
00000
01030
00000
00000
00001
00000
00100
00000
,
00102
00000
00000
01000
00000
00000
01000
00000
00000
01003
00000
00000
00100
00000
10000
00000
,
10010
00000
01001
00000
10100
00000
01010
00010
,
10020
00000
00000
10000
00000
00000
10000
00000
00000
10030
00000
00000
00001
00000
00001
00000
,
02001
00000
00000
00010
00000
00000
00010
00000
00000
03010
00000
00000
10000
00000
00100
00000
,
20100
00000
00000
00010
00000
00000
00010
00000
00000
30010
00000
00000
00100
00000
00001
00000
,
20000
00000
00000
00000
00000
00000
30010
00010
,
00100
00001
00000
00100
00001
00000
00100
00001
00000
00100
00001
00000
00100
00000
00001
00000
,
10000
01000
00100
00010
00001
00010
00100
00000
,
10000
01000
00000
10000
01000
00000
10000
01000
00000
10000
01000
00000
10000
00000
01000
00000
,
10000
00010
00100
00001
10000
00100
01000
00000
,
00010
10000
00000
00010
10000
00000
00010
10000
00000
00010
10000
00000
00010
00000
00100
00000
,
00001
00010
00100
01000
10000
01000
00100
00000
,
10000
00010
00000
10000
00010
00000
10000
00010
00000
10000
00010
00000
10000
00000
00010
00000
,
10000
01000
00100
10000
00001
00100
00010
00100
,
00001
10000
00001
01000
00010
01000
00001
10000
,
00001
01000
00010
01000
00001
10000
00001
01000
,
00010
01000
00001
10000
00001
01000
00010
00000
,
10100
01100
10100
01100
,
10000
00001
10000
00010
01000
00010
10000
00001
,
10000
00010
01000
00010
10000
00001
10000
00010
,
01000
00010
10000
00001
10000
00010
01000
00000
,
00101
00110
00101
00110
,
00010
00000
00000
10000
00000
00000
00001
00000
00000
01000
00000
00000
00100
00000
10000
00000
,
10100
00000
00000
10100
00000
00000
10100
00000
00000
00000
00000
00000
00000
00000
00000
00000
,
00100
00000
00000
00010
00000
00000
10000
00000
00000
00001
00000
00000
01000
00000
00010
00000
,
01010
00000
00000
01010
00000
00000
01010
00000
00000
00000
00000
00000
00000
00000
00000
00000
,
01000
00000
00000
00100
00000
00000
01000
00000
00000
00001
00000
00000
00100
00000
00001
00000
,
00101
00000
00000
00101
00000
00000
00101
00000
00000
00000
00000
00000
00000
00000
00000
00000
,
00010
00000
00000
00100
00000
00000
00010
00000
00000
10000
00000
00000
00100
00000
10000
00000
,
10100
00000
00000
10100
00000
00000
10100
00000
00000
00100
00000
00000
01000
00000
00010
00000
,
02001
00000
00000
00001
00000
00000
00001
00000
00000
03001
00000
00000
10000
00000
10000
00000
,
10020
00000
00000
01000
00000
00000
01000
00000
00000
01030
00000
00000
00001
00000
00100
00000
,
00102
00000
00000
01000
00000
00000
01000
00000
00000
01003
00000
00000
00100
00000
10000
00000
,
10010
00000
01001
00000
10100
00000
01010
00010
,
10020
00000
00000
10000
00000
00000
10000
00000
00000
10030
00000
00000
00001
00000
00001
00000
,
02001
00000
00000
00010
00000
00000
00010
00000
00000
03010
00000
00000
10000
00000
00100
00000
,
20100
00000
00000
00010
00000
00000
00010
00000
00000
30010
00000
00000
00100
00000
00001
00000
,
20000
00000
00000
00000
00000
30000
01001
00000
;

//---------------pump-single - ----------------
#NOTES:
     pump-single:
     :
     Easy:
     44:
     0.313,0.443,0.104,0.076,0.000,212.000,11.000,8.000,0.000,0.000:
00000
00000
00000
00000
,
00000
00000
00000
00000
,
00000
00000
00000
00000
,
00000
00000
00000
00000
,
00000
00000
00000
00000
,
00002
00000
00000
00000
,
02003
00000
00000
00000
,
03020
00000
00000
00000
,
20030
00000
00000
00000
,
30001
10000
00100
01000
,
00100
10000
00001
00100
,
00010
01000
00010
10000
,
00001
01000
00010
00100
,
00001
10000
00100
01000
,
00010
10000
00010
00100
,
00010
01000
00100
01000
,
00001
10000
00010
00100
,
00002
00000
00000
00000
,
10003
10000
10000
10000
,
10000
00010
01000
00100
,
01000
00010
10000
00001
,
00100
00001
00010
00010
,
00001
01000
00001
01000
,
00001
00100
00010
01000
,
00100
10000
00010
00100
,
00001
01000
00001
00100
,
00001
00100
00001
00100
00001
00100
00001
00100
,
00001
01010
00001
10000
,
00010
00100
00001
01000
,
00001
10100
00010
01000
,
00100
01000
00001
00100
,
00001
00110
00001
10000
,
00100
01000
00100
10000
,
00010
00110
00001
10000
,
00002
00000
00000
00000
,
10003
10000
00001
00001
,
01000
01000
00010
00010
,
00100
00100
00001
00001
,
00010
00010
00001
00001
,
10000
10000
00101
00001
,
10000
00010
01000
00010
,
10000
00001
01000
00001
,
20002
00000
00000
00000
00000
00000
00000
30003
,
00100
00000
00010
00000
,
01000
00000
00001
00000
,
10000
00000
00010
00000
,
01000
00000
00100
00000
,
10000
00000
00001
00000
,
00100
00000
00001
00000
,
10000
00000
00010
00000
,
01000
00000
00001
10000
,
00001
01000
00001
10000
,
00010
00100
00001
00000
,
10000
00100
01000
00100
,
10000
00010
00100
00100
,
00100
00001
01000
00001
,
10000
00010
00100
00000
,
00001
10000
00100
01000
,
00100
10000
00010
00100
,
00001
00001
10000
10000
,
00001
00001
01000
01000
,
00010
00010
00100
00100
,
00001
10000
00001
10000
,
10001
00100
00010
01000
,
01100
10000
00001
00100
,
00110
00001
10000
00001
,
01010
00000
00000
10001
;

//---------------pump-single - Copied from----------------
#NOTES:
     pump-single:
     Copied from:
     Beginner:
     31:
     0.234,0.285,0.076,0.057,0.000,159.000,8.000,6.000,0.000,0.000:
00000
00000
00000
00000
,
00000
00000
00000
00000
,
00000
00000
00000
00000
,
00000
00000
00000
00000
,
00000
00000
00000
00000
,
00002
00000
00000
00000
,
20003
00000
00000
00000
,
30002
00000
00000
00000
,
00203
00000
00000
00000
,
00310
01000
00001
00000
,
10000
00100
01000
00000
,
00001
00100
00001
00000
,
00010
10000
00100
00000
,
01000
00100
10000
00000
,
00001
00100
00001
00000
,
00010
01000
00100
00000
,
00100
01000
00010
00000
,
00002
00000
00000
00000
,
10003
00001
10000
00001
,
00010
00000
00000
00000
,
01000
00000
00000
00000
,
00001
00000
00000
00000
,
10000
00100
10000
00100
,
10000
00000
00000
00000
,
00010
00000
00000
00000
,
01000
00000
00000
00000
,
00001
00100
00001
00100
,
00001
00001
10000
10000
,
00001
00001
10000
10000
,
00010
00010
01000
01000
,
00001
00001
01000
01000
,
00100
00100
10000
10000
,
00010
00010
00100
00100
,
00001
00001
01000
01000
,
00002
00000
00000
00000
,
10003
00100
10000
00000
,
00001
00100
00001
00000
,
00010
01000
00010
00000
,
00100
01000
00010
00000
,
00010
10000
00010
00000
,
00001
01000
00001
00000
,
00100
10000
00001
00000
,
00100
00001
10000
00000
,
00100
10000
00000
00000
,
00100
00001
00000
00000
,
00100
00010
00000
00000
,
00100
01000
00000
00000
,
00100
00001
00000
00000
,
00100
10000
00000
00000
,
00100
00010
00000
00000
,
00100
01000
00000
00000
,
10001
00100
00100
00100
,
10001
00000
00000
00000
,
10001
00010
00010
00010
,
10001
00000
00000
00000
,
10001
01000
01000
01000
,
10001
00000
00000
00000
,
10001
00100
00100
00100
,
10001
00000
00000
00000
,
00010
01000
00010
00000
,
10000
00010
10000
00000
,
00100
00010
00100
00000
,
00001
00010
00001
00000
,
10000
00100
10000
00000
,
00001
00100
00001
00000
,
01000
00100
01000
00000
,
00010
00000
00000
00100
;
