#TITLE:Tune In;
#SUBTITLE:;
#ARTIST:Brigit Jackson & The Neon Crew;
#TITLETRANSLIT:;
#SUBTITLETRANSLIT:;
#ARTISTTRANSLIT:;
#CREDIT:;
#BANNER:tunein-banner.png;
#SONGINFO:tunein-songinfo.png;
#BACKGROUND:tunein-bg.png;
#LYRICSPATH:;
#CDTITLE:;
#CHARACTER:./SongCharacters/Brigit;
#MUSIC:Tune In.ogg;
#OFFSET:-0.040;
#SAMPLESTART:44.320;
#SAMPLELENGTH:12.000;
#SELECTABLE:NO;
#BPMS:0.000=130.000;
#STOPS:;
#BGCHANGES:-2.000=visffd320.avi=1.000=1=1=0
;
// cache tags:
#FIRSTBEAT:16.000;
#LASTBEAT:208.000;
#SONGFILENAME:Songs/Neon FM/Tune In/Tune In.sm;
#HASMUSIC:1;
#HASBANNER:1;
#MUSICLENGTH:101.518;
// end cache tags

//---------------pump-single - ----------------
#NOTES:
     pump-single:
     :
     Hard:
     90:
     0.668,0.640,0.414,0.424,0.404,390.000,42.000,43.000,0.000,0.000:
00000
00000
00000
00000
,
00000
00000
00000
00000
,
00000
00000
00000
00000
,
00000
00000
00000
00000
,
00101
00000
10000
00100
00000
10000
00001
00000
01000
00000
00100
00000
00010
00000
00100
00000
,
01010
00000
10000
00100
00000
10000
00010
00000
10000
00000
00100
00000
01000
00010
01000
00010
,
01000
00000
00001
01000
00000
00010
10000
00000
00001
00000
00010
00000
00100
00000
01000
00000
,
01001
00000
00001
00000
00101
00000
00100
00000
00110
00000
00010
10000
00000
10000
00010
00000
,
00101
00000
10000
00010
00000
10000
00100
00000
01000
00000
00100
00000
00010
00000
00100
00000
,
00101
00000
00010
00001
00000
01000
00001
00000
00100
00000
00010
00000
00001
00000
00010
00100
,
00010
00000
01000
00010
00000
10000
00100
00000
10000
00000
00001
00000
01000
00000
00010
00000
,
10100
00000
00100
00000
01100
00000
00100
00000
10200
00000
00000
00000
00310
00000
00000
10000
,
00100
01000
00010
00100
00001
00100
00010
00100
,
01000
10000
00001
01000
00010
10000
00001
00001
,
10000
01000
00100
00001
00010
00100
00010
00001
,
02000
00000
00010
00000
03010
00000
10000
00100
00000
02000
00000
00000
03001
00100
00000
00000
,
00001
10000
00100
01000
00100
00010
00100
10000
,
00010
00100
00001
01000
00010
10000
00100
10000
,
00101
00010
01000
00100
10000
00001
00100
00010
,
20000
00000
00100
00000
30100
00000
01000
00010
00000
00200
00000
00000
00310
10000
00000
00000
,
00002
10000
10003
00200
01000
01300
00020
10030
,
00200
00010
00310
00002
01000
01003
00200
00000
,
02300
00001
03001
00200
00010
00310
02000
03001
,
00200
00010
00310
01000
20020
00000
00000
30030
,
00100
00001
00000
01000
00000
00010
10000
00000
00002
00000
00103
00000
01010
00000
00000
00000
,
00010
00000
01000
00100
01000
00000
00001
00000
10000
00000
10100
00000
10100
00000
00000
00000
,
00001
10000
00000
10000
00100
00000
01000
00000
00001
00000
00010
00000
00100
00000
01000
00100
,
00010
00010
00001
00002
00000
02003
00000
03000
,
00100
10000
00000
00010
00000
01000
00001
00000
20000
00000
30100
00000
01010
00000
00000
00000
,
01000
00000
00010
00100
00010
00000
10000
00000
00001
00000
00101
00000
00101
00000
00000
00000
,
10000
00001
00000
00001
00100
00000
00010
00000
10000
00000
01000
00000
00100
00000
00010
00100
,
01000
01000
10000
20000
00000
30020
00000
00030
,
11000
00000
00000
01100
00000
00000
00110
00000
00011
00000
00000
00110
00000
00000
10010
00000
,
10000
00100
00000
01000
00010
00000
00100
00001
00000
01000
00001
00000
10000
00010
10000
00010
,
10000
00000
00000
00110
00000
00000
01100
00000
00011
00000
00000
11000
00000
00000
01010
00000
,
00100
00010
00000
00100
00001
00000
01000
00010
00000
10000
00100
00000
01000
00001
01000
00001
,
01000
00000
00000
10001
00000
00000
00101
00000
00110
00000
00000
10010
00000
00000
01100
00000
,
00010
10000
00000
00100
01000
00000
00001
10000
00000
00010
10000
00000
00001
00100
00001
00100
,
00001
01000
00000
00001
01000
00000
00001
01000
00000
00001
01000
00000
00020
00000
10000
00000
,
20030
00000
00000
00100
00000
00000
00001
00000
00100
00000
00000
00001
30000
00000
00100
00000
,
20000
00001
30001
00200
00010
00310
02000
03001
,
00200
01000
01300
20000
00010
30010
00200
00000
,
00320
10000
10030
00200
01000
01300
00020
10030
,
00200
01000
01300
00010
02002
00000
00000
03003
,
00100
10000
00000
00010
00000
01000
00001
00000
20000
00000
30100
00000
01010
00000
00000
00000
,
01000
00000
00010
00100
00010
00000
10000
00000
00001
00000
00101
00000
00101
00000
00000
00000
,
10000
00001
00000
00001
00100
00000
00010
00000
10000
00000
01000
00000
00100
00000
00010
00100
,
01000
01000
10000
20000
00000
30020
00000
00030
,
00100
00001
00000
01000
00000
00010
10000
00000
00002
00000
00103
00000
01010
00000
00000
00000
,
00010
00000
01000
00100
01000
00000
00001
00000
10000
00000
10100
00000
10100
00000
00000
00000
,
00001
10000
00000
10000
00100
00000
01000
00000
00001
00000
00010
00000
00100
00000
01000
00100
,
00010
00010
00001
00002
00000
02003
00001
03001
,
00011
00000
00000
00000
;
