#TITLE:Cellar Door Shuffle;
#SUBTITLE:;
#ARTIST:Voice Box Express;
#TITLETRANSLIT:;
#SUBTITLETRANSLIT:;
#ARTISTTRANSLIT:;
#CREDIT:;
#BANNER:cellar door shuffle-banner.png;
#SONGINFO:cellardoorshuffle-songinfo.png;
#BACKGROUND:cellar door shuffle-bg.png;
#LYRICSPATH:;
#CDTITLE:./CDTITLES/DPSC.png;
#CHARACTER:./SongCharacters/djpotatoe;
#MUSIC:Cellar Door Shuffle.mp3;
#OFFSET:-0.540;
#SAMPLESTART:13.660;
#SAMPLELENGTH:12.000;
#SELECTABLE:YES;
#BPMS:0.000=140.000;
#STOPS:;
#BGCHANGES:-2.000=visffd320.avi=1.000=1=1=0
;
// cache tags:
#FIRSTBEAT:16.000;
#LASTBEAT:222.000;
#SONGFILENAME:Songs/Neon FM/Cellar Door Shuffle/Cellar Door Shuffle.sm;
#HASMUSIC:1;
#HASBANNER:1;
#MUSICLENGTH:100.557;
// end cache tags

//---------------pump-single - ----------------
#NOTES:
     pump-single:
     :
     Hard:
     64:
     0.398,0.414,0.080,0.149,0.005,257.000,8.000,15.000,0.000,0.000:
00000
00000
00000
00000
,
00000
00000
00000
00000
,
00000
00000
00000
00000
,
00000
00000
00000
00000
,
02000
00000
03020
00000
,
00130
00000
00000
00000
,
00020
00000
00032
00000
,
20003
00000
00000
00000
00000
00000
30100
01000
,
00100
10000
00010
00100
00000
00000
00001
10000
,
00001
00010
00001
00100
00000
00000
00010
00100
,
00001
01000
00001
00100
00000
00000
00010
10000
,
00010
00010
01000
01000
00000
00000
00001
10000
,
00100
01000
00100
01000
00000
00000
00010
00100
,
01000
00000
00100
00000
00010
00000
10000
00010
,
00100
00100
00001
00001
00000
00000
01000
00100
,
10000
10000
00100
00100
00000
00000
01100
00000
,
20000
00000
00000
00000
,
30010
00100
00000
00100
00000
00100
00000
00100
,
00001
01000
00000
01000
00000
01000
00000
01000
,
00100
10000
00000
10000
00000
10000
00000
10000
,
00001
01000
00000
01000
00000
01000
00000
01000
,
00001
00100
00000
00100
00000
00100
00000
00100
,
00010
10000
00000
10000
00000
10000
00000
10000
,
00010
01000
00000
01000
00000
01000
00000
01000
,
00001
00010
00000
00010
00000
00010
00000
00010
,
00002
00000
00000
00000
,
00203
00000
00000
00000
,
00310
00000
01000
00010
00100
00010
01000
00100
,
01000
00010
10000
00001
,
01000
00000
00100
10000
00010
10000
00100
01000
,
00010
10000
00001
10000
,
00100
00000
01000
00100
10000
00001
00100
00010
,
00100
00001
10000
00010
,
00100
00000
00001
00010
00001
00100
00010
00100
,
00001
10000
01000
10000
00000
00000
00001
00000
,
01000
00100
01000
00010
00100
01000
00100
00001
,
00010
10001
01000
10001
,
10000
01000
00100
01000
10000
00010
00100
00001
,
10000
01010
00001
01010
,
00001
00100
01000
00100
00010
10000
00001
00100
,
00010
10001
01000
10001
,
00100
00010
10000
00100
10000
00010
00100
00010
,
10000
01000
10000
00001
00000
00000
10000
00000
,
00020
01000
02030
00001
,
03002
00100
00100
00100
,
00023
00100
00230
01000
,
02300
00001
00001
00001
,
03100
10000
00010
00100
00000
00000
00001
10000
,
00001
00010
00001
00100
00000
00000
00010
00100
,
00001
01000
00001
00100
00000
00000
00010
10000
,
00010
00010
01000
01000
00000
00000
00001
10000
,
00100
01000
00100
01000
00000
00000
00010
00100
,
01000
00100
00010
10000
,
00010
00100
00010
01000
00001
00000
00000
00100
,
00010
10000
00020
00000
01000
01030
00000
00001
,
00101
00000
00000
00000
00000
00000
00010
01000
00010
00000
00000
00000
00000
00000
00000
00000
;

//---------------pump-single - ----------------
#NOTES:
     pump-single:
     :
     Medium:
     46:
     0.295,0.304,0.099,0.080,0.000,190.000,10.000,8.000,0.000,0.000:
00000
00000
00000
00000
,
00000
00000
00000
00000
,
00000
00000
00000
00000
,
00000
00000
00000
00000
,
00010
00000
01000
00000
,
00010
00000
00000
00000
,
10000
00000
00001
00000
,
00200
00000
00000
00000
00000
00000
00010
00010
,
00310
00000
10000
00010
00000
00000
00100
00000
,
00100
00000
00001
01000
00000
00000
01000
00000
,
00010
00000
10000
01000
00000
00000
01000
00000
,
10000
00000
00010
00100
00000
00000
00100
00000
,
00001
00000
01000
00010
00000
00000
00010
00000
,
01000
01000
01000
00001
,
00100
00000
00010
01000
00000
00000
01000
00000
,
00010
00100
00010
00100
00000
00000
00000
00000
,
02020
00000
00000
03030
,
00000
00100
00000
01000
00000
00010
00000
00100
,
00000
00001
00000
10000
00000
00010
00000
01000
,
00000
00100
00000
10000
00000
00001
00000
00100
,
00000
00010
00000
00100
00000
01000
00000
00100
,
00000
00001
00000
00010
00000
00100
00000
00010
,
00000
00001
00000
10000
00000
00100
00000
01000
,
00000
00010
00000
10000
00000
00010
00000
00100
,
00000
00001
00000
00010
00000
00001
00000
10000
,
02000
00000
00000
00000
,
23000
00000
00000
00000
,
30100
00000
01100
00000
01000
00100
01000
00000
,
00001
00001
00001
00001
,
00100
00000
01100
00000
01000
00100
01000
00000
,
00001
00001
00001
00001
,
00100
00000
01100
00000
01000
00100
01000
00000
,
00001
00001
00001
00001
,
00100
00000
01100
00000
01000
00100
01000
00000
,
00001
00001
00001
00001
,
00100
00000
00110
00000
00010
00100
00010
00000
,
10000
10000
10000
10000
,
00100
00000
00110
00000
00010
00100
00010
00000
,
10000
10000
10000
10000
,
00100
00000
00110
00000
00010
00100
00010
00000
,
10000
10000
10000
10000
,
00100
00000
00110
00000
00010
00100
00010
00000
,
10000
10000
10000
10000
,
00100
00000
01000
00000
,
00010
00000
00000
00000
,
00100
00000
00001
00000
,
10000
00000
00000
00010
,
01000
00000
00001
01000
00000
00000
00100
00000
,
00100
00000
10000
00010
00000
00000
00010
00000
,
01000
00000
00001
00010
00000
00000
00010
00000
,
00001
00000
01000
00100
00000
00000
00100
00000
,
10000
00000
00010
01000
00000
00000
01000
00000
,
00010
00010
00010
10000
,
00100
00000
01000
00010
10000
00000
00000
01000
,
10000
00100
02000
00000
03100
00000
00000
00000
,
02020
03030
00000
00000
00000
00000
00000
00000
00000
00000
00000
00000
00000
00000
00000
00000
00000
00000
00000
00000
00000
00000
00000
00000
00000
00000
00000
00000
00000
00000
00000
00000
00000
00000
00000
00000
00000
00000
00000
00000
00000
00000
00000
00000
00000
00000
00000
00000
00000
00000
00000
00000
00000
00000
00000
00000
00000
00000
00000
00000
00000
00000
00000
00000
00000
00000
00000
00000
00000
00000
00000
00000
00100
00000
00000
00000
00000
00000
00000
00000
00000
00000
00000
00000
00000
00000
00000
00000
00000
00000
00000
00000
00000
00000
00000
00000
00010
00000
00000
00000
00000
00000
00000
00000
00000
00000
00000
00000
00000
00000
00000
00000
00000
00000
00000
00000
00000
00000
00000
00000
00000
00000
00000
00000
00000
00000
00000
00000
00000
00000
00000
00000
00000
00000
00000
00000
00000
00000
00000
00000
00000
00000
00000
00000
00000
00000
00000
00000
00000
00000
00000
00000
00000
00000
00000
00000
00000
00000
00000
00000
00000
00000
00000
00000
00000
00000
00000
00000
00000
00000
00000
00000
00000
00000
00000
00000
00000
00000
00000
00000
00000
00000
00000
00000
00000
00000
00000
00000
00000
00000
00000
00000
;

//---------------pump-single - ----------------
#NOTES:
     pump-single:
     :
     Easy:
     26:
     0.178,0.221,0.000,0.020,0.000,123.000,0.000,2.000,0.000,0.000:
00000
00000
00000
00000
,
00000
00000
00000
00000
,
00000
00000
00000
00000
,
00000
00000
00000
00000
,
00000
00000
00000
00000
,
00000
00000
00000
00000
,
00000
00000
00000
00000
,
00000
00000
00000
00000
,
10000
00000
00001
00000
,
00100
00010
01000
00000
,
00001
00000
10000
00000
,
01000
10000
00100
00000
,
01000
00000
00010
00000
,
00100
00001
10000
00000
,
00100
00000
01000
00000
,
00010
00100
00010
00000
,
10000
00000
00000
00000
,
00001
00000
00100
00000
,
00010
00000
00100
00000
,
00001
00000
10000
00000
,
00100
00000
01000
00000
,
00100
00000
10000
00000
,
00010
00000
01000
00000
,
00001
00000
10000
00000
,
00100
00000
10000
00000
,
00002
00000
00000
00000
,
00203
00000
00000
00000
,
00310
00010
01000
01000
,
00010
00010
01000
00000
,
00001
00001
10000
10000
,
00001
00001
10000
00000
,
00100
00100
01000
01000
,
00100
00100
01000
00000
,
00010
00010
10000
10000
,
00010
00010
10000
00000
,
00001
00001
01000
01000
,
00001
00001
01000
00000
,
00100
00100
00010
00010
,
00100
00100
00010
00000
,
01000
01000
00100
00100
,
01000
01000
00100
00000
,
10000
10000
00001
00001
,
10000
10000
00001
00000
,
00100
00000
00010
00000
,
01000
00000
00000
00000
,
00100
00000
10000
00000
,
00001
00000
00000
00000
,
00010
00000
01000
00000
,
00001
00100
00010
00000
,
10000
00000
00100
00000
,
01000
00001
01000
00000
,
00010
00000
00100
00000
,
00001
10000
00001
00000
,
01000
00000
00100
00000
,
10000
00010
00100
00000
,
00001
00000
00100
00000
;

//---------------pump-single - Copied from----------------
#NOTES:
     pump-single:
     Copied from:
     Beginner:
     12:
     0.074,0.110,0.000,0.020,0.000,50.000,0.000,2.000,0.000,0.000:
00000
00000
00000
00000
,
00000
00000
00000
00000
,
00000
00000
00000
00000
,
00000
00000
00000
00000
,
00000
00000
00000
00000
,
00000
00000
00000
00000
,
00001
00000
10000
00000
,
00100
00000
00000
00000
,
01000
00000
00000
00000
,
00010
00000
00000
00000
,
00100
00000
00000
00000
,
00001
00000
00000
00000
,
10000
00000
00000
00000
,
00010
00000
00000
00000
,
01000
00000
00000
00000
,
00100
00000
00000
00000
,
10000
00000
00000
00000
,
00010
00000
00000
00000
,
00000
00000
00000
00000
,
00100
00000
00000
00000
,
00000
00000
00000
00000
,
00001
00000
00000
00000
,
00000
00000
00000
00000
,
01000
00000
00000
00000
,
00000
00000
00000
00000
,
00020
00000
00000
00000
,
20030
00000
00000
00000
,
30100
00000
00000
00000
,
01000
00000
00000
00000
,
00001
00000
00000
00000
,
10000
00000
00000
00000
,
00010
00000
00000
00000
,
01000
00000
00000
00000
,
00100
00000
00000
00000
,
01000
00000
00000
00000
,
00010
00000
00000
00000
,
10000
00000
00000
00000
,
00001
00000
00000
00000
,
00100
00000
00000
00000
,
00001
00000
00000
00000
,
01000
00000
00000
00000
,
00001
00000
00000
00000
,
01000
00000
00000
00000
,
00100
00000
00000
00000
,
00000
00000
00000
00000
,
01000
00000
00000
00000
,
00000
00000
00000
00000
,
00010
00000
00100
00000
,
00010
00000
00100
00000
,
00001
00000
00000
00000
,
10000
00000
00000
00000
,
01000
00000
00100
00000
,
01000
00000
00100
00000
,
10000
00000
00000
00000
,
00001
00000
00000
00000
,
01000
00000
00010
00000
;
