#TITLE:Haru Haru;
#SUBTITLE:;
#ARTIST:CanBlaster;
#TITLETRANSLIT:;
#SUBTITLETRANSLIT:;
#ARTISTTRANSLIT:;
#CREDIT:;
#BANNER:haruharu-banner.png;
#SONGINFO:haruharu-songinfo.png;
#BACKGROUND:haruharu-bg.png;
#LYRICSPATH:;
#CDTITLE:./CDTITLES/nuprophet.png;
#CHARACTER:./SongCharacters/canblaster;
#MUSIC:HaruHaru.mp3;
#OFFSET:-0.060;
#SAMPLESTART:30.680;
#SAMPLELENGTH:12.000;
#SELECTABLE:YES;
#BPMS:0.000=172.000;
#STOPS:;
#BGCHANGES:-2.000=visffd320.avi=1.000=1=1=0
;
// cache tags:
#FIRSTBEAT:8.000;
#LASTBEAT:312.000;
#SONGFILENAME:Songs/Neon FM/Haru Haru/HaruHaru.sm;
#HASMUSIC:1;
#HASBANNER:1;
#MUSICLENGTH:110.968;
// end cache tags

//---------------pump-single - ----------------
#NOTES:
     pump-single:
     :
     Hard:
     90:
     0.694,0.738,0.451,0.297,0.216,456.000,50.000,33.000,0.000,0.000:
00000
00000
00000
00000
,
00000
00000
00000
00000
,
01000
00000
00010
00100
00000
00001
00000
00100
,
00010
00000
01000
00001
01000
00000
00100
00000
,
10000
00010
00000
00010
10000
00000
00100
00000
10000
00000
00001
00000
00100
00000
00001
00000
,
01000
00010
01000
00000
01010
00000
00000
00000
,
00100
00000
00001
10000
00000
00010
00000
01000
,
00100
00000
10000
00010
10000
00000
00001
00000
,
10000
00100
00000
00100
10000
00000
00001
00000
01000
00000
00010
00000
01000
00000
00100
00000
,
10000
00001
00000
00001
01000
00000
00010
00000
10000
00000
00100
00000
10000
00000
00000
00000
,
00001
00000
00000
01000
00000
00000
00001
00000
00100
00000
00010
00000
01000
00000
01000
00000
,
00001
00000
00000
10000
00000
00000
00001
00000
01000
00000
00010
00000
00100
00000
00100
00000
,
00001
00000
00000
00100
00000
00000
00010
00000
01000
00000
00100
00000
10000
00000
10000
00000
,
00001
00000
00000
01000
00000
00000
00001
00000
10000
00000
00000
00010
00000
00000
10000
00000
,
00001
00000
00000
01000
00000
00000
00001
00000
00100
00000
00010
00000
01000
00000
01000
00000
,
00001
00000
00000
10000
00000
00000
00001
00000
01000
00000
00010
00000
00100
00000
00100
00000
,
00001
00000
00000
10000
00001
00000
00000
01000
00001
00000
00000
00100
00001
00000
00000
00010
,
00001
00000
00000
01000
00000
00000
00001
00000
10000
00000
00100
00000
01000
00000
00100
00000
,
20000
30020
00230
02300
,
03200
00302
02003
03020
,
20030
30200
02300
03200
,
20300
30002
10003
10001
,
10000
00000
00010
01000
00000
00100
00000
10000
,
00010
00000
00100
00001
00100
00000
00010
00000
,
10000
00100
00000
00100
10000
00000
01000
00000
10000
00000
00010
00000
01000
00000
00001
00000
,
00100
00010
00100
00000
00110
00000
00101
00000
,
00010
00000
01000
00010
00000
00100
00000
00001
,
00100
00000
00010
01000
00010
00000
01010
00000
,
10000
00100
00000
00100
10000
00000
00010
00000
00100
00000
00001
00000
10000
00000
00100
00000
,
01000
00001
00000
00001
00100
00000
00010
00000
01000
00000
00100
00000
01000
00000
00000
00000
,
01002
00000
00103
00010
00000
01010
00000
01000
,
00100
00000
10000
00010
00100
00000
10001
00000
,
10000
00100
10000
00100
10000
00000
00010
00000
01000
00000
00010
00000
00100
00000
00001
00000
,
10000
01000
11000
00000
10100
00000
10010
00000
,
01002
00000
10003
00100
00000
10100
00000
00010
,
01000
00000
00100
10000
00010
00000
00110
00000
,
01000
00001
01000
00001
01000
00000
00010
00000
00100
00000
00001
00000
00100
00000
00010
00000
,
10000
01000
10000
01000
10000
00000
00010
00000
00100
00000
00010
00000
10010
00000
00000
00000
,
01000
01000
00010
00010
01010
00000
01010
00000
,
00100
00100
20002
30003
,
00010
00010
10000
10000
10010
00000
10010
00000
,
01000
01000
00202
00303
,
10000
10000
00001
00001
10001
00000
10001
00000
,
00100
00100
02020
03030
,
10000
10000
00100
00100
01000
00000
01000
00000
,
00001
00001
00100
00100
00010
00000
00010
00000
,
00010
00010
01000
01000
01010
00000
01010
00000
,
00100
00100
20002
30003
,
01000
01000
00001
00001
01001
00000
01001
00000
,
00010
00010
20200
30300
,
00001
00001
10000
10000
10001
00000
10001
00000
,
00100
00100
02020
03030
,
00001
00001
00100
00100
00010
00000
00010
00000
,
10000
10000
00100
00100
01000
00000
01000
00000
,
20010
00000
00000
00010
00000
30000
10100
00000
,
01000
00000
00001
00100
00000
00100
00001
00000
,
01010
00000
00000
01010
00000
00000
00001
00000
,
10000
00100
00000
01000
00010
00001
00101
00000
,
01002
00000
00000
00100
00000
10003
00001
00000
,
01000
00010
00000
00010
10000
00100
01100
00000
,
10200
10300
00201
00301
,
01010
00000
10100
00000
01010
00000
00101
00001
,
10000
00000
00000
00010
00000
00000
10000
00000
00100
00000
01000
00000
00010
00000
00010
00000
,
10000
00000
00000
00001
00000
00000
10000
00000
00010
00000
01000
00000
00100
00000
00100
00000
,
10000
00000
00000
00100
00000
00000
01000
00000
00010
00000
00100
00000
00001
00000
00001
00000
,
10000
00000
00000
00010
00000
00000
10000
00000
00001
00000
00000
01000
00000
00000
00001
00000
,
10000
00000
00000
00010
00000
00000
10000
00000
00100
00000
01000
00000
00010
00000
00010
00000
,
10000
00000
00000
00001
00000
00000
10000
00000
00010
00000
01000
00000
00100
00000
00100
00000
,
10000
00000
00000
00001
10000
00000
00000
00010
10000
00000
00000
00100
10000
00000
00000
01000
,
10000
00000
00000
00010
00000
00000
10000
00000
00001
00000
00100
00000
00010
00000
00100
00000
,
00001
01000
00010
01000
00000
00001
10000
01000
,
10000
00000
00010
01000
00010
00000
10001
00000
,
00010
00100
00010
00100
00010
00000
10000
00000
00100
00000
01000
00000
00100
00000
10000
00000
,
00010
00100
00001
00000
00101
00000
10100
00000
,
01000
00010
00100
00010
00000
10000
00001
00010
,
00001
00000
01000
00001
01000
00000
01010
00000
,
01000
00010
01000
00010
01000
00000
00001
00000
00100
00000
00001
00000
01000
00000
00010
00000
,
10000
00100
10000
00100
10000
00000
10000
00000
00001
00000
00010
00000
00200
00000
00000
00000
,
01300
00000
00000
00000
;

//---------------pump-single - ----------------
#NOTES:
     pump-single:
     :
     Medium:
     65:
     0.454,0.457,0.000,0.063,0.072,346.000,0.000,7.000,0.000,0.000:
00000
00000
00000
00000
,
00000
00000
00000
00000
,
01000
00000
00010
00100
00000
00010
00000
10000
,
00001
00000
01000
00001
01000
00000
00010
00000
,
10000
00001
10000
00000
00001
10000
00001
00000
,
10000
00001
10000
00000
00100
00000
00000
00000
,
00010
00000
01000
00100
00000
01000
00000
00001
,
10000
00000
00010
10000
00010
00000
01000
00000
,
00001
10000
00001
00000
01000
00000
00010
00000
,
10000
00001
10000
00000
00010
01000
00010
00000
,
10000
00000
00000
00100
00000
00000
10000
00000
00001
00000
00000
00000
00100
00000
00000
00000
,
00010
00000
00000
01000
00000
00000
00010
00000
10000
00000
00000
00000
00100
00000
00000
00000
,
10000
00000
00000
00001
00000
00000
10000
00000
00010
00000
00000
00000
01000
00000
00000
00000
,
00100
00000
00000
01000
00000
00000
00100
00000
00010
00000
00000
00100
00000
00000
01000
00000
,
00001
00000
00000
00100
00000
00000
00001
00000
10000
00000
00000
00000
00100
00000
00000
00000
,
01000
00000
00000
00010
00000
00000
01000
00000
00001
00000
00000
00000
00100
00000
00000
00000
,
00001
00001
00001
00001
,
01000
00000
00000
00010
00000
00000
01000
00000
00010
00000
00000
00000
01000
00000
00000
00000
,
00001
10000
01000
00100
,
00010
00001
00010
00100
,
01000
00100
01000
10000
,
00001
10000
00001
00000
,
01000
00000
00010
00100
00000
00010
00000
10000
,
00001
00000
01000
00001
01000
00000
00010
00000
,
10000
00001
10000
00000
00001
10000
00001
00000
,
10000
00001
10000
00000
00100
00000
00000
00000
,
00010
00000
01000
00100
00000
01000
00000
00001
,
10000
00000
00010
10000
00010
00000
01000
00000
,
00001
10000
00001
00000
01000
00000
00010
00000
,
10000
00001
10000
00000
00010
01000
00010
00000
,
10000
00000
00001
01000
00000
00001
00000
01000
,
00001
00000
10000
00100
10000
00000
00010
00000
,
01000
00010
01000
00000
00010
01000
00010
00000
,
01000
00010
01000
00000
00100
00000
00000
00000
,
01000
00000
00001
00100
00000
00010
00000
00100
,
00001
00000
01000
00100
01000
00000
00001
00000
,
10000
00100
00001
00100
,
10000
00000
00001
00000
01000
00010
00100
00000
,
01000
01000
00001
00001
,
10000
10000
00200
00300
,
01000
01000
00001
00001
,
10000
10000
00020
00030
,
01000
01000
00001
00001
,
10000
10000
00020
00030
,
10000
10000
00010
00010
,
10000
10000
00010
00010
,
01000
01000
00001
00001
,
10000
10000
00200
00300
,
01000
01000
00001
00001
,
10000
10000
00020
00030
,
01000
01000
00001
00001
,
10000
10000
00020
00030
,
10000
10000
00010
00010
,
10000
10000
00010
00010
,
00100
00000
00000
00100
00000
00000
00100
00000
,
00001
00000
00000
00001
00000
00100
00001
00000
,
10000
00000
00000
10000
00000
00000
10000
00000
,
00100
00000
00100
10000
00000
10000
00010
00000
,
01000
00000
00000
01000
00000
00000
01000
00000
,
00001
00000
00000
00001
00000
01000
00001
00000
,
10000
10000
00001
00001
,
01000
00010
00010
10000
,
00001
00000
00000
00100
00000
00000
00001
00000
10000
00000
00000
00000
00100
00000
00000
00000
,
01000
00000
00000
00010
00000
00000
01000
00000
00001
00000
00000
00000
00100
00000
00000
00000
,
00001
00000
00000
10000
00000
00000
00001
00000
01000
00000
00000
00000
00010
00000
00000
00000
,
00100
00000
00000
00010
00000
00000
00100
00000
01000
00000
00000
00100
00000
00000
00010
00000
,
10000
00000
00000
00100
00000
00000
10000
00000
00001
00000
00000
00000
00100
00000
00000
00000
,
00010
00000
00000
01000
00000
00000
00010
00000
10000
00000
00000
00000
00100
00000
00000
00000
,
10000
10000
10000
10000
,
00010
00000
00000
01000
00000
00000
00010
00000
01000
00000
00000
00000
00010
00000
00000
00000
,
01000
00000
00001
01000
00000
00010
00000
00100
,
00001
00000
10000
00010
10000
00000
00100
00000
,
00001
00100
00001
00000
10000
00100
10000
00000
,
00001
00100
00001
00000
10000
00000
00000
00000
,
00010
00000
01000
00100
00000
10000
00000
00100
,
01000
00000
00010
01000
00010
00000
10000
00000
,
00001
01000
00001
00000
10000
00010
10000
00000
,
00001
01000
00001
00000
10000
00000
00020
00000
,
00130
00000
00000
00000
;

//---------------pump-single - ----------------
#NOTES:
     pump-single:
     :
     Easy:
     30:
     0.174,0.316,0.000,0.000,0.000,135.000,0.000,0.000,0.000,0.000:
00000
00000
00000
00000
,
00000
00000
00000
00000
,
00001
00000
00000
00000
,
00100
00000
00000
00000
,
00001
00000
10000
00000
,
00100
00000
01000
00000
,
00001
00000
00000
00000
,
10000
00000
00000
00000
,
00010
00000
00100
00000
,
00001
00000
10000
00000
,
00100
00000
00000
00000
,
00010
00000
00000
00000
,
01000
00000
00000
00000
,
00100
00000
00000
00000
,
01000
00000
00000
00000
,
00010
00000
00000
00000
,
00100
00000
00000
00000
,
00001
00000
00000
00000
,
10000
00000
00100
00000
,
10000
00000
00100
00000
,
10000
00000
00100
00000
,
10000
00000
10000
00000
,
00001
00000
00000
00000
,
00001
00000
00000
00000
,
00001
01000
00010
01000
,
00010
01000
00001
00000
,
10000
00000
00000
00000
,
00010
00000
00000
00000
,
01000
00100
01000
00010
,
01000
00100
01000
00001
,
10000
00000
00000
00000
,
00001
00000
00000
00000
,
00100
10000
00100
10000
,
00010
01000
00100
00000
,
00001
00000
00000
00000
,
01000
00000
00000
00000
,
00010
01000
00010
10000
,
00010
00100
00001
01000
,
00001
00000
00000
00000
,
00100
00100
00100
00000
,
10000
00000
00000
00000
,
00100
00100
00100
00000
,
01000
00000
00000
00000
,
00100
00100
00100
00000
,
00010
00000
00000
00000
,
01000
00000
00000
00000
,
00001
00000
00000
00000
,
00010
00010
00010
00000
,
10000
00000
00000
00000
,
01000
01000
01000
00000
,
00100
00000
00000
00000
,
10000
00001
10000
00000
,
00010
00010
00000
00000
,
01000
01000
00000
00000
,
10000
00000
00000
00000
,
00001
00000
00000
00000
,
00100
00000
00000
00000
,
00001
00000
00000
00000
,
10000
00000
00000
00000
,
00010
00000
00000
00000
,
01000
00000
00010
00000
,
01000
00010
01000
00010
,
01000
00000
00000
00000
,
00001
00000
00000
00000
,
10000
00000
00000
00000
,
01000
00000
10000
00000
,
00001
00000
00000
00000
,
00010
00000
00000
00000
,
00001
00000
00000
00000
,
01000
00000
00000
00000
,
00100
00000
00000
00000
,
00001
00000
10000
00000
,
00010
00000
01000
00000
,
00100
10000
00001
00000
,
00100
00000
00000
00000
,
00010
00000
00000
00000
,
01000
00001
10000
00000
,
00100
10000
00010
00100
,
00001
00000
00000
00000
;

//---------------pump-single - Copied from----------------
#NOTES:
     pump-single:
     Copied from:
     Beginner:
     15:
     0.071,0.176,0.000,0.018,0.000,53.000,0.000,2.000,0.000,0.000:
00000
00000
00000
00000
,
00000
00000
00000
00000
,
00100
00000
00000
00000
,
00000
00000
00000
00000
,
10000
00000
00000
00000
,
00000
00000
00000
00000
,
00100
00000
00000
00000
,
00000
00000
00000
00000
,
00001
00000
00000
00000
,
00000
00000
00000
00000
,
01000
00000
00000
00000
,
00000
00000
00000
00000
,
01000
00000
00000
00000
,
00000
00000
00000
00000
,
00010
00000
00000
00000
,
00000
00000
00000
00000
,
00010
00000
00000
00000
,
00000
00000
00000
00100
,
00001
00000
00000
00000
,
00000
00000
00000
00000
,
10000
00000
00000
00000
,
00000
00000
00001
00000
,
10000
00000
00000
00000
,
00100
00000
00000
00000
,
01000
00000
00000
00000
,
00010
00000
00000
00000
,
00001
00000
00000
00000
,
10000
00000
00000
00000
,
00010
00000
00000
00000
,
00100
00000
00000
00000
,
00002
00000
00000
00000
,
00000
00000
00000
00000
,
10003
00000
10000
00000
,
10000
00000
10000
00000
,
00020
00000
00000
00000
,
00000
00000
00000
00000
,
01030
00000
01000
00000
,
01000
00000
01000
00000
,
00001
00000
00000
00000
,
00000
00000
00000
00000
,
00100
00000
00000
00000
,
00000
00000
00000
00000
,
00010
00000
00000
00000
,
00000
00000
00000
00000
,
01000
00000
00000
00000
,
00000
00000
00000
00000
,
00001
00000
00000
00000
,
00000
00000
00000
00000
,
00100
00000
00000
00000
,
00000
00000
00000
00000
,
00010
00000
00000
00000
,
00000
00000
00000
00000
,
01000
00000
00000
00000
,
00000
00000
00000
00000
,
00100
00000
00000
00000
,
00000
00000
00000
00000
,
00000
00000
00000
00000
,
00000
00000
00000
00000
,
10000
00000
00000
00000
,
00000
00000
00000
00000
,
00000
00000
00000
00000
,
00001
00000
00000
00000
,
00001
00000
00000
00000
,
00000
00000
00000
00000
,
01000
00000
00000
00000
,
00000
00000
00000
00000
,
00010
00000
00000
00000
,
00000
00000
00000
00000
,
10000
00000
00000
00000
,
00001
00000
00000
00000
,
10000
00000
00000
00000
,
00000
00000
00000
00000
,
00100
00000
00000
00000
,
00000
00000
00000
00000
,
00010
00000
00000
00000
,
00000
00000
00000
00000
,
01000
00000
00000
00000
,
00001
00000
00100
00000
,
00001
00000
00000
00000
;
