#TITLE:Marque El Dos;
#SUBTITLE:;
#ARTIST:Virt;
#TITLETRANSLIT:;
#SUBTITLETRANSLIT:;
#ARTISTTRANSLIT:;
#CREDIT:;
#BANNER:marqueeldos-banner.png;
#SONGINFO:marqueeldos-songinfo.png;
#BACKGROUND:marqueeldos-bg.png;
#LYRICSPATH:;
#CDTITLE:./CDTITLES/neon.png;
#CHARACTER:./SongCharacters/Virt;
#MUSIC:Marque El Dos.mp3;
#OFFSET:-0.620;
#SAMPLESTART:45.100;
#SAMPLELENGTH:12.000;
#SELECTABLE:YES;
#BPMS:0.000=140.000;
#STOPS:;
#BGCHANGES:-2.000=visffd320.avi=1.000=1=1=0
;
// cache tags:
#FIRSTBEAT:8.000;
#LASTBEAT:262.000;
#SONGFILENAME:Songs/Neon FM/Marque El Dos/Marque El Dos.sm;
#HASMUSIC:1;
#HASBANNER:1;
#MUSICLENGTH:114.546;
// end cache tags

//---------------pump-single - ----------------
#NOTES:
     pump-single:
     :
     Hard:
     81:
     0.582,0.543,0.079,0.742,0.441,373.000,9.000,85.000,0.000,0.000:
00000
00000
00000
00000
,
00000
00000
00000
00000
,
00000
00000
00000
00000
10000
00000
00010
00000
10000
00000
00100
01000
00000
00001
00000
10000
,
00000
00001
00000
10000
00000
00010
00000
10000
00000
00100
00000
10000
00000
01000
00000
00000
,
00000
00000
00000
00000
10000
00000
00001
00100
00000
00001
00000
01000
00000
00010
00000
00100
,
00000
00001
00000
20000
00000
00000
00000
00000
30010
00000
00100
00000
01000
00000
00000
00000
,
00000
00000
00000
00000
10000
00000
00010
00000
00100
00000
00001
01000
00000
00010
00000
10000
,
00000
00001
00000
00010
00000
00100
00000
01000
00000
10000
00000
01000
00000
00010
00000
00000
,
00000
00000
00000
00000
00100
00000
00001
00000
00100
00000
00010
10000
00000
00100
00000
01000
,
00000
00010
00000
01000
00000
00000
00000
00000
00100
00000
10000
00000
00001
00000
00100
00000
,
00010
00000
10000
00000
00001
00000
01000
00000
00001
00000
00100
00000
00010
10000
00000
00001
,
00000
10000
00000
00001
00000
01000
00000
00001
00000
00100
00000
00001
00000
00010
00000
00000
,
00001
00000
00100
00000
00001
00000
10000
00100
00000
10000
00000
00010
00000
01000
00000
00100
,
00000
10000
00000
00002
00000
00000
00000
00000
01003
00000
00100
00000
00010
00000
00100
00000
,
10000
00000
10000
00000
00001
00000
01000
00000
00100
00000
10000
00000
00010
01000
00000
00001
,
00000
10000
00000
01000
00000
00100
00000
00010
00000
00001
00000
00010
00000
01000
00000
00001
,
00000
00000
01000
00000
00100
00000
10000
00000
00100
00000
01000
00000
00001
00000
00100
00010
,
00000
01000
00100
10000
10100
00000
00101
00000
,
02000
00000
03100
00000
10000
00000
00010
00000
00200
00000
00000
00302
00000
00000
00023
00000
,
00000
00000
00031
00000
10000
00000
00100
00000
02000
00000
00000
03002
00000
00000
20003
00000
,
00000
30010
00100
00020
00000
02030
00000
03002
,
00000
00000
10003
00000
00100
01000
00200
00000
10000
00000
00000
00000
10300
00000
00000
00000
,
00010
00100
00000
00000
00001
00000
01000
00000
00200
00000
00000
20300
00000
00000
30020
00000
,
00000
10030
01000
20000
00000
30020
00000
01030
,
00001
00100
00010
01000
00100
00000
00100
00000
,
10000
00001
10000
00001
00101
00000
00101
00000
,
00020
00000
00130
00000
00001
00000
01000
00000
00200
00000
00000
20300
00000
00000
32000
00000
,
00000
00000
13000
00000
00001
00000
00100
00000
00020
00000
00000
20030
00000
00000
30002
00000
,
00000
01003
00100
02000
00000
03020
00000
20030
,
00000
30001
00000
10001
00001
00000
00001
00000
,
01000
00100
00000
00000
10000
00000
00010
00000
00200
00000
00000
00302
00000
00000
02003
00000
,
00000
03001
00010
00002
01000
01003
00000
01010
,
00000
00000
00000
01010
,
00000
00000
00000
00000
,
00100
01000
00001
01000
00010
10000
00100
01000
,
00002
02003
03200
20300
,
30010
00100
00001
01000
00100
10000
00010
01000
,
00200
20300
30002
00203
,
00310
01000
00001
00100
00010
00100
00001
10000
,
00002
02003
03020
20030
,
30100
01000
00100
10000
00001
01000
00010
10000
,
02000
23000
30002
00023
,
00031
00000
00000
00000
10000
00000
00010
00000
10000
00000
00000
00000
00100
01000
00000
00001
,
00000
01000
00000
00010
00000
01000
00000
00100
00000
01000
00000
00002
00000
00000
01003
00000
,
00100
00000
00000
00000
10000
00000
00001
00000
10000
00000
00000
00000
00001
10000
00000
00010
,
00000
01000
00000
00002
00000
00000
00000
00000
10003
00000
01000
00000
10000
00000
00000
00000
,
00001
00000
00000
00000
01000
00000
00100
00000
10000
00000
00000
00000
00001
10000
00000
00010
,
00000
01000
00000
00001
00000
10000
00000
00010
00000
01000
00000
00100
00000
10000
00000
00000
,
00001
00000
00000
00000
10000
00000
00100
00000
10000
00000
00000
00010
00000
01000
00000
00020
,
00000
00000
00000
20030
,
30020
00000
00130
00000
00001
00000
01000
00000
00200
00000
00000
20300
00000
00000
32000
00000
,
00000
00000
13000
00000
00001
00000
00100
00000
00020
00000
00000
20030
00000
00000
30002
00000
,
00000
01003
00100
02000
00000
03020
00000
20030
,
00000
00000
30001
00000
00100
00010
00200
00000
00001
00000
00000
00000
00301
00000
00000
00000
,
01000
00100
00000
00000
10000
00000
00010
00000
00200
00000
00000
00302
00000
00000
02003
00000
,
00000
03001
00010
00002
00000
02003
00000
03010
,
10000
00100
01000
00010
00100
00000
00100
00000
,
00001
10000
00001
10000
10100
00000
10100
00000
,
00020
00000
00130
00000
00001
00000
01000
00000
00200
00000
00000
20300
00000
00000
32000
00000
,
00000
00000
13000
00000
00001
00000
00100
00000
00020
00000
00000
20030
00000
00000
30002
00000
,
00000
01003
00100
02000
00000
03020
00000
20030
,
00000
30001
00000
00200
00001
00000
00301
00000
,
01000
00200
00000
00000
10000
00000
00000
00000
10300
00000
00000
00002
00000
00000
02003
00000
,
00000
00000
00000
03002
00000
02003
00000
03020
,
00000
00000
00000
00000
,
00000
00000
00030
00000
;

//---------------pump-single - ----------------
#NOTES:
     pump-single:
     :
     Medium:
     57:
     0.392,0.372,0.052,0.236,0.052,281.000,6.000,27.000,0.000,0.000:
00000
00000
00000
00000
,
00000
00000
00000
00000
,
00100
00000
01000
00010
01000
00000
00001
00100
,
00010
00010
00010
00010
,
01000
00000
00100
10000
00100
00000
01000
00001
,
10000
00010
00010
00000
01000
00000
01000
00000
,
00100
00000
01000
00010
01000
00000
00001
00100
,
00010
00010
00010
00010
,
01000
00000
00100
10000
00100
00000
01000
00001
,
10000
00010
00010
00000
01000
00000
01000
00000
,
00100
00000
01000
00010
10000
00000
00001
01000
,
00100
00100
00100
00100
,
01000
00000
00010
10000
00010
00000
00100
00001
,
10000
10000
00100
00000
01000
00000
00010
00000
,
00100
00000
01000
00010
10000
00000
00001
01000
,
00100
00100
00100
00100
,
01000
00000
00010
10000
00010
00000
00100
00001
,
10000
00100
01000
00010
,
10010
00000
00000
00000
00010
00000
00000
00000
01000
00000
00000
00100
00000
00000
02000
00000
,
00000
00000
00000
00000
03010
00000
00000
00000
00010
00000
00000
01000
00000
00000
00002
00000
,
00000
00000
10003
00100
00000
01000
00000
00020
,
00000
01030
00100
20000
00000
00000
30001
00000
,
00010
00000
00000
00000
10000
00000
00000
00000
00001
00000
00000
01000
00000
00000
00020
00000
,
00000
00000
01030
00100
00000
01000
00000
00020
,
00000
00000
10000
10030
,
00001
00100
00010
10000
,
01001
00000
00000
00000
01000
00000
00000
00000
00010
00000
00000
00100
00000
00000
00020
00000
,
00000
00000
00000
00000
01030
00000
00000
00000
01000
00000
00000
00010
00000
00000
20000
00000
,
00000
00000
30001
00100
00000
00010
00000
02000
,
00000
03010
00000
00200
00000
00301
00000
00000
,
02000
00000
00000
00000
00000
00000
00000
00000
03001
00000
00000
01000
00000
00000
00002
00000
,
00000
00000
10000
00000
10003
10000
00000
10001
,
00000
00000
00000
10001
,
00000
00000
00000
00000
,
00001
00100
00010
00000
01000
00100
10000
00000
,
00100
01000
00010
00000
00100
00001
10000
00000
,
00010
00100
00001
00000
01000
00100
01000
00000
,
00010
10000
01000
00000
10000
00010
00100
00000
,
00001
00010
00001
00000
01000
00010
01000
00000
,
00100
10000
00001
00000
00100
00010
01000
00000
,
01000
00010
00100
00000
00001
10000
01000
00000
,
10000
00100
01000
00000
01000
00010
00100
00000
,
00100
00000
00010
01000
00010
00000
10000
00100
,
01000
01000
01000
01000
,
00010
00000
00100
00001
00100
00000
00010
10000
,
00001
01000
01000
00000
00010
00000
00010
00000
,
00100
00000
00010
01000
00010
00000
10000
00100
,
01000
01000
01000
01000
,
00010
00000
00100
00001
00100
00000
00010
10000
,
00002
00000
00000
10003
,
10010
00000
00000
00000
00010
00000
00000
00000
01000
00000
00000
00100
00000
00000
02000
00000
,
00000
00000
00000
00000
03010
00000
00000
00000
00010
00000
00000
01000
00000
00000
00002
00000
,
00000
00000
10003
00100
00000
01000
00000
00020
,
00000
01030
00100
20000
00000
00000
30001
00000
,
00010
00000
00000
00000
10000
00000
00000
00000
00001
00000
00000
01000
00000
00000
00020
00000
,
00000
00000
01030
00100
00000
01000
00000
00020
,
00000
00000
10000
10030
,
00001
00100
00010
10000
,
01001
00000
00000
00000
01000
00000
00000
00000
00010
00000
00000
00100
00000
00000
00020
00000
,
00000
00000
00000
00000
01030
00000
00000
00000
01000
00000
00000
00010
00000
00000
20000
00000
,
00000
00000
30001
00100
00000
00010
00000
02000
,
00000
03010
00000
00200
00000
00301
00000
00000
,
02000
00000
00000
00000
00000
00000
00000
00000
03001
00000
00000
01000
00000
00000
00002
00000
,
00000
00000
00000
20003
00000
00000
00000
30020
,
00000
00000
00000
00000
,
00000
00000
00030
00000
;

//---------------pump-single - ----------------
#NOTES:
     pump-single:
     :
     Easy:
     31:
     0.220,0.257,0.000,0.017,0.000,174.000,0.000,2.000,0.000,0.000:
00000
00000
00000
00000
,
00000
00000
00000
00000
,
10000
00100
01000
00001
,
01000
00000
00000
00000
,
00100
10000
00010
00100
,
00001
01000
00000
00000
,
00100
10000
00010
01000
,
00100
10000
00010
10000
,
00100
01000
00001
00100
,
00010
00000
00000
00000
,
00100
01000
00001
10000
,
00010
00000
00010
00000
,
01000
00100
10000
00001
,
00100
00010
00000
00000
,
01000
00010
01000
00001
,
10000
00100
10000
00010
,
00100
00001
01000
00100
,
20000
00000
00000
00000
,
30010
00000
01000
00001
,
10000
00000
00100
01000
,
00100
00000
10000
00000
,
00001
00100
00100
00000
,
10000
00000
00001
00100
,
00010
00000
00010
10000
,
00001
00001
10000
10000
,
00100
00100
01000
01000
,
00010
00000
10000
00001
,
01000
00000
00100
10000
,
00010
00000
00010
00100
,
00010
00010
00010
00000
,
00001
00000
00000
00001
,
00001
00000
01000
01000
,
01000
00000
00000
00001
,
00000
00000
00000
00000
,
10000
00100
10000
00000
,
00001
00100
00001
00000
,
01000
00010
00100
00000
,
00100
01000
00010
00000
,
10000
00100
01000
00000
,
00010
00100
00001
00000
,
10000
00001
01000
00000
,
00100
00001
00100
00000
,
00010
00000
00010
00000
,
10000
00000
10000
00000
,
00001
00000
01000
00000
,
00100
00000
10000
00000
,
00010
00000
00100
00000
,
00001
00000
01000
00000
,
00100
00000
00001
00000
,
10000
00000
00000
00000
,
00010
00000
01000
00001
,
01000
00000
00100
10000
,
00100
00000
01000
00010
,
01000
00000
00001
00000
,
00100
00000
00010
10000
,
00100
00000
01000
00000
,
00010
00100
00001
00100
,
00001
10000
00100
01000
,
00010
00000
00100
00010
,
01000
00000
00100
10000
,
00100
00000
01000
00001
,
10000
00000
00010
00100
,
00010
00000
00010
00010
,
01000
00000
00000
00001
00000
00000
00000
02000
,
00000
00000
00000
00000
,
00000
00000
03000
00000
;

//---------------pump-single - Copied from----------------
#NOTES:
     pump-single:
     Copied from:
     Beginner:
     21:
     0.141,0.200,0.044,0.035,0.000,104.000,5.000,4.000,0.000,0.000:
00000
00000
00000
00000
,
00000
00000
00000
00000
,
00010
00000
01000
00000
,
00010
00000
01000
00000
,
00100
00000
10000
00000
,
00001
00000
00100
00000
,
00010
00000
01000
00000
,
00010
00000
01000
00000
,
00100
00000
10000
00000
,
00001
00000
00100
00000
,
01000
00000
01000
00000
,
00010
00000
00010
00000
,
00100
00000
00100
00000
,
00001
00000
00001
00000
,
10000
00000
10000
00000
,
00100
00000
00100
00000
,
01000
00000
00010
00000
,
01000
00000
00010
00000
,
10000
00000
00000
00000
,
00001
00000
00000
00000
,
00100
00000
00000
00000
,
00010
00010
00010
00000
,
10000
00000
00000
00000
,
00100
00000
00000
00000
,
01000
00000
00000
00000
,
00002
00000
00000
00000
,
10003
00000
00000
00000
,
00010
00000
00000
00000
,
01000
00000
00000
00000
,
00001
00001
00001
00000
,
10000
00000
00000
00000
,
00100
00000
00000
00000
,
00010
00000
00000
00000
,
00000
00000
00000
00000
,
10001
00000
00100
00000
,
00000
00000
00000
00000
,
01010
00000
00100
00000
,
00000
00000
00000
00000
,
10001
00000
00100
00000
,
00000
00000
00000
00000
,
01010
00000
00100
00000
,
00000
00000
00000
00000
,
10001
00000
00000
00000
,
00000
00000
00000
00000
,
00100
00000
00000
00000
,
00000
00000
00000
00000
,
00010
00000
00000
00000
,
00000
00000
00000
00000
,
01000
00000
00000
00000
,
00000
00000
00000
00001
,
10000
00000
00001
10000
,
00001
00000
10000
00001
,
10000
00000
00010
01000
,
00010
00000
10000
00010
,
10000
00000
01000
00010
,
01000
00000
00001
01000
,
00001
00000
00100
00001
,
00100
00000
00100
10000
,
00100
00000
01000
00010
,
00100
00000
00100
00010
,
01000
00000
00001
10000
,
00100
00000
00100
10000
,
00002
00000
00000
00000
00000
00000
00000
20000
,
00003
00000
00000
00001
00000
00000
00000
00002
,
30000
00000
00000
00000
,
00000
00000
00003
00000
;
