#TITLE:A Ridiculous Dentist;
#SUBTITLE:Hiro's Fabulous 2step Mix;
#ARTIST:Hiromasa Fusakawa;
#TITLETRANSLIT:;
#SUBTITLETRANSLIT:;
#ARTISTTRANSLIT:;
#CREDIT:;
#BANNER:dentistremix-banner.png;
#SONGINFO:;
#BACKGROUND:dentistremix-bg.png;
#LYRICSPATH:;
#CDTITLE:./CDTITLES/neon.png;
#CHARACTER:./SongCharacters/hiro;
#MUSIC:A Ridiculous Dentist remix.mp3;
#OFFSET:0.560;
#SAMPLESTART:52.080;
#SAMPLELENGTH:12.000;
#SELECTABLE:YES;
#BPMS:0.000=132.000;
#STOPS:;
#BGCHANGES:;
// cache tags:
#FIRSTBEAT:20.000;
#LASTBEAT:228.000;
#SONGFILENAME:Songs/Neon FM/Ridiculous Dentist remix/Ridiculous Dentist remix.sm;
#HASMUSIC:1;
#HASBANNER:1;
#MUSICLENGTH:103.549;
// end cache tags

//---------------pump-single - ----------------
#NOTES:
     pump-single:
     :
     Hard:
     82:
     0.531,0.523,0.174,0.261,0.420,340.000,18.000,27.000,0.000,0.000:
00000
00000
00000
00000
,
00000
00000
00000
00000
,
00000
00000
00000
00000
,
00000
00000
00000
00000
,
00000
00000
00000
00000
,
00100
00000
00000
01000
00000
00000
00100
00000
00000
10000
00000
00000
00000
00000
00010
00100
00000
00000
00001
00000
00000
00000
00000
00000
,
01000
00000
00000
00010
00000
00000
01000
00000
00000
00001
00000
00000
00000
00000
01000
00100
00000
00000
10000
00000
00000
00010
00000
00000
,
10000
00000
00000
01000
00000
00000
10000
00000
00000
00100
00000
00000
00000
00000
01000
00010
00000
00000
00100
00000
00000
00000
00000
00000
,
00001
00000
00000
00000
00000
10000
00000
00000
00000
00100
00000
00000
01000
00000
00001
01000
00000
00000
00010
00000
00000
00100
00000
00000
,
00002
20003
30020
02030
,
03200
20300
30002
00203
,
00310
00000
00000
00000
00000
10000
00010
00000
00000
00000
00000
01000
00010
00000
00000
00000
00000
00100
00010
00000
00000
00000
00000
00100
,
00001
10000
00100
01000
00100
10000
00001
00100
00010
00200
00000
00000
,
00301
00000
00000
00000
00000
00000
00000
00000
00000
00000
00000
00000
00001
00000
00000
00000
00000
01000
00100
00000
00000
10000
00000
00000
,
00002
00000
00000
10003
00000
10000
00010
00000
,
01000
00000
00000
00000
00000
00000
00000
00000
00000
00000
00000
00000
01000
00000
00000
00000
00000
00100
10000
00000
00000
00010
00000
00000
,
02000
00000
00000
03001
00000
00001
00000
00000
,
10000
00000
00000
00000
00000
00000
00000
00000
00000
00000
00000
00000
10000
00000
00000
00000
00000
00010
00100
00000
00000
00001
00000
00000
,
20000
00000
00000
30001
00000
00001
01000
00000
,
00010
00000
00000
00000
00000
00000
00000
00000
00000
00000
00000
00000
01000
00000
00000
00000
00000
00100
10000
00000
00000
00010
00000
00000
,
02000
00000
00000
03001
00000
00001
00000
00000
,
01000
00000
00000
00010
00000
00000
10000
00000
00000
00010
00000
00000
00000
00000
00100
00001
00000
00000
01000
00000
00000
01000
00000
00000
,
00002
00100
00103
00000
00010
00000
10000
00000
,
00100
00000
00000
01000
00000
00000
00001
00000
00000
10000
00000
00000
00000
00000
00010
00100
00000
00000
00001
00000
00000
00001
00000
00000
,
02000
00100
03100
00000
10100
00000
10010
00000
,
00001
00000
00000
10000
00000
00000
00010
00000
00000
10000
00000
00000
00000
00000
00100
01000
00000
00000
00001
00000
00000
00001
00000
00000
,
02000
00100
03100
00000
10000
00000
00010
00000
,
00100
00000
00000
00001
00000
00000
01000
00000
00000
00010
00000
00000
00000
00000
10000
00100
00000
00000
01000
00000
00000
01000
00000
00000
,
00020
00000
02030
03010
,
00100
00000
00000
10000
00000
00000
00010
00000
01000
00000
00000
00001
00000
00000
00001
00000
00000
00001
01000
00000
00000
00100
00000
00000
,
00000
00000
00000
10000
00000
00000
00010
00000
00100
00000
00000
00001
00000
00000
00001
00000
00000
00001
10000
00000
00000
01000
00000
00000
,
00000
00000
00000
10000
00000
00000
00010
00000
01000
00000
00000
00001
00000
00000
00001
00000
00000
00001
00010
00000
00000
00100
00000
00000
,
01000
00000
00000
00000
00000
00001
00000
00000
00000
01000
00000
00000
00001
00000
00000
00000
01000
00000
00000
00000
00001
01000
00000
00000
,
00100
00000
00000
01000
00000
00000
00001
00000
10000
00000
00000
00010
00000
00000
00010
00000
00000
00010
10000
00000
00000
00100
00000
00000
,
00000
00000
00000
01000
00000
00000
00001
00000
00100
00000
00000
00010
00000
00000
00010
00000
00000
00010
01000
00000
00000
10000
00000
00000
,
00000
00000
00000
01000
00000
00000
00001
00000
10000
00000
00000
00010
00000
00000
00010
00000
00000
00010
00001
00000
00000
00010
00000
00000
,
10000
00000
00000
00000
00000
00010
00000
00000
00000
10000
00000
00000
00010
00000
00000
00000
10000
00000
00000
00000
00000
00010
00000
00000
,
01010
00000
00000
00000
00000
00100
00001
00000
00000
01000
00000
00000
01100
00000
00000
00000
00000
00010
10000
00000
00000
00100
00000
00000
,
01100
00000
00000
00000
00000
00001
01000
00000
00000
00010
00000
00000
01010
00000
00000
00010
00000
00000
01000
00000
00000
00000
00000
00000
,
00200
00000
00000
00000
00000
10000
00000
00000
00000
00000
00000
00000
20300
00000
00000
00000
00000
00010
00000
00000
00000
00000
00000
00000
,
30020
00000
00000
00000
00000
01000
00000
00000
00000
00000
00000
00000
02030
00000
00000
00000
00000
03001
00000
00000
00000
00000
00000
00000
,
01010
00000
00000
00000
00000
00100
10000
00000
00000
00010
00000
00000
00110
00000
00000
00000
00000
01000
00001
00000
00000
00100
00000
00000
,
00110
00000
00000
00000
00000
10000
00010
00000
00000
01000
00000
00000
01010
00000
00000
01000
00000
00000
00010
00000
00000
00000
00000
00000
,
00200
00000
00000
00000
00000
00001
00000
00000
00000
00000
00000
00000
00302
00000
00000
00000
00000
01000
00000
00000
00000
00000
00000
00000
,
02003
00000
00000
00000
00000
00010
00000
00000
00000
00000
00000
00000
03020
00000
00000
00000
00000
00000
00000
00000
00000
00000
00000
00000
,
10030
00000
00000
01000
00000
00000
10000
00000
00000
00010
00000
00000
01000
00000
00001
00010
00000
00000
00001
00000
00000
00000
00000
00000
,
00100
00000
00000
00010
00000
00000
01000
00000
00000
00100
00000
00000
00010
00000
00100
10000
00000
00000
01000
00000
00000
00000
00000
00000
,
10000
00000
00000
00100
00000
00000
01000
00000
00000
00001
00000
00000
01000
00000
00010
10000
00000
00000
00100
00000
00000
00000
00000
00000
,
01000
00000
00000
00100
00000
00000
01000
00000
00000
00010
00000
00000
10000
00000
00100
01000
00000
00001
00000
00000
00010
00000
00000
00000
,
00001
00000
00000
00010
00000
00000
00001
00000
00000
01000
00000
00000
00010
00000
10000
01000
00000
00000
10000
00000
00000
00000
00000
00000
,
00100
00000
00000
01000
00000
00000
00010
00000
00000
00100
00000
00000
01000
00000
00100
00001
00000
00000
00010
00000
00000
00000
00000
00000
,
00001
00000
00000
00100
00000
00000
00010
00000
00000
10000
00000
00000
00010
00000
01000
00001
00000
00000
00100
00000
00000
00000
00000
00000
,
00010
00000
00000
00100
00000
00000
00010
00000
00000
01000
00000
00000
00001
00000
00100
00010
00000
10000
00000
00000
01000
00000
00000
00000
,
10100
01100
01010
00110
,
00101
00000
00000
00000
00000
00000
00011
00000
00000
00000
00000
00000
01001
00000
00000
00000
00000
00000
10010
00000
00000
00000
00000
01000
,
00100
00000
00000
00000
00000
01000
00010
00000
00000
00000
00000
10000
00100
00000
00000
00000
00000
10000
00010
00000
00000
00000
00000
00000
,
01000
00010
01000
00001
00100
00001
10000
00100
10000
00020
00000
00000
,
00030
00000
00000
00000
;

//---------------pump-single - ----------------
#NOTES:
     pump-single:
     :
     Medium:
     58:
     0.385,0.413,0.135,0.183,0.126,246.000,14.000,19.000,0.000,0.000:
00000
00000
00000
00000
,
00000
00000
00000
00000
,
00000
00000
00000
00000
,
00000
00000
00000
00000
,
00000
00000
00000
00000
,
00200
00000
00000
01300
00000
00010
00000
00000
,
00000
10000
00010
10000
00000
00001
00000
00000
,
00200
00000
00000
00310
00000
01000
00000
00000
,
00000
00001
01000
00001
00000
10000
00000
10000
,
01000
00100
00010
00001
,
00010
00100
01000
10000
,
01010
01010
01010
01010
,
10000
00001
10000
00001
00000
00000
10000
00001
10000
00001
00000
00000
,
01000
00000
00000
00000
00000
00000
00000
00000
00000
00000
00000
00000
00000
00000
00000
00000
00000
00010
00100
00000
00000
00001
00000
00000
,
20000
00000
30000
00000
,
00100
00000
00000
00000
00000
00000
00000
00000
00000
00000
00000
00000
00000
00000
00000
00000
00000
01000
00001
00000
00000
00100
00000
00000
,
00020
00000
00030
00000
,
00001
00000
00000
00000
00000
00000
00000
00000
00000
00000
00000
00000
00000
00000
00000
00000
00000
10000
00100
00000
00000
01000
00000
00000
,
00020
00000
00030
00000
,
00100
00000
00000
00000
00000
00000
00000
00000
00000
00000
00000
00000
00000
00000
00000
00000
00000
00001
01000
00000
00000
00100
00000
00000
,
20000
00000
30000
00000
,
01000
00000
00000
10000
00000
00000
00010
00000
00000
00000
00000
00000
00000
00000
00000
00000
00000
00010
00100
00000
00000
00001
00000
00000
,
20000
01000
30000
00010
,
00100
00000
00000
00001
00000
00000
01000
00000
00000
00000
00000
00000
00000
00000
00000
00000
00000
01000
00001
00000
00000
00100
00000
00000
,
00020
10000
00030
00100
,
00001
00000
00000
00100
00000
00000
00010
00000
00000
00000
00000
00000
00000
00000
00000
00000
00000
10000
00100
00000
00000
01000
00000
00000
,
00020
10000
00030
01000
,
00100
00000
00000
10000
00000
00000
00001
00000
00000
00000
00000
00000
00000
00000
00000
00000
00000
00001
01000
00000
00000
00100
00000
00000
,
20000
00000
00000
30100
,
00000
00001
01000
00010
00100
00010
10000
01000
,
00000
10000
00100
01000
00010
01000
00001
00100
,
00000
00010
00100
00001
01000
00010
10000
00100
,
01000
00001
01000
00001
,
00000
10000
00001
00100
00010
01000
00100
01000
,
00000
00010
00100
01000
00100
00010
10000
00001
,
00000
00100
00010
10000
00100
10000
01000
10000
,
00010
00100
00001
01000
,
10100
00000
00001
00100
00001
00000
10000
00100
,
10000
00000
00010
01000
00100
00000
01000
00001
,
00020
00030
00002
00003
,
02000
03000
00200
00300
,
10010
00000
01000
00010
00100
00000
00001
01000
,
00001
00000
10000
00100
01000
00000
00010
01000
,
00200
00300
20000
30000
,
00002
00000
00003
00000
01000
00010
02000
00000
,
03010
00000
00000
00000
00000
00000
00100
00000
00000
00000
00000
00001
01000
00000
00000
00100
00000
00000
01000
00000
00000
00000
00000
00000
,
00010
00000
00000
00000
00000
00000
10000
00000
00000
00000
00000
00100
01000
00000
00000
00010
00000
00000
01000
00000
00000
00000
00000
00000
,
00100
00000
00000
00000
00000
00000
10000
00000
00000
00000
00000
00001
00100
00000
00000
00010
00000
00000
00100
00000
00000
00000
00000
00000
,
00001
00000
00000
01000
00000
00000
00100
00000
00000
00000
00000
10000
00010
00000
00000
00100
00000
00000
00001
00000
00000
00000
00000
00000
,
01000
00000
00000
00000
00000
00000
00100
00000
00000
00000
00000
10000
00010
00000
00000
00100
00000
00000
00010
00000
00000
00000
00000
00000
,
01000
00000
00000
00000
00000
00000
00001
00000
00000
00000
00000
00100
00010
00000
00000
01000
00000
00000
00010
00000
00000
00000
00000
00000
,
00100
00000
00000
00000
00000
00000
00001
00000
00000
00000
00000
10000
00100
00000
00000
01000
00000
00000
00100
00000
00000
00000
00000
00000
,
10000
00000
00000
00010
00000
00000
00100
00000
00000
00000
00000
00001
01000
00000
00000
00100
00000
00000
10000
00000
00000
00000
00000
00000
,
10001
00100
01010
00100
,
10100
00100
00101
00100
,
11000
01100
00110
00011
,
10000
01000
10000
01000
10000
01000
10000
01000
10000
00200
00000
00000
,
00300
00000
00000
00000
;

//---------------pump-single - ----------------
#NOTES:
     pump-single:
     :
     Easy:
     26:
     0.166,0.248,0.000,0.029,0.000,117.000,0.000,3.000,0.000,0.000:
00000
00000
00000
00000
,
00000
00000
00000
00000
,
00000
00000
00000
00000
,
00000
00000
00000
00000
,
00000
00000
00000
00000
,
01000
00000
00001
00000
,
10000
00000
00100
00000
,
10000
00000
00001
00000
,
01000
00000
00010
00000
,
10000
10000
10000
10000
,
00010
00010
00010
00010
,
01000
01000
01000
01000
,
00001
00000
00001
00001
,
10000
00000
00000
00000
,
00100
00000
00000
00000
,
00100
00000
00000
00000
,
10000
00000
00000
00000
,
00001
00000
00000
00100
,
00010
00000
00000
00000
,
01000
00000
00000
00100
,
10000
00000
00000
00000
,
00001
00100
00000
00000
,
00010
01000
00000
00000
,
00010
10000
00000
00000
,
00001
00100
00001
00000
,
01000
00100
00000
00000
,
10000
00001
00000
00000
,
01000
00010
00000
00000
,
10000
00100
00000
00000
,
10000
00000
00010
00000
,
10000
00000
00100
00000
,
01000
00000
00100
00000
,
10000
00000
00010
00000
,
00100
00000
00001
00000
,
01000
00000
00001
00000
,
10000
00000
00010
00000
,
00100
00000
00010
00000
,
10000
00000
00001
00000
,
10000
00000
00000
00000
,
00200
00000
10300
00000
,
10000
00000
10000
00000
,
00001
00000
10000
00000
,
00010
00000
00100
00000
,
00020
00000
10030
00000
,
10000
00000
10000
00000
,
00001
00000
00100
00010
,
01000
00000
00001
01000
,
00010
00000
10000
00010
,
00100
00000
00010
01000
,
00001
00000
10000
00100
,
10000
00000
00010
01000
,
00100
00000
10000
00010
,
10000
00000
00001
00100
,
00001
00000
01000
00000
,
00010
00000
10000
00000
,
00010
01000
00100
01000
,
00010
00010
00010
00020
,
00030
00000
00000
00000
;

//---------------pump-single - Copied from----------------
#NOTES:
     pump-single:
     Copied from:
     Beginner:
     16:
     0.101,0.165,0.000,0.048,0.000,68.000,0.000,5.000,0.000,0.000:
00000
00000
00000
00000
,
00000
00000
00000
00000
,
00000
00000
00000
00000
,
00000
00000
00000
00000
,
00000
00000
00000
00000
,
00001
00000
00000
00000
,
01000
00000
00000
00000
,
00001
00000
00000
00000
,
00100
00000
00000
00000
,
00010
00000
00000
00000
,
01000
00000
00000
00000
,
00001
10000
00001
10000
,
00200
00000
00000
00000
,
00310
00000
00000
00000
,
00010
00000
00000
00000
,
01000
00000
00000
00000
,
01000
00000
00000
00000
,
00010
00000
00000
00000
,
00010
00000
00000
00000
,
01000
00000
00000
00000
,
01000
00000
00000
00000
,
00001
00000
00000
00000
,
00100
00000
00000
00000
,
00010
00000
00000
00000
,
01000
00000
00000
00000
,
00100
00000
00000
00000
,
10000
00000
00000
00000
,
00001
00000
00000
00000
,
10000
00000
00000
00000
,
00010
01000
00000
00000
,
00010
01000
00000
00000
,
00010
01000
00000
00000
,
00010
01000
00000
00000
,
00001
10000
00000
00000
,
00001
10000
00000
00000
,
00001
10000
00000
00000
,
00001
10000
00000
00000
,
00100
00000
00100
00000
,
00100
00000
00100
00000
,
00020
00000
00000
00000
,
00000
00000
00000
00000
,
10030
00000
10000
00000
,
10000
00000
10000
00000
,
00002
00000
00000
00000
,
00000
00000
00000
00000
,
10003
00000
00000
00000
,
00100
00000
00000
00000
,
01000
00000
00000
00000
,
00010
00000
00000
00100
,
00001
00000
00000
00000
,
01000
00000
00000
00000
,
00100
00000
00000
00000
,
10000
00000
00000
00010
,
00100
00000
00000
00000
,
00100
00000
00000
00000
,
00002
00000
00000
00000
,
10003
00000
00000
20000
,
30000
00000
00000
00000
;
