#TITLE:1981;
#SUBTITLE:Anniversary Speed Mix;
#ARTIST:CanBlaster;
#TITLETRANSLIT:;
#SUBTITLETRANSLIT:;
#ARTISTTRANSLIT:;
#CREDIT:;
#BANNER:1981remix-banner.png;
#SONGINFO:1981remix-songinfo.png;
#BACKGROUND:1981remix-bg.png;
#LYRICSPATH:;
#CDTITLE:./CDTITLES/DPSC.png;
#CHARACTER:./SongCharacters/canblaster;
#MUSIC:1981 remix.mp3;
#OFFSET:-0.080;
#SAMPLESTART:32.880;
#SAMPLELENGTH:12.000;
#SELECTABLE:YES;
#BPMS:0.000=175.020;
#STOPS:;
#BGCHANGES:-2.000=visffd320.avi=1.000=1=1=0
;
// cache tags:
#FIRSTBEAT:32.000;
#LASTBEAT:327.000;
#SONGFILENAME:Songs/Neon FM/1981 remix/1981 remix.sm;
#HASMUSIC:1;
#HASBANNER:1;
#MUSICLENGTH:112.587;
// end cache tags

//---------------pump-single - ----------------
#NOTES:
     pump-single:
     :
     Hard:
     87:
     0.681,0.653,0.266,0.133,0.004,492.000,30.000,15.000,0.000,0.000:
00000
00000
00000
00000
,
00000
00000
00000
00000
,
00000
00000
00000
00000
,
00000
00000
00000
00000
,
00000
00000
00000
00000
,
00000
00000
00000
00000
,
00000
00000
00000
00000
,
00000
00000
00000
00000
,
10010
00000
10010
00000
00010
01000
00100
02000
,
00000
03001
00000
00001
00100
00000
00101
00000
,
01001
00000
01001
00000
00001
10000
00001
02000
,
00000
03010
00000
00100
00010
01000
00010
10000
,
10010
00000
10010
00000
00010
01000
00100
02000
,
00000
03001
00000
00001
00100
00000
00101
00000
,
01001
00000
01001
00000
00001
10000
00001
02000
,
00000
03010
00000
00100
00010
01000
00010
10000
,
00001
00100
00010
00000
00010
00100
00001
00000
,
10000
00100
01000
00000
01000
00100
10000
00000
,
00010
00100
00001
00100
00010
00100
00001
00000
,
10000
00100
01000
00100
10000
00100
01000
00000
,
00010
01000
00100
00000
00100
01000
00010
00000
,
00100
00010
01000
00000
01000
00010
00100
00000
,
00010
01000
00100
01000
00010
00100
00010
00000
,
10000
00001
01000
00010
00100
00020
00000
00000
,
10030
00100
10000
00010
00100
00010
10000
00001
,
01000
00100
01000
00010
10000
00001
00100
00010
,
00100
00001
01000
00010
00100
01000
00100
00010
,
10000
00010
01000
00100
00010
00100
01000
00001
,
10000
01000
10000
00001
00010
00001
00100
00010
,
01000
00100
10000
00001
00100
00010
00001
00010
,
00100
00001
01000
00100
01000
00010
10000
00001
,
01000
00100
10000
00010
01000
01000
00001
00001
,
00001
00100
00001
01000
00100
01000
00001
10000
,
00010
00100
00010
01000
00001
10000
00100
01000
,
00100
10000
00010
01000
00100
00010
00100
01000
,
00001
01000
00010
00100
01000
00100
00010
10000
,
00001
00010
00001
10000
01000
10000
00100
01000
,
00010
00100
00001
10000
00100
01000
10000
01000
,
00100
10000
00010
00100
00010
01000
00001
10000
,
00010
00100
00001
01000
00010
00010
10000
00001
,
01001
00000
01001
00000
01000
00010
00100
00020
,
00000
10030
00000
10000
00100
00000
10100
00000
,
10010
00000
10010
00000
10000
00001
10000
00020
,
00000
01030
00000
00100
01000
00010
01000
00001
,
01001
00000
01001
00000
01000
00010
00100
00020
,
00000
10030
00000
10000
00100
00000
10100
00000
,
10010
00000
10010
00000
10000
00001
10000
00020
,
00000
01030
00000
00100
01000
00010
01000
00001
,
10000
00100
01000
00000
01000
00100
10000
00000
,
00001
00100
00010
00000
00010
00100
00001
00000
,
01000
00100
10000
00100
01000
00100
10000
00000
,
00001
00100
00010
00100
00001
00100
00010
00000
,
01000
00010
00100
00000
00100
00010
01000
00000
,
00100
01000
00010
00000
00010
01000
00100
00000
,
01000
00010
00100
00010
01000
00100
01000
00000
,
00001
00000
00000
10000
00000
00000
00010
00000
02000
00000
00000
00000
03001
00000
00000
00000
,
00001
00100
00001
01000
00100
01000
00001
10000
,
00010
00100
00010
01000
00001
10000
00100
01000
,
00100
10000
00010
01000
00100
00010
00100
01000
,
00001
01000
00010
00100
01000
00100
00010
10000
,
00001
00010
00001
10000
01000
10000
00100
01000
,
00010
00100
00001
10000
00100
01000
10000
01000
,
00100
10000
00010
00100
00010
01000
00001
10000
,
00010
00100
00001
01000
00010
00010
10000
10000
,
10000
00100
10000
00010
00100
00010
10000
00001
,
01000
00100
01000
00010
10000
00001
00100
00010
,
00100
00001
01000
00010
00100
01000
00100
00010
,
10000
00010
01000
00100
00010
00100
01000
00001
,
10000
01000
10000
00001
00010
00001
00100
00010
,
01000
00100
10000
00001
00100
00010
00001
00010
,
00100
00001
01000
00100
01000
00010
10000
00001
,
01000
00100
10000
00010
01000
01000
00001
00100
,
10010
00000
10010
00000
00010
01000
00100
02000
,
00000
03001
00000
00001
00100
00000
00101
00000
,
01001
00000
01001
00000
00001
10000
00001
02000
,
00000
03010
00000
00100
00010
01000
00010
10000
,
10010
00000
10010
00000
00010
01000
00100
02000
,
00000
03001
00000
00001
00100
00000
00101
00000
,
01001
00000
01001
00000
00001
10000
00001
02000
,
00000
03010
00000
00100
00010
01000
00010
10000
,
00002
00000
00000
00000
,
00000
00000
00000
00000
00000
10003
00100
00000
;

//---------------pump-single - ----------------
#NOTES:
     pump-single:
     :
     Medium:
     65:
     0.478,0.472,0.000,0.169,0.004,358.000,0.000,19.000,0.000,0.000:
00000
00000
00000
00000
,
00000
00000
00000
00000
,
00000
00000
00000
00000
,
00000
00000
00000
00000
,
00000
00000
00000
00000
,
00000
00000
00000
00000
,
00000
00000
00000
00000
,
00000
00000
00000
00000
,
00100
00000
00100
00000
00010
01000
00010
10000
,
00000
00001
00000
00001
01000
00000
00010
00000
,
10000
00000
10000
00000
00100
01000
00100
10000
,
00000
00010
00000
00010
01000
00010
01000
00010
,
00100
00000
00100
00000
00010
01000
00010
10000
,
00000
00001
00000
00001
01000
00000
00010
00000
,
10000
00000
10000
00000
00100
01000
00100
10000
,
00000
00010
00000
00010
01000
00010
01000
00010
,
01000
00000
00001
00000
01000
00001
01000
00000
,
00010
00000
10000
00000
00010
10000
00010
00000
,
10000
01000
10000
00000
10000
00000
10000
00000
,
00001
00010
00001
00000
00001
00000
00001
00000
,
10000
00000
00100
00000
01000
00001
01000
00000
,
00001
00000
00100
00000
00010
10000
00010
00000
,
01000
00010
10000
00000
00010
01000
00001
00000
,
10000
00001
20000
00000
,
30001
00000
00100
00000
00001
01000
00020
00000
,
10030
00010
10000
00010
,
01000
00000
00100
00000
10000
00010
02000
00000
,
03001
00100
00001
00100
,
00010
00000
10000
00000
00001
00100
00002
00000
,
01003
00100
01000
00100
,
10000
00000
00010
00000
10000
01000
20000
00000
,
30010
01000
00010
01000
,
00001
00000
00100
00000
00001
01000
00020
00000
,
10030
00010
10000
00010
,
01000
00000
00100
00000
10000
00010
02000
00000
,
03001
00100
00001
00100
,
00010
00000
10000
00000
00001
00100
00002
00000
,
01003
00100
01000
00100
,
10000
00000
00010
00000
10000
01000
20000
00000
,
30010
01000
00010
01000
,
00100
00000
00100
00000
01000
00010
01000
00001
,
00000
10000
00000
10000
00010
00000
01000
00000
,
00001
00000
00001
00000
00100
00010
00100
00001
,
00000
01000
00000
01000
00010
01000
00010
01000
,
00100
00000
00100
00000
01000
00010
01000
00001
,
00000
10000
00000
10000
00010
00000
01000
00000
,
00001
00000
00001
00000
00100
00010
00100
00001
,
00000
01000
00000
01000
00010
01000
00010
01000
,
00010
00000
10000
00000
00010
10000
00010
00000
,
01000
00000
00001
00000
01000
00001
01000
00000
,
00001
00010
00001
00000
00001
00000
00001
00000
,
10000
01000
10000
00000
10000
00000
10000
00000
,
00001
00000
00100
00000
00010
10000
00010
00000
,
10000
00000
00100
00000
01000
00001
01000
00000
,
00010
01000
00001
00000
01000
00010
10000
00000
,
00001
00000
00000
00001
00000
00000
00100
00000
00002
00000
00000
00000
00000
00000
00000
00000
,
10003
00000
00100
00000
10000
00010
02000
00000
,
03001
01000
00001
01000
,
00010
00000
00100
00000
00001
01000
00020
00000
,
10030
00100
10000
00100
,
01000
00000
00001
00000
10000
00100
20000
00000
,
30010
00100
00010
00100
,
00001
00000
01000
00000
00001
00010
00002
00000
,
01003
00010
01000
00010
,
10000
00000
00100
00000
10000
00010
02000
00000
,
03001
01000
00001
01000
,
00010
00000
00100
00000
00001
01000
00020
00000
,
10030
00100
10000
00100
,
01000
00000
00001
00000
10000
00100
20000
00000
,
30010
00100
00010
00100
,
00001
00000
01000
00000
00001
00010
00002
00000
,
01003
00010
01000
00010
,
00100
00000
00100
00000
00010
01000
00010
10000
,
00000
00001
00000
00001
01000
00000
00010
00000
,
10000
00000
10000
00000
00100
01000
00100
10000
,
00000
00010
00000
00010
01000
00010
01000
00010
,
00100
00000
00100
00000
00010
01000
00010
10000
,
00000
00001
00000
00001
01000
00000
00010
00000
,
10000
00000
10000
00000
00100
01000
00100
10000
,
00000
00010
00000
00010
01000
00010
01000
00010
,
02000
00000
00000
00000
,
00000
00000
00000
00000
00000
03001
00100
00000
;

//---------------pump-single - ----------------
#NOTES:
     pump-single:
     :
     Easy:
     36:
     0.242,0.327,0.000,0.009,0.000,190.000,0.000,1.000,0.000,0.000:
00000
00000
00000
00000
,
00000
00000
00000
00000
,
00000
00000
00000
00000
,
00000
00000
00000
00000
,
00000
00000
00000
00000
,
00000
00000
00000
00000
,
00000
00000
00000
00000
,
00000
00000
00000
00000
,
10000
00100
01000
00000
,
00100
00000
00100
00000
,
00010
00100
00001
00000
,
00100
00000
00100
00000
,
00010
01000
00010
00000
,
00100
00000
00100
00000
,
10000
00001
10000
00000
,
00100
00000
00000
00000
,
00100
00000
00000
00000
,
10000
00000
00000
00000
,
00001
00000
00100
00000
,
00010
00000
00000
00000
,
10000
00000
00000
00000
,
00010
00000
00000
00000
,
01000
00000
00100
00000
,
01000
00000
00000
00000
,
00001
10000
00100
10000
,
00010
00000
00100
00000
,
00001
01000
00001
10000
,
00100
00000
01000
00000
,
00010
10000
00010
01000
,
00001
00000
00100
00000
,
00001
10000
00010
01000
,
00100
00000
10000
00000
,
00010
01000
00010
00000
,
00100
00000
00001
00000
,
01000
00100
01000
00000
,
00010
00000
00100
00000
,
00001
10000
00010
01000
,
00100
00000
00100
00000
,
10000
00100
10000
00010
,
00100
00000
00001
00000
,
00001
10000
00000
00000
,
00001
10000
00000
00000
,
00010
01000
00000
00000
,
00010
01000
00000
00000
,
00100
01000
00000
00000
,
00100
01000
00000
00000
,
00001
01000
00000
00000
,
00001
01000
00000
00000
,
00100
00000
10000
00000
,
00010
00000
01000
00000
,
00001
00000
10000
00000
,
00010
00000
00010
00000
,
01000
00000
00000
00000
,
00100
00000
00000
00000
,
10000
00000
00001
00000
,
10000
00001
10000
00000
,
00001
10000
00100
01000
,
00100
10000
00010
00100
,
00010
01000
00010
10000
,
00001
01000
00001
10000
,
00100
01000
00100
10000
,
00010
01000
00100
01000
,
00100
10000
00010
00100
,
00001
00010
00100
01000
,
10000
01000
00010
00100
,
00010
10000
00001
01000
,
00100
00010
00100
01000
,
00001
10000
00010
00100
,
00010
00001
00010
00100
,
00010
10000
00001
01000
,
00010
10000
00001
01000
,
00010
00100
00010
01000
,
00100
00000
10000
00000
,
00001
00000
00100
00000
,
00010
00000
01000
00000
,
00100
00100
00100
00100
,
01000
00000
00010
00000
,
10000
00000
00001
00000
,
01000
00000
00100
00000
,
10000
00000
00010
00000
,
00002
00000
00000
00000
,
00000
00000
00000
10003
;

//---------------pump-single - Copied from----------------
#NOTES:
     pump-single:
     Copied from:
     Beginner:
     15:
     0.088,0.145,0.000,0.009,0.000,68.000,0.000,1.000,0.000,0.000:
00000
00000
00000
00000
,
00000
00000
00000
00000
,
00000
00000
00000
00000
,
00000
00000
00000
00000
,
00000
00000
00000
00000
,
00000
00000
00000
00000
,
00000
00000
00000
00000
,
00000
00000
00000
00000
,
00001
00000
00000
00000
,
01000
00000
00000
00000
,
00010
00000
00000
00000
,
01000
00000
00000
00000
,
00001
00000
00000
00000
,
01000
00000
00000
00000
,
00010
00000
00000
00000
,
01000
00000
00000
00000
,
00100
00000
00000
00000
,
00000
00000
00000
00000
,
00001
00000
00000
00000
,
00000
00000
00000
00000
,
10000
00000
00000
00000
,
00000
00000
00000
00000
,
00100
00000
00000
00000
,
00000
00000
00000
00000
,
01000
00010
00000
00000
,
00000
00000
00000
00000
,
10000
00100
00000
00000
,
00000
00000
00000
00000
,
01000
00010
00000
00000
,
00000
00000
00000
00000
,
00100
00001
00000
00000
,
00000
00000
00000
00000
,
10000
00100
00000
00000
,
00000
00000
00000
00000
,
01000
00010
00000
00000
,
00000
00000
00000
00000
,
00100
00001
00000
00000
,
00000
00000
00000
00000
,
10000
00100
00000
00000
,
00000
00000
00000
00000
,
10000
00000
00000
00000
,
00000
00000
00000
00000
,
00001
00000
00000
00000
,
00000
00000
00000
00000
,
10000
00000
00000
00000
,
00000
00000
00000
00000
,
00001
00000
00000
00000
,
00000
00000
00000
00000
,
01000
00000
00000
00000
,
00010
00000
00000
00000
,
10000
00000
00100
00000
,
10000
00000
00000
00000
,
00010
00000
00000
00000
,
00100
00000
00000
00000
,
00001
00000
00100
00000
,
00001
00000
00000
00000
,
10000
10000
00000
00000
,
00000
00000
00000
00000
,
00001
00001
00000
00000
,
00000
00000
00000
00000
,
00100
00100
00000
00000
,
00000
00000
00000
00000
,
00010
00010
00000
00000
,
00000
00000
00000
00000
,
01000
01000
00000
00000
,
00000
00000
00000
00000
,
00100
00100
00000
00000
,
00000
00000
00000
00000
,
10000
10000
00000
00000
,
00000
00000
00000
00000
,
00010
00010
00000
00000
,
00000
00000
00000
00000
,
00001
00000
00000
00000
,
10000
00000
00000
00000
,
01000
00000
00000
00000
,
00010
00000
00000
00000
,
00100
00000
00000
00000
,
00010
00000
00000
00000
,
01000
00000
00000
00000
,
10000
00000
00000
00000
,
00002
00000
00000
00000
,
00000
00000
00000
10003
;
